osu file format v14

[General]
AudioFilename: audio.mp3
AudioLeadIn: 0
PreviewTime: 54708
Countdown: 0
SampleSet: Soft
StackLeniency: 0
Mode: 2
LetterboxInBreaks: 0
WidescreenStoryboard: 1

[Editor]
DistanceSpacing: 1.7
BeatDivisor: 4
GridSize: 32
TimelineZoom: 2.2

[Metadata]
Title:Signal Graph (TV Size)
TitleUnicode:シグナルグラフ (TV Size)
Artist:Annabel
ArtistUnicode:Annabel
Creator:muya-
Version:Ascendance's Special
Source:恋と選挙とチョコレート
Tags:Koi to Senkyo to Chocolate Love and Elections opening op anime japanese pop jpop j-pop アナベル 恋チョコ vn visual novel video game eroge Chatie Ascendance vgm female vocal vocals vocalist
BeatmapID:3825015
BeatmapSetID:1711863

[Difficulty]
HPDrainRate:6
CircleSize:3.8
OverallDifficulty:9
ApproachRate:9
SliderMultiplier:2.2
SliderTickRate:2

[Events]
//Background and Video events
0,0,"koichoco.jpg",0,0
Video,-400,"signal.mp4"
//Break Periods
//Storyboard Layer 0 (Background)
//Storyboard Layer 1 (Fail)
//Storyboard Layer 2 (Pass)
//Storyboard Layer 3 (Foreground)
//Storyboard Layer 4 (Overlay)
//Storyboard Sound Samples

[TimingPoints]
-711,359.281437125748,4,2,1,35,1,0
3869,-100,4,2,1,35,0,0
3959,-100,4,2,1,35,0,0
4229,-100,4,2,1,35,0,0
4318,-100,4,2,1,35,0,0
4588,-100,4,2,1,35,0,0
4678,-100,4,2,1,35,0,0
6115,-100,4,2,1,5,0,0
6384,-100,4,2,1,50,0,0
6474,-100,4,2,1,80,0,1
6833,-100,4,2,1,80,0,0
15097,-100,4,2,1,60,0,0
26594,-100,4,2,1,70,0,0
38091,-100,4,2,1,65,0,0
46714,-100,4,2,1,70,0,0
49588,-100,4,2,1,80,0,0
52462,-100,4,2,1,85,0,0
54797,-100,4,2,1,70,0,0
55157,-95.2380952380952,4,2,6,90,0,1
55247,-95.2380952380952,4,2,1,90,0,1
64857,-95.2380952380952,4,2,1,90,0,0
65217,-62.5,4,2,1,90,0,1
65486,-62.5,4,2,1,90,0,1
65576,-62.5,4,2,1,90,0,0
65845,-62.5,4,2,1,90,0,0
65935,-62.5,4,2,1,90,0,1
66205,-62.5,4,2,1,90,0,1
66294,-95.2380952380952,4,2,1,90,0,0
66654,-95.2380952380952,4,2,6,90,0,1
66744,-95.2380952380952,4,2,1,90,0,1
79229,-95.2380952380952,4,2,1,90,0,0
79588,-95.2380952380952,4,2,1,90,0,1
80127,-95.2380952380952,4,2,1,90,0,0
80306,-95.2380952380952,4,2,1,60,0,0
81205,-100,4,2,1,80,0,1
81564,-100,4,2,1,80,0,1
83720,-100,4,2,1,80,0,0
84079,-100,4,2,6,80,0,1
84169,-100,4,2,1,80,0,1
84438,-100,4,2,1,60,0,0
85157,-100,4,2,1,40,0,0
85247,-100,4,2,1,42,0,0
85336,-100,4,2,1,45,0,0
85426,-100,4,2,1,48,0,0
85516,-100,4,2,1,50,0,0
85606,-100,4,2,1,52,0,0
85696,-100,4,2,1,55,0,0
85786,-100,4,2,1,58,0,0
85875,-100,4,2,1,60,0,0
85965,-100,4,2,1,62,0,0
86055,-100,4,2,1,65,0,0
86145,-100,4,2,1,68,0,0
86235,-100,4,2,1,70,0,0
86414,-100,4,2,1,65,0,0
86594,-100,4,2,1,60,0,0
86774,-100,4,2,1,55,0,0
86953,-100,4,2,1,50,0,0
87133,-100,4,2,1,45,0,0
87312,-100,4,2,1,40,0,0
87492,-100,4,2,1,35,0,0
87672,-100,4,2,1,30,0,0
88031,-100,4,2,1,25,0,0
88390,-100,4,2,1,20,0,0
88750,-100,4,2,1,15,0,0
89109,-100,4,2,1,5,0,0

[Colours]
Combo1 : 101,239,198
Combo2 : 109,222,245
Combo3 : 244,104,157
Combo4 : 234,177,121

[HitObjects]
121,312,187,5,2,0:0:0:0:
118,276,366,1,2,0:0:0:0:
114,237,546,1,2,0:0:0:0:
275,163,726,5,2,0:1:0:0:
104,136,905,1,2,0:0:0:0:
99,94,1085,1,2,0:0:0:0:
94,53,1265,1,2,0:0:0:0:
391,312,1624,5,2,0:0:0:0:
394,276,1803,1,2,0:0:0:0:
398,237,1983,1,2,0:0:0:0:
234,164,2163,5,2,0:1:0:0:
408,136,2342,1,2,0:0:0:0:
414,93,2522,1,2,0:0:0:0:
418,53,2702,1,2,0:0:0:0:
186,359,3061,5,2,0:0:0:0:
183,323,3240,1,2,0:0:0:0:
179,284,3420,1,2,0:0:0:0:
390,360,3600,5,2,0:2:0:0:
411,268,3959,1,2,0:2:0:0:
434,173,4318,1,2,0:2:0:0:
168,95,4678,5,2,0:2:0:0:
256,192,4768,12,0,6115,0:0:0:0:
32,88,6384,5,8,0:0:0:0:
209,217,6474,5,6,1:1:0:0:
259,198,6564,1,0,3:2:0:0:
279,148,6654,1,0,3:2:0:0:
257,99,6744,1,0,3:2:0:0:
207,82,6833,1,8,0:0:0:0:
78,82,7013,1,0,3:2:0:0:
334,253,7193,2,0,L|475:253,1,110,2|0,1:1|3:2,0:0:0:0:
386,232,7462,1,0,3:2:0:0:
203,187,7552,2,0,L|45:188,1,110,8|0,0:0|3:2,0:0:0:0:
375,52,7911,6,0,L|375:180,1,110,2|0,1:1|3:2,0:0:0:0:
233,196,8271,1,10,0:1:0:0:
370,278,8450,2,0,L|298:273,1,55,0|0,3:2|3:2,0:0:0:0:
124,337,8630,2,0,L|121:206,1,110,2|0,1:1|3:2,0:0:0:0:
276,267,8989,2,0,L|392:268,1,110,10|0,0:1|3:2,0:0:0:0:
130,208,9348,5,2,1:1:0:0:
77,198,9437,1,0,3:2:0:0:
44,156,9527,1,0,3:2:0:0:
48,102,9617,1,0,3:2:0:0:
87,65,9707,1,8,0:2:0:0:
223,43,9887,2,0,L|281:57,2,55,0|0|0,3:2|3:2|1:2,0:0:0:0:
47,140,10247,2,0,L|184:114,1,110,2|8,3:1|0:0,0:0:0:0:
397,280,10606,6,0,L|174:241,1,220,2|0,3:1|3:2,0:0:0:0:
362,128,11145,2,0,L|362:248,1,110,10|0,0:1|3:2,0:0:0:0:
206,261,11504,2,0,L|206:379,1,110,2|2,1:1|3:1,0:0:0:0:
367,332,11863,2,0,P|449:282|399:204,1,165,10|0,0:1|3:2,0:0:0:0:
245,177,12223,6,0,L|118:199,1,110,2|0,1:1|3:2,0:0:0:0:
118,253,12492,1,0,3:2:0:0:
285,326,12582,1,10,0:1:0:0:
415,232,12762,2,0,L|425:359,1,110,2|0,3:1|1:2,0:0:0:0:
252,217,13121,2,0,L|242:91,1,110,2|8,3:1|0:0,0:0:0:0:
486,70,13480,5,2,1:1:0:0:
329,92,13660,2,0,L|446:70,1,110,0|0,0:0|3:2,0:0:0:0:
479,115,13929,1,0,0:0:0:0:
261,223,14019,5,2,1:1:0:0:
258,195,14063,1,2,0:2:0:0:
255,168,14108,1,2,0:0:0:0:
340,155,14199,2,0,L|331:59,1,55,2|2,0:0|0:0,0:0:0:0:
154,76,14378,2,0,L|38:60,1,110,2|2,0:0|1:1,0:0:0:0:
103,44,14648,1,2,0:0:0:0:
284,37,14738,2,0,P|361:61|337:154,1,165,2|0,0:0|0:0,0:0:0:0:
177,218,15097,5,6,1:1:0:0:
368,182,15456,1,2,1:2:0:0:
255,215,15636,2,0,L|241:341,1,110,2|0,3:2|1:2,0:0:0:0:
415,235,15995,2,0,L|431:116,1,110,2|0,3:2|1:2,0:0:0:0:
282,165,16354,6,0,L|160:143,1,110,2|0,3:2|1:2,0:0:0:0:
316,276,16714,2,0,L|426:298,1,110,2|0,3:2|1:2,0:0:0:0:
230,353,17073,2,0,P|162:282|249:206,1,220,2|0,3:2|3:2,0:0:0:0:
351,204,17612,1,0,1:2:0:0:
216,207,17791,1,2,3:2:0:0:
459,194,17971,6,0,L|236:160,1,220,2|2,1:2|1:2,0:0:0:0:
110,231,18510,2,0,L|102:119,1,110,2|0,3:2|1:2,0:0:0:0:
256,246,18869,1,2,3:2:0:0:
116,281,19049,1,2,1:2:0:0:
278,263,19229,6,0,L|501:304,1,220,2|2,3:2|3:2,0:0:0:0:
392,192,19768,1,2,1:2:0:0:
221,132,19947,2,0,L|1:157,1,220,2|0,3:2|3:2,0:0:0:0:
136,228,20486,1,0,1:2:0:0:
21,195,20666,1,2,3:2:0:0:
298,307,20845,6,0,P|385:262|314:157,1,220,2|2,1:2|1:2,0:0:0:0:
196,169,21384,2,0,P|109:104|170:12,1,220,2|2,3:2|3:2,0:0:0:0:
284,20,21923,1,2,1:2:0:0:
137,73,22103,6,0,L|124:197,1,110,2|0,3:2|1:2,0:0:0:0:
297,192,22462,2,0,L|310:316,1,110,2|0,3:2|1:2,0:0:0:0:
143,172,22821,2,0,L|389:140,1,220,2|0,3:2|3:2,0:0:0:0:
237,274,23360,2,0,L|223:190,2,55,2|0|0,1:2|3:2|3:2,0:0:0:0:
487,319,23720,6,0,L|484:341,1,13.75,2|0,1:2|1:2,0:0:0:0:
473,333,23899,1,2,3:2:0:0:
467,323,24079,1,0,1:2:0:0:
311,175,24259,6,0,L|305:200,1,13.75,2|0,1:2|1:2,0:0:0:0:
297,189,24438,1,0,1:2:0:0:
291,179,24618,1,0,3:2:0:0:
136,99,24797,6,0,L|153:-22,1,110,2|0,1:2|3:2,0:0:0:0:
279,88,25157,1,0,1:2:0:0:
135,135,25336,1,0,3:2:0:0:
294,115,25516,2,0,L|310:227,1,110,2|0,1:2|3:2,0:0:0:0:
176,284,25875,2,0,L|166:342,2,55,0|0|2,1:2|3:2|3:2,0:0:0:0:
314,240,26235,2,0,L|137:212,1,165,0|0,1:2|3:2,0:0:0:0:
383,345,26594,6,0,L|510:318,2,110,6|0|2,1:2|0:0|1:2,0:0:0:0:
223,239,27133,2,0,L|211:366,1,110,2|0,3:2|1:2,0:0:0:0:
368,219,27492,1,2,3:2:0:0:
126,125,27672,1,8,0:0:0:0:
249,65,27851,6,0,L|264:200,1,110,2|0,3:2|1:2,0:0:0:0:
129,285,28211,2,0,L|111:139,1,110,2|0,3:2|1:2,0:0:0:0:
277,239,28570,1,2,3:2:0:0:
145,313,28750,2,0,P|63:336|12:338,1,110,0|0,1:2|3:2,0:0:0:0:
284,208,29109,2,0,P|357:222|396:244,1,110,8|2,0:0|3:2,0:0:0:0:
149,299,29468,6,0,P|82:204|144:152,1,220,2|2,1:2|1:2,0:0:0:0:
316,168,30007,2,0,P|340:92|332:23,1,110,2|0,3:2|1:2,0:0:0:0:
177,187,30366,1,2,3:2:0:0:
437,278,30546,1,10,0:0:0:0:
286,161,30726,6,0,P|194:183|217:311,1,220,2|2,3:2|3:2,0:0:0:0:
321,327,31265,1,2,1:2:0:0:
181,242,31444,2,0,L|177:374,1,110,2|0,3:2|1:2,0:0:0:0:
338,290,31803,1,2,3:2:0:0:
85,186,31983,2,0,L|301:157,1,165,10|0,0:2|3:2,0:0:0:0:
422,159,32342,6,0,P|486:116|423:13,1,220,2|0,1:2|1:2,0:0:0:0:
303,14,32881,1,2,3:2:0:0:
453,35,33061,2,0,L|464:150,1,110,2|0,1:2|3:2,0:0:0:0:
185,189,33420,1,10,0:0:0:0:
312,133,33600,6,0,P|419:172|470:293,1,220,2|2,3:2|3:2,0:0:0:0:
346,298,34139,1,2,1:2:0:0:
170,220,34318,2,0,L|151:343,1,110,2|0,3:2|1:2,0:0:0:0:
304,201,34678,1,2,3:2:0:0:
54,141,34857,2,0,L|41:76,2,55,10|0|0,0:0|3:2|3:2,0:0:0:0:
302,316,35217,5,2,1:1:0:0:
352,297,35306,1,0,3:2:0:0:
374,248,35396,1,0,3:2:0:0:
356,198,35486,1,0,3:2:0:0:
308,175,35576,1,0,1:2:0:0:
177,173,35756,1,0,3:2:0:0:
326,175,35935,2,0,L|331:40,1,110,2|0,1:2|3:2,0:0:0:0:
81,38,36294,1,10,0:0:0:0:
206,12,36474,6,0,P|308:53|301:168,1,220,2|0,3:2|3:2,0:0:0:0:
166,239,37013,2,0,L|162:118,1,110,2|0,1:1|3:2,0:0:0:0:
316,252,37372,2,0,L|375:249,2,55,2|0|0,1:1|3:2|3:2,0:0:0:0:
171,323,37732,2,0,L|246:319,1,55,10|0,0:1|1:2,0:0:0:0:
399,332,37911,2,0,L|469:325,1,55,0|0,1:2|1:2,0:0:0:0:
209,307,38091,6,0,P|107:262|150:147,1,220,6|0,1:1|1:2,0:0:0:0:
366,156,38630,1,2,3:1:0:0:
233,100,38809,2,0,L|224:217,1,110,0|2,1:2|3:2,0:0:0:0:
472,71,39169,1,10,0:0:0:0:
470,93,39348,1,2,3:2:0:0:
227,176,39528,6,0,L|6:141,1,220,0|2,1:2|1:2,0:0:0:0:
146,307,40067,2,0,L|278:277,2,110,2|0|2,3:2|1:2|3:2,0:0:0:0:
391,204,40606,2,0,L|183:165,1,165,10|0,0:0|3:2,0:0:0:0:
420,338,40965,6,0,P|477:309|416:199,1,220,2|0,1:1|1:2,0:0:0:0:
167,199,41504,1,2,3:1:0:0:
278,199,41684,1,0,1:2:0:0:
140,199,41863,1,2,3:2:0:0:
382,199,42043,1,10,0:0:0:0:
259,199,42223,6,0,P|183:166|208:43,1,220,2|2,3:2|3:2,0:0:0:0:
324,35,42762,1,2,1:2:0:0:
201,32,42941,1,2,3:2:0:0:
359,51,43121,5,2,1:2:0:0:
408,66,43210,1,2,0:0:0:0:
411,117,43300,1,2,0:0:0:0:
364,138,43390,1,2,0:0:0:0:
181,142,43480,1,10,3:2:0:0:
131,157,43569,1,2,3:2:0:0:
128,208,43659,1,2,3:2:0:0:
175,229,43749,1,2,3:2:0:0:
388,334,43839,6,0,P|477:295|413:190,1,220,2|0,1:1|1:2,0:0:0:0:
307,185,44378,1,2,3:1:0:0:
174,188,44558,2,0,L|170:74,1,110,0|2,1:2|3:2,0:0:0:0:
472,249,44917,2,0,L|473:108,1,110,10|2,0:0|3:2,0:0:0:0:
186,234,45277,6,0,L|70:234,2,110,0|2|2,1:2|3:2|1:2,0:0:0:0:
325,237,45815,2,0,L|332:163,2,55,2|0|0,3:2|3:2|1:2,0:0:0:0:
183,248,46175,1,2,3:2:0:0:
441,241,46354,1,10,0:1:0:0:
447,295,46443,1,0,3:2:0:0:
454,350,46533,1,2,3:2:0:0:
199,201,46714,6,0,P|76:183|-1:103,1,220,2|0,1:1|1:2,0:0:0:0:
131,59,47253,1,2,3:2:0:0:
294,60,47432,2,0,L|298:180,1,110,2|0,1:2|3:2,0:0:0:0:
52,59,47791,1,10,0:0:0:0:
169,59,47971,6,0,L|434:63,1,220,2|2,3:2|3:2,0:0:0:0:
420,114,48420,1,0,3:2:0:0:
257,162,48510,2,0,L|229:220,2,55,2|0|2,1:2|3:2|3:2,0:0:0:0:
437,273,48869,2,0,L|306:268,1,110,2|2,1:2|3:2,0:0:0:0:
298,214,49139,1,0,3:2:0:0:
478,185,49229,2,0,L|470:60,1,110,10|2,0:0|1:2,0:0:0:0:
168,65,49588,6,0,L|409:44,1,220,6|8,1:1|0:0,0:0:0:0:
413,156,50127,1,0,3:2:0:0:
99,188,50306,2,0,L|340:167,1,220,2|8,1:1|0:0,0:0:0:0:
344,279,50845,1,0,3:2:0:0:
23,287,51025,6,0,L|264:266,1,220,2|8,1:1|0:0,0:0:0:0:
358,261,51564,1,0,3:2:0:0:
89,348,51744,2,0,L|98:231,1,110,2|0,1:1|3:2,0:0:0:0:
383,256,52103,2,0,L|393:138,1,110,10|0,3:2|3:2,0:0:0:0:
82,105,52462,6,0,L|312:65,2,220,2|10|2,1:1|0:1|1:1,0:0:0:0:
226,172,53360,1,0,3:2:0:0:
465,94,53540,2,0,L|470:224,1,110,10|0,0:1|3:2,0:0:0:0:
169,184,53899,6,0,L|300:151,1,110,2|2,1:1|0:0,0:0:0:0:
408,208,54259,1,10,0:0:0:0:
82,101,54438,1,2,1:1:0:0:
215,129,54618,2,0,L|286:130,1,55,0|0,0:2|0:2,0:2:0:0:
210,153,54797,2,0,L|146:154,1,55,2|0,1:2|1:2,0:0:0:0:
345,250,54977,2,0,L|420:248,1,55,2|0,1:2|1:2,0:0:0:0:
175,349,55157,6,0,L|26:349,1,115.49999647522,6|0,1:1|0:0,0:0:0:0:
216,263,55516,1,2,3:2:0:0:
478,262,55696,1,10,0:0:0:0:
350,212,55875,2,0,L|473:202,1,115.49999647522,2|0,3:2|1:2,0:0:0:0:
339,298,56235,1,2,3:2:0:0:
396,294,56324,1,0,3:2:0:0:
454,291,56414,1,10,0:0:0:0:
188,357,56594,6,0,P|103:295|188:208,1,230.99999295044,2|2,3:2|3:2,0:0:0:0:
427,175,57133,1,10,0:0:0:0:
294,108,57312,2,0,L|282:235,1,115.49999647522,2|0,3:2|1:2,0:0:0:0:
421,83,57672,2,0,L|483:69,2,57.7499982376099,2|0|10,3:2|3:2|0:0,0:0:0:0:
148,200,58031,6,0,L|391:232,1,230.99999295044,2|2,3:2|3:2,0:0:0:0:
44,257,58570,2,0,L|53:378,1,115.49999647522,10|0,0:0|3:2,0:0:0:0:
194,284,58929,1,2,1:2:0:0:
325,267,59109,1,2,3:2:0:0:
332,324,59198,1,0,3:2:0:0:
340,381,59288,1,10,0:0:0:0:
60,95,59468,6,0,L|315:94,1,230.99999295044,2|2,3:2|3:2,0:0:0:0:
25,253,60007,2,0,P|45:313|75:375,1,115.49999647522,8|0,0:0|3:2,0:0:0:0:
232,361,60366,1,2,1:2:0:0:
95,126,60546,2,0,P|45:202|28:242,1,115.49999647522,2|10,3:2|0:0,0:0:0:0:
28,287,60815,1,0,3:2:0:0:
62,340,60905,1,2,3:2:0:0:
121,362,60995,1,0,3:2:0:0:
349,350,61085,6,0,P|325:258|297:227,1,115.49999647522,0|0,1:2|3:2,0:0:0:0:
181,222,61444,1,10,0:0:0:0:
430,252,61624,2,0,P|495:192|413:91,1,230.99999295044,2|2,3:2|3:2,0:0:0:0:
173,75,62163,2,0,L|164:199,1,115.49999647522,10|2,0:0|3:2,0:0:0:0:
319,189,62522,6,0,L|316:305,1,115.49999647522,0|0,1:2|3:2,0:0:0:0:
49,179,62881,1,8,0:0:0:0:
182,206,63061,2,0,L|243:191,2,57.7499982376099,2|0|0,3:2|3:2|1:2,0:0:0:0:
49,179,63420,1,2,3:2:0:0:
314,251,63600,1,10,0:0:0:0:
195,212,63780,1,2,3:2:0:0:
489,282,63959,6,0,L|232:326,1,230.99999295044,0|8,1:2|0:0,0:0:0:0:
124,232,64498,2,0,L|109:352,1,115.49999647522,2|0,3:2|1:2,0:0:0:0:
264,227,64857,2,0,L|330:207,2,57.7499982376099,2|0|8,3:2|3:2|0:0,0:0:0:0:
23,158,65217,5,14,1:1:0:0:
475,258,65576,1,14,1:1:0:0:
23,158,65935,1,14,1:1:0:0:
480,283,66294,6,0,L|414:273,1,57.7499982376099,2|0,1:2|3:2,0:0:0:0:
257,208,66474,2,0,L|179:195,1,57.7499982376099,10|0,0:2|3:2,0:0:0:0:
15,162,66654,6,0,L|248:111,1,230.99999295044,6|2,1:1|3:2,0:0:0:0:
479,54,67193,1,10,0:0:0:0:
336,99,67372,2,0,L|210:71,1,115.49999647522,2|0,3:2|1:2,0:0:0:0:
376,336,67732,1,2,3:2:0:0:
425,309,67821,1,0,3:2:0:0:
443,256,67911,1,10,0:2:0:0:
417,205,68001,1,0,3:2:0:0:
364,186,68091,1,2,3:2:0:0:
50,254,68271,6,0,L|46:103,1,115.49999647522,0|2,1:2|3:2,0:0:0:0:
317,127,68630,1,10,0:0:0:0:
197,78,68809,1,2,3:2:0:0:
341,146,68989,2,0,L|467:129,1,115.49999647522,0|2,1:2|3:2,0:0:0:0:
493,182,69259,1,0,3:2:0:0:
281,244,69348,1,10,0:0:0:0:
392,258,69528,6,0,L|413:382,1,115.49999647522,2|0,3:2|1:2,0:0:0:0:
148,223,69887,1,2,3:2:0:0:
268,205,70067,2,0,L|283:72,1,115.49999647522,10|0,0:0|3:2,0:0:0:0:
41,63,70426,2,0,L|173:31,1,115.49999647522,2|0,1:2|3:2,0:0:0:0:
105,79,70696,1,0,3:2:0:0:
43,97,70786,1,10,0:0:0:0:
331,239,70965,6,0,L|90:202,1,230.99999295044,2|2,3:2|3:2,0:0:0:0:
234,186,71504,1,10,0:0:0:0:
381,192,71684,2,0,L|392:72,1,115.49999647522,2|0,3:2|1:2,0:0:0:0:
224,217,72043,1,2,3:2:0:0:
216,274,72132,1,0,3:2:0:0:
209,331,72222,1,8,0:0:0:0:
352,260,72402,1,2,1:2:0:0:
48,263,72582,6,0,L|37:121,1,115.49999647522,0|2,1:2|3:2,0:0:0:0:
143,95,72941,1,10,0:0:0:0:
324,193,73121,2,0,P|422:137|346:17,1,230.99999295044,2|2,3:2|3:2,0:0:0:0:
336,19,73570,1,0,3:2:0:0:
272,12,73660,1,10,0:0:0:0:
397,91,73839,1,2,3:2:0:0:
141,135,74019,6,0,L|141:291,1,115.49999647522,0|2,1:2|3:2,0:0:0:0:
446,345,74378,2,0,L|444:220,1,115.49999647522,10|0,0:0|3:2,0:0:0:0:
290,264,74738,2,0,L|167:263,1,115.49999647522,2|0,1:2|3:2,0:0:0:0:
428,210,75097,2,0,P|508:145|447:80,1,173.24999471283,10|0,0:0|3:2,0:0:0:0:
321,41,75456,6,0,L|198:40,2,115.49999647522,2|0|10,1:2|3:2|0:0,0:0:0:0:
75,158,75995,2,0,L|330:162,1,230.99999295044,2|2,3:2|3:2,0:0:0:0:
369,161,76444,1,0,3:2:0:0:
188,249,76534,2,0,L|103:248,1,57.7499982376099,10|0,0:0|3:2,0:0:0:0:
360,348,76714,6,0,P|450:292|368:196,1,230.99999295044,2|2,3:2|3:2,0:0:0:0:
247,127,77253,2,0,L|239:255,1,115.49999647522,10|2,0:0|3:2,0:0:0:0:
399,168,77612,2,0,L|398:32,1,115.49999647522,0|2,1:2|3:2,0:0:0:0:
151,130,77971,2,0,L|24:127,1,115.49999647522,10|2,0:0|3:2,0:0:0:0:
349,351,78330,6,0,P|449:283|381:190,1,230.99999295044,2|10,1:2|0:0,0:0:0:0:
270,186,78869,2,0,L|149:182,1,115.49999647522,2|0,3:2|1:2,0:0:0:0:
326,282,79229,2,0,L|406:283,2,57.7499982376099,2|0|8,3:2|3:2|0:0,0:0:0:0:
83,346,79588,6,0,P|11:298|80:229,1,173.24999471283,14|0,1:1|0:0,0:0:0:0:
230,216,79947,2,0,L|310:214,1,57.7499982376099,14|0,1:1|0:0,0:0:0:0:
80,145,80127,5,14,1:1:0:0:
146,339,81115,1,2,0:0:0:0:
389,333,81205,6,0,P|472:275|391:186,1,220,6|10,1:1|0:0,0:0:0:0:
115,116,81744,2,0,L|349:88,1,220,6|0,1:1|1:2,0:0:0:0:
203,64,82283,1,10,0:0:0:0:
461,292,82462,6,0,L|226:263,1,220,6|0,1:1|1:2,0:0:0:0:
379,240,83001,1,8,0:0:0:0:
120,352,83181,6,0,P|42:291|111:215,1,220,6|0,1:1|1:2,0:0:0:0:
358,206,83720,1,10,1:1:0:0:
240,174,83899,2,0,L|226:104,1,55,10|0,1:1|3:2,0:0:0:0:
427,229,84079,6,0,L|414:351,1,110,14|0,1:1|0:0,0:0:0:0:
293,346,84438,1,2,0:0:0:0:
176,231,84618,2,0,L|158:348,1,110,2|0,0:0|0:0,0:0:0:0:
61,182,84977,1,2,0:0:0:0:
221,210,85157,5,2,0:0:0:0:
262,177,85246,1,2,0:0:0:0:
259,124,85336,1,2,0:0:0:0:
214,95,85426,1,2,0:0:0:0:
160,118,85516,1,2,0:0:0:0:
118,85,85605,1,2,0:0:0:0:
121,32,85695,1,2,0:0:0:0:
166,3,85785,1,2,0:0:0:0:
332,22,85875,6,0,L|389:26,1,55,2|2,0:0|0:0,0:0:0:0:
199,123,86055,2,0,L|138:119,1,55,2|2,0:0|0:0,0:0:0:0:
398,211,86235,5,2,0:1:0:0:
256,192,86324,12,0,89109,0:0:0:0:
