osu file format v14

[General]
AudioFilename: audio.mp3
AudioLeadIn: 0
PreviewTime: 55158
Countdown: 0
SampleSet: Soft
StackLeniency: 0.7
Mode: 0
LetterboxInBreaks: 0
WidescreenStoryboard: 0

[Editor]
DistanceSpacing: 0.5
BeatDivisor: 4
GridSize: 4
TimelineZoom: 1.6

[Metadata]
Title:Signal Graph (TV Size)
TitleUnicode:シグナルグラフ (TV Size)
Artist:Annabel
ArtistUnicode:Annabel
Creator:H i k a r i
Version:Chocolate
Source:恋と選挙とチョコレート
Tags:annabel signal graph koi to senkyo to chocolate H_i_k_a_r_i GimBab
BeatmapID:906585
BeatmapSetID:418896

[Difficulty]
HPDrainRate:5
CircleSize:4.3
OverallDifficulty:6
ApproachRate:9
SliderMultiplier:1.8
SliderTickRate:1

[Events]
//Background and Video events
Video,0,"op.avi"
0,0,"koichoco0012.jpg",0,0
//Break Periods
//Storyboard Layer 0 (Background)
//Storyboard Layer 1 (Fail)
//Storyboard Layer 2 (Pass)
//Storyboard Layer 3 (Foreground)
//Storyboard Sound Samples

[TimingPoints]
-350,359.281437125748,4,2,1,50,1,0
548,-200,4,2,17,50,0,0
1087,-200,4,2,10,50,0,0
1266,-200,4,2,15,50,0,0
1985,-200,4,2,13,50,0,0
2524,-200,4,2,11,50,0,0
2703,-200,4,2,13,50,0,0
2883,-200,4,2,17,50,0,0
3063,-200,4,2,16,50,0,0
3422,-200,4,2,15,50,0,0
3602,-200,4,2,14,50,0,0
3781,-200,4,2,15,50,0,0
3961,-200,4,2,12,50,0,0
4320,-200,4,2,15,60,0,0
4679,-133.333333333333,4,2,18,70,0,0
5039,-100,4,2,19,80,0,0
6476,-100,4,2,0,5,0,0
6835,-100,4,2,1,80,0,0
12224,-66.6666666666667,4,2,1,80,0,0
12404,-100,4,2,1,80,0,0
12584,-100,4,2,2,80,0,0
12673,-100,4,2,1,80,0,0
14380,-200,4,2,1,80,0,0
14919,-133.333333333333,4,2,1,80,0,0
15458,-133.333333333333,4,2,0,50,0,0
26955,-133.333333333333,4,1,1,40,0,0
37554,-133.333333333333,4,1,1,60,0,0
37913,-133.333333333333,4,1,1,70,0,0
38272,-133.333333333333,4,1,1,80,0,0
38452,-200,4,1,1,40,0,0
38991,-100,4,1,1,40,0,0
39709,-133.333333333333,4,1,1,40,0,0
41326,-200,4,1,1,40,0,0
41865,-100,4,1,1,40,0,0
42224,-133.333333333333,4,1,1,40,0,0
44200,-200,4,1,1,40,0,0
44739,-100,4,1,1,40,0,0
45458,-133.333333333333,4,1,1,40,0,0
54799,-66.6666666666667,4,1,1,40,0,0
55518,-100,4,2,1,80,0,1
65937,-66.6666666666667,4,2,1,85,0,1
66296,-50,4,2,1,90,0,1
67015,-100,4,2,1,95,0,1
80847,-200,4,2,0,80,0,1
81296,-200,4,2,0,5,0,1
81566,-100,4,2,1,80,0,0
84440,-200,4,2,1,80,0,0
85877,-200,4,1,1,30,0,0
86596,-200,4,2,15,70,0,0

[Colours]
Combo1 : 0,128,64
Combo2 : 0,128,128
Combo3 : 0,128,192
Combo4 : 0,128,255
Combo5 : 128,255,255
Combo6 : 255,128,128

[HitObjects]
56,92,548,5,0,0:0:0:0:
58,108,727,1,0,0:0:0:0:
61,125,907,1,0,0:0:0:0:
136,156,1086,5,0,0:0:0:0:
56,224,1266,5,0,0:0:0:0:
59,240,1447,1,0,0:0:0:0:
61,257,1626,1,0,0:0:0:0:
184,200,1985,1,0,0:0:0:0:
185,180,2164,1,0,0:0:0:0:
186,160,2344,1,0,0:0:0:0:
176,68,2524,5,0,0:0:0:0:
276,108,2703,5,0,0:0:0:0:
277,137,2883,1,0,0:0:0:0:
279,167,3063,1,0,0:0:0:0:
384,280,3422,5,0,0:0:0:0:
384,264,3602,1,0,0:0:0:0:
384,248,3781,1,0,0:0:0:0:
296,52,3961,5,0,0:0:0:0:
277,137,4320,5,0,0:0:0:0:
260,224,4679,5,0,0:0:0:0:
240,308,5039,5,0,0:0:0:0:
256,192,5398,12,0,6476,0:0:0:0:
68,136,6835,6,0,L|176:128,1,90,0|2,3:0|0:0,0:0:0:0:
232,120,7105,1,0,0:0:0:0:
248,118,7194,1,8,0:0:0:0:
104,36,7374,1,2,0:0:0:0:
384,296,7554,2,0,L|276:288,1,90,0|2,3:0|0:0,0:0:0:0:
264,268,7823,2,0,L|276:332,1,45,0|8,0:0|0:0,0:0:0:0:
200,360,8093,1,2,0:0:0:0:
20,316,8272,6,0,P|84:312|112:284,1,90,0|2,3:0|0:0,0:0:0:0:
136,232,8542,1,0,0:0:0:0:
136,232,8632,2,0,L|148:168,1,45,8|0,0:0|0:0,0:0:0:0:
184,32,8811,2,0,L|192:96,1,45
28,192,8991,2,0,L|20:88,1,90,2|0,3:2|0:0,0:0:0:0:
125,275,9350,2,0,L|120:376,1,90,10|0,0:0|0:0,0:0:0:0:
216,208,9709,6,0,B|272:204|272:204|324:228|324:228|400:220,2,180,2|8|0,3:2|0:0|0:0,0:0:0:0:
344,144,10608,1,2,0:0:0:0:
112,164,10787,2,0,L|124:272,1,90,10|0,0:0|0:0,0:0:0:0:
280,352,11147,6,0,P|296:296|284:252,1,90,0|2,3:0|0:0,0:0:0:0:
264,144,11506,2,0,P|309:180|354:186,1,90,8|2,0:0|0:0,0:0:0:0:
456,216,11865,6,0,P|404:243|381:282,1,90,2|2,0:2|0:0,0:0:0:0:
454,343,12224,6,0,P|473:263|434:191,1,135.000005149842,10|2,0:0|0:0,0:0:0:0:
420,112,12494,1,0,0:0:0:0:
420,112,12584,6,0,B|445:113|475:77|475:77|472:119|508:150,1,135,4|0,0:0|0:0,0:0:0:0:
356,184,12943,2,0,P|320:124|332:72,1,90,10|2,0:0|0:0,0:0:0:0:
364,24,13302,1,2,0:0:0:0:
112,52,13482,6,0,L|76:48,3,22.5,0|0|0|0,3:0|0:0|0:0|0:0,0:0:0:0:
136,76,13661,5,10,3:2:0:0:
144,128,13751,1,0,3:0:0:0:
120,188,13841,5,0,3:0:0:0:
44,204,13931,2,0,L|56:132,1,45,0|2,0:0|0:1,0:0:0:0:
28,84,14200,1,0,0:0:0:0:
28,84,14290,1,0,0:0:0:0:
28,84,14380,2,0,B|36:120|36:120|24:172|24:172|36:220,1,135,2|0,3:2|3:0,0:0:0:0:
153,181,15009,2,0,L|109:189,1,33.7500012874604,0|2,0:0|0:0,0:0:0:0:
160,288,15458,5,8,0:0:0:0:
160,288,15817,1,2,0:0:0:0:
240,204,15997,2,0,P|296:204|364:256,1,135.000005149842,0|2,0:0|0:0,0:0:0:0:
448,284,16536,1,0,0:0:0:0:
448,284,16715,2,0,L|432:132,2,135.000005149842,0|0|2,0:0|0:0|0:0,0:0:0:0:
372,356,17614,1,0,0:0:0:0:
296,276,17793,2,0,L|240:280,2,33.7500012874604,2|0|0,0:0|0:0|0:0,0:0:0:0:
366,207,18152,1,2,0:0:0:0:
366,207,18332,6,0,P|352:156|372:72,1,135.000005149842,0|2,0:0|0:0,0:0:0:0:
428,32,18871,2,0,P|364:56|284:36,1,135.000005149842,0|2,0:0|0:0,0:0:0:0:
228,36,19410,1,0,0:0:0:0:
228,36,19590,2,0,L|88:48,1,135.000005149842
0,80,20129,1,2,0:0:0:0:
0,80,20308,2,0,P|-4:132|4:156,1,67.5000025749208
152,176,20667,2,0,P|156:124|148:100,1,67.5000025749208,2|0,0:0|0:0,0:0:0:0:
93,47,20937,1,0,0:0:0:0:
93,47,21027,1,2,0:0:0:0:
68,216,21206,6,0,L|76:328,1,101.250003862381
76,336,21566,1,2,0:0:0:0:
172,312,21745,2,0,B|204:296|204:296|312:308,1,135.000005149842
376,324,22284,1,2,0:0:0:0:
304,180,22464,1,0,0:0:0:0:
364,44,22644,2,0,L|356:116,1,67.5000025749208
304,180,23003,1,2,0:0:0:0:
271,91,23182,2,0,B|228:76|228:76|140:84,1,135.000005149842
180,152,23721,1,0,0:0:0:0:
264,0,23901,5,0,0:0:0:0:
264,0,23991,1,0,0:0:0:0:
264,0,24081,1,2,0:0:0:0:
304,180,24260,1,0,0:0:0:0:
448,128,24440,2,0,L|376:124,1,67.5000025749208,0|2,0:0|0:0,0:0:0:0:
304,180,24799,1,0,0:0:0:0:
360,44,24979,1,2,0:0:0:0:
360,44,25069,1,0,0:0:0:0:
360,44,25158,1,0,0:0:0:0:
380,124,25338,1,2,0:0:0:0:
289,245,25518,6,0,L|304:180,2,67.5000025749208,0|2|0,0:0|0:0|0:0,0:0:0:0:
444,102,26057,2,0,L|380:124,2,67.5000025749208,2|0|2,0:0|0:0|0:0,0:0:0:0:
242,50,26596,6,0,L|292:96,1,67.5000025749208
131,86,26955,6,0,B|44:60|44:60|4:76,1,135.000005149842
48,212,27494,2,0,L|41:118,1,67.5000025749208
136,172,27853,1,0,0:0:0:0:
116,360,28033,5,8,0:2:0:0:
256,248,28212,2,0,B|208:240|208:240|160:276|104:264,1,135.000005149842
136,172,28751,1,0,0:0:0:0:
120,47,28931,2,0,P|148:99|120:191,1,135.000005149842,2|0,0:0|0:0,0:0:0:0:
128,268,29470,5,8,0:2:0:0:
252,124,29649,1,2,0:0:0:0:
16,136,29829,2,0,L|24:224,1,67.5000025749208,2|0,0:0|0:0,0:0:0:0:
32,288,30188,1,2,0:0:0:0:
38,38,30368,2,0,L|105:42,2,67.5000025749208,2|0|0,0:0|0:0|0:0,0:0:0:0:
263,111,30907,5,8,0:2:0:0:
263,111,31087,2,0,B|214:106|214:106|184:123|184:123|132:120,1,135.000005149842,2|0,0:0|0:0,0:0:0:0:
168,280,31626,1,2,0:0:0:0:
168,280,31805,2,0,B|196:276|216:252|216:252|248:276|289:275,1,135.000005149842
116,208,32344,2,0,L|0:204,1,101.250003862381,8|0,0:2|0:0,0:0:0:0:
16,8,32703,2,0,P|68:20|96:112,1,135.000005149842,2|0,0:0|0:0,0:0:0:0:
21,100,33242,1,0,0:0:0:0:
188,12,33422,2,0,L|272:4,2,67.5000025749208,0|0|8,0:0|0:0|0:2,0:0:0:0:
280,152,33961,6,0,P|220:176|148:136,1,135.000005149842
158,149,34500,1,0,0:0:0:0:
208,264,34679,2,0,L|216:336,2,67.5000025749208
360,336,35218,1,8,0:2:0:0:
340,252,35398,1,0,0:0:0:0:
340,252,35488,1,0,0:0:0:0:
340,252,35578,2,0,P|388:256|444:340,1,135.000005149842,2|0,0:0|0:0,0:0:0:0:
360,336,36117,1,0,0:0:0:0:
192,316,36296,2,0,L|184:172,1,135.000005149842,2|8,0:0|0:2,0:0:0:0:
184,181,36835,1,0,0:0:0:0:
180,88,37015,1,0,0:0:0:0:
16,152,37194,5,0,0:0:0:0:
36,148,37284,1,0,0:0:0:0:
56,144,37374,1,2,0:0:0:0:
34,270,37554,5,0,0:0:0:0:
47,250,37644,1,0,0:0:0:0:
59,231,37734,1,2,0:0:0:0:
140,344,37913,5,0,0:0:0:0:
133,312,38003,1,0,0:0:0:0:
126,281,38093,1,2,0:0:0:0:
188,44,38272,1,0,0:0:0:0:
196,84,38362,1,0,0:0:0:0:
191,127,38452,6,2,P|176:96|192:40,1,90,4|0,0:2|0:0,0:0:0:0:
280,84,38991,6,2,L|276:196,1,90,0|0,0:0|0:0,0:0:0:0:
277,174,39530,5,8,0:2:0:0:
396,264,39709,2,0,P|336:240|272:264,1,135.000005149842,2|0,0:2|0:0,0:0:0:0:
272,263,40248,1,0,0:0:0:0:
200,352,40428,2,0,P|200:288|192:204,1,135.000005149842,2|0,0:2|0:0,0:0:0:0:
193,217,40967,1,8,0:2:0:0:
128,164,41326,6,2,P|184:168|232:144,1,90,2|0,0:2|0:0,0:0:0:0:
382,100,41865,6,2,P|326:96|278:120,1,90,2|0,0:2|0:0,0:0:0:0:
296,196,42224,1,0,0:2:0:0:
214,156,42404,1,8,0:2:0:0:
209,21,42584,2,0,B|217:61|217:61|213:169,1,135.000005149842,2|0,0:2|0:0,0:0:0:0:
204,240,43123,1,0,0:0:0:0:
204,240,43302,1,0,0:0:0:0:
114,234,43482,5,2,0:2:0:0:
136,226,43571,1,0,0:0:0:0:
159,225,43661,1,0,0:0:0:0:
182,230,43751,1,0,0:0:0:0:
204,240,43841,5,0,0:0:0:0:
223,253,43931,1,0,0:0:0:0:
244,264,44020,1,0,0:0:0:0:
267,267,44110,1,0,0:0:0:0:
288,264,44200,6,2,P|296:208|288:160,1,90,2|0,0:2|0:0,0:0:0:0:
304,76,44739,6,2,P|350:107|397:121,1,90,2|0,0:2|0:0,0:0:0:0:
472,204,45099,2,2,P|416:214|373:237,1,90,2|8,0:2|0:2,0:0:0:0:
248,320,45458,2,0,B|320:304|308:356|396:336,1,135.000005149842,2|0,0:0|0:0,0:0:0:0:
168,360,45997,1,0,0:0:0:0:
160,272,46176,2,0,L|152:188,1,67.5000025749208
200,120,46536,1,0,0:0:0:0:
80,276,46715,2,0,P|44:276|16:260,1,67.5000025749208,8|2,0:2|0:0,0:0:0:0:
64,200,47075,6,0,B|48:280|100:252|76:360,1,135.000005149842,0|2,0:0|0:0,0:0:0:0:
184,332,47614,1,0,0:0:0:0:
184,332,47793,2,0,L|276:336,1,67.5000025749208,2|0,0:0|0:0,0:0:0:0:
328,252,48152,1,8,0:2:0:0:
500,232,48332,2,0,L|408:236,2,67.5000025749208,2|0|0,0:0|0:0|0:0,0:0:0:0:
380,344,48871,1,0,0:0:0:0:
76,28,49230,5,0,0:0:0:0:
24,116,49410,1,0,0:0:0:0:
28,136,49500,1,0,0:0:0:0:
32,156,49590,1,8,0:2:0:0:
56,248,49769,1,0,0:0:0:0:
220,60,49949,6,0,B|324:40|324:40|280:76,1,135.000005149842,0|8,3:0|0:2,0:0:0:0:
248,140,50488,1,0,0:0:0:0:
384,84,50667,2,0,P|392:128|376:168,1,67.5000025749208,0|0,3:0|0:0,0:0:0:0:
368,320,51027,2,0,P|360:276|376:236,1,67.5000025749208,8|0,0:2|0:0,0:0:0:0:
484,176,51386,5,0,3:0:0:0:
376,4,51566,1,0,0:0:0:0:
376,4,51655,1,0,0:0:0:0:
376,4,51745,1,8,0:2:0:0:
480,56,51925,1,2,0:0:0:0:
420,280,52105,1,0,0:0:0:0:
384,84,52284,1,2,0:0:0:0:
304,224,52464,1,8,0:2:0:0:
504,256,52644,1,2,0:0:0:0:
280,336,52823,6,0,B|225:342|225:342|193:326|193:326|149:330,1,135.000005149842,0|8,3:0|0:2,0:0:0:0:
212,100,53362,1,0,0:0:0:0:
80,292,53542,2,0,P|32:280|8:240,1,67.5000025749208,0|0,3:0|0:0,0:0:0:0:
68,128,53901,2,0,P|116:140|140:180,1,67.5000025749208,8|0,0:2|0:0,0:0:0:0:
184,232,54170,1,0,0:0:0:0:
184,232,54260,2,0,L|236:224,1,33.7500012874604,2|0,0:2|0:0,0:0:0:0:
300,272,54440,2,0,P|308:232|300:180,1,67.5000025749208
128,212,54799,6,2,P|200:184|128:252,1,270.000010299683,4|2,0:2|0:0,0:0:0:0:
68,256,55248,1,2,0:0:0:0:
68,256,55338,1,2,0:0:0:0:
168,100,55518,6,0,B|268:84|248:156|348:128,1,180,4|0,0:0|3:0,0:0:0:0:
432,48,56057,1,8,0:0:0:0:
60,152,56236,6,0,P|56:104|60:36,1,90,2|0,0:0|0:0,0:0:0:0:
132,216,56506,1,0,0:0:0:0:
132,216,56596,2,0,L|128:268,1,45,0|0,3:0|0:0,0:0:0:0:
188,336,56775,1,8,0:0:0:0:
288,292,56955,2,0,B|344:284|344:284|408:312|408:312|484:308,1,180,2|0,0:0|3:0,0:0:0:0:
436,224,57494,1,8,0:0:0:0:
448,100,57673,2,0,P|424:140|428:184,1,90,2|0,0:0|0:0,0:0:0:0:
308,373,58033,2,0,P|310:328|287:291,1,90,2|8,0:0|0:0,0:0:0:0:
148,224,58392,6,0,B|248:252|224:176|328:200,1,180,2|0,0:0|3:0,0:0:0:0:
396,128,58931,2,0,P|448:88|376:4,2,180,8|2|8,0:0|0:0|0:0,0:0:0:0:
280,60,59829,2,0,L|184:68,1,90,2|0,0:0|0:0,0:0:0:0:
104,80,60188,1,0,3:0:0:0:
136,216,60368,2,0,L|132:180,7,22.5,8|0|0|0|0|0|0|0,0:0|0:0|0:0|0:0|0:0|0:0|0:0|0:0,0:0:0:0:
140,232,60727,1,2,0:0:0:0:
284,264,60907,1,0,3:0:0:0:
284,264,60997,1,0,0:0:0:0:
284,264,61087,2,0,L|288:236,7,22.5,8|0|0|0|0|0|0|0,0:0|0:0|0:0|0:0|0:0|0:0|0:0|0:0,0:0:0:0:
280,288,61446,5,4,0:0:0:0:
324,152,61626,1,0,0:0:0:0:
324,152,61715,1,0,0:0:0:0:
324,152,61805,2,0,L|424:156,1,90,8|0,0:0|0:0,0:0:0:0:
500,160,62164,1,2,0:0:0:0:
412,284,62344,2,0,L|416:344,2,45,0|0|8,3:0|0:0|0:0,0:0:0:0:
396,52,62703,1,0,0:0:0:0:
224,88,62883,6,0,L|128:96,1,90,0|2,0:0|3:2,0:0:0:0:
56,40,63242,1,8,0:0:0:0:
0,160,63422,2,0,B|56:164|56:164|92:188|92:188|172:192,1,180,2|0,0:0|3:0,0:0:0:0:
308,148,63961,1,8,0:0:0:0:
256,300,64141,1,0,0:0:0:0:
256,300,64230,1,0,0:0:0:0:
256,300,64320,6,0,L|252:204,1,90,2|0,0:0|0:0,0:0:0:0:
224,88,64679,1,8,0:0:0:0:
356,268,64859,2,0,P|428:280|468:264,1,90,2|0,0:0|0:0,0:0:0:0:
336,88,65218,2,0,P|264:76|224:92,1,90,2|8,0:0|0:0,0:0:0:0:
38,101,65578,6,0,L|28:12,1,90,4|0,0:0|0:0,0:0:0:0:
184,176,65937,6,0,L|208:16,1,135.000005149842,4|0,0:0|0:0,0:0:0:0:
208,276,66296,6,0,P|300:252|216:316,1,270,4|0,0:0|0:0,0:0:0:0:
108,244,66655,1,0,0:0:0:0:
108,244,66745,1,0,0:0:0:0:
108,244,66835,2,0,L|100:192,3,45
208,276,67015,6,0,P|282:231|364:261,1,180,4|0,0:0|3:0,0:0:0:0:
280,352,67554,1,8,0:0:0:0:
420,324,67733,2,0,P|492:320|528:288,1,90,2|0,0:0|0:0,0:0:0:0:
488,220,68003,1,0,0:0:0:0:
488,220,68093,2,0,L|496:160,1,45,0|0,3:0|0:0,0:0:0:0:
496,92,68272,1,8,0:0:0:0:
288,44,68452,2,0,P|372:48|408:160,1,180,0|0,0:0|3:0,0:0:0:0:
316,128,68991,1,8,0:0:0:0:
216,136,69170,6,0,L|24:152,1,180,2|2,0:0|0:0,0:0:0:0:
36,150,69709,1,8,0:0:0:0:
76,252,69889,1,0,0:0:0:0:
76,252,70069,2,2,B|122:235|166:263|166:263|206:291|260:264,1,180,2|8,0:0|0:0,0:0:0:0:
316,28,70608,1,0,0:0:0:0:
316,28,70697,1,0,0:0:0:0:
316,28,70787,6,0,P|328:84|312:148,1,90,2|0,0:0|3:0,0:0:0:0:
293,202,71147,1,8,0:0:0:0:
416,104,71326,2,0,B|374:82|334:110|334:110|290:138|244:121,1,180,2|0,0:0|3:0,0:0:0:0:
132,84,71865,1,8,0:0:0:0:
40,176,72045,2,0,L|130:180,1,90,2|2,0:0|0:0,0:0:0:0:
236,356,72404,6,0,L|228:292,1,45,0|0,3:0|0:0,0:0:0:0:
245,121,72584,2,0,L|233:189,1,45,8|0,0:0|0:0,0:0:0:0:
132,272,72763,1,2,0:0:0:0:
376,248,72943,6,0,B|368:300|368:300|384:360,1,90,0|0,3:0|0:0,0:0:0:0:
456,88,73302,1,8,0:0:0:0:
336,172,73482,2,0,B|412:168|412:168|436:180|436:180|524:176,1,180,2|2,0:0|0:0,0:0:0:0:
388,32,74021,1,8,0:0:0:0:
232,248,74200,2,0,L|132:240,1,90,2|0,0:0|0:0,0:0:0:0:
316,288,74560,1,2,0:0:0:0:
316,288,74739,6,0,B|332:240|332:240|316:172,1,90,8|0,0:0|0:0,0:0:0:0:
228,336,75099,1,2,0:0:0:0:
268,116,75278,1,0,3:0:0:0:
408,248,75458,1,8,0:0:0:0:
244,228,75638,1,0,0:0:0:0:
244,228,75727,1,0,0:0:0:0:
244,228,75817,6,0,L|152:224,1,90,0|2,3:0|0:0,0:0:0:0:
95,122,76176,1,8,0:0:0:0:
96,296,76356,2,0,B|76:256|76:256|96:116,1,180,2|2,0:0|0:0,0:0:0:0:
136,40,76895,1,8,0:0:0:0:
268,116,77075,1,0,0:0:0:0:
95,122,77254,5,0,0:0:0:0:
136,204,77434,1,0,3:0:0:0:
136,204,77524,1,0,0:0:0:0:
136,204,77614,1,8,0:0:0:0:
95,122,77793,1,0,0:0:0:0:
268,116,77973,6,0,L|368:108,1,90,2|0,0:0|3:0,0:0:0:0:
357,108,78242,1,0,0:0:0:0:
357,108,78332,1,8,0:0:0:0:
212,188,78512,1,0,0:0:0:0:
408,32,78691,6,0,P|440:68|408:188,1,180,2|8,0:0|0:0,0:0:0:0:
280,328,79230,6,0,B|304:312|300:244|300:244|328:308|368:312,2,180,2|0|4,0:0|0:0|0:0,0:0:0:0:
227,207,80308,1,4,0:0:0:0:
227,207,80488,5,4,0:0:0:0:
296,120,80667,1,0,0:0:0:0:
362,200,80847,2,0,L|214:208,1,135,2|0,0:0|0:0,2:0:0:0:
188,288,81566,6,0,L|288:284,1,90
228,208,81925,1,8,0:0:0:0:
352,137,82105,2,0,P|284:125|228:213,1,180,2|0,0:0|0:0,0:0:0:0:
432,192,82644,1,8,0:0:0:0:
432,192,82823,2,0,B|452:152|452:152|440:8,1,180,2|0,0:0|0:0,0:0:0:0:
344,224,83362,1,8,0:0:0:0:
171,221,83542,2,0,B|227:213|227:213|271:237|271:237|355:221,1,180,2|0,0:0|0:0,0:0:0:0:
208,300,84081,1,8,0:0:0:0:
280,152,84260,1,0,0:0:0:0:
84,72,84440,6,0,P|116:72|168:112,1,90,4|0,0:0|0:0,0:0:0:0:
84,248,84979,2,0,L|72:156,2,90,2|2|0,0:0|0:0|0:0,0:0:0:0:
176,344,85877,5,0,0:0:0:0:
191,327,85966,1,0,0:0:0:0:
200,307,86056,1,0,0:0:0:0:
202,285,86146,1,0,0:0:0:0:
184,244,86236,5,0,0:0:0:0:
204,269,86326,1,0,0:0:0:0:
232,284,86416,1,0,0:0:0:0:
264,288,86506,1,0,0:0:0:0:
296,280,86596,5,0,0:0:0:0:
