osu file format v14

[General]
AudioFilename: Annabel - Signal Graph.mp3
AudioLeadIn: 0
PreviewTime: 54979
Countdown: 0
SampleSet: Soft
StackLeniency: 0.7
Mode: 3
LetterboxInBreaks: 0
SpecialStyle: 0
WidescreenStoryboard: 0

[Editor]
DistanceSpacing: 1.4
BeatDivisor: 4
GridSize: 4
TimelineZoom: 1

[Metadata]
Title:Signal Graph (TV Size)
TitleUnicode:Signal Graph (TV Size)
Artist:Annabel
ArtistUnicode:Annabel
Creator:Aikawa
Version:7K NM
Source:Koi to Senkyo to Chocolate
Tags:ShikiNoHollow kifuera456
BeatmapID:659859
BeatmapSetID:155737

[Difficulty]
HPDrainRate:7
CircleSize:7
OverallDifficulty:7
ApproachRate:5
SliderMultiplier:1.6
SliderTickRate:1

[Events]
//Background and Video events
0,0,"BBBBBBBBBGGGGGGGGGG.jpg",0,0
//Break Periods
//Storyboard Layer 0 (Background)
//Storyboard Layer 1 (Fail)
//Storyboard Layer 2 (Pass)
//Storyboard Layer 3 (Foreground)
//Storyboard Sound Samples

[TimingPoints]
1087,359.281437125748,4,2,0,0,1,0
55518,-100,4,2,0,0,0,1
81566,-100,4,2,0,0,0,0

[HitObjects]
182,192,548,5,0,0:0:0:0:
329,192,727,1,0,0:0:0:0:
475,192,907,1,0,0:0:0:0:
36,192,1087,128,0,2524:0:0:0:0:
475,192,1266,1,0,0:0:0:0:
329,192,1446,1,0,0:0:0:0:
182,192,1625,1,0,0:0:0:0:
109,192,1985,1,0,0:0:0:0:
256,192,2164,1,0,0:0:0:0:
402,192,2344,1,0,0:0:0:0:
475,192,2524,128,0,3961:0:0:0:0:
402,192,2703,1,0,0:0:0:0:
256,192,2883,1,0,0:0:0:0:
109,192,3063,1,0,0:0:0:0:
182,192,3422,1,0,0:0:0:0:
329,192,3601,1,0,0:0:0:0:
182,192,3781,1,0,0:0:0:0:
109,192,3961,128,0,6476:0:0:0:0:
329,192,3961,1,0,0:0:0:0:
329,192,4320,1,0,0:0:0:0:
475,192,4679,1,0,0:0:0:0:
329,192,5039,128,0,6476:0:0:0:0:
192,192,6835,1,0,0:0:0:0:
109,192,7194,1,0,0:0:0:0:
320,192,7194,1,8,0:0:0:0:
448,192,7554,1,0,0:0:0:0:
320,192,7913,1,0,0:0:0:0:
192,192,7913,1,8,0:0:0:0:
109,192,8272,1,0,0:0:0:0:
320,192,8631,1,0,0:0:0:0:
448,192,8631,1,8,0:0:0:0:
192,192,8991,1,0,0:0:0:0:
182,192,9350,1,8,0:0:0:0:
36,192,9350,1,0,0:0:0:0:
448,192,9709,1,0,0:0:0:0:
256,192,10069,1,0,0:0:0:0:
109,192,10069,1,8,0:0:0:0:
320,192,10428,1,0,0:0:0:0:
256,192,10787,1,0,0:0:0:0:
402,192,10787,1,8,0:0:0:0:
109,192,11146,1,0,0:0:0:0:
192,192,11506,1,8,0:0:0:0:
402,192,11506,1,0,0:0:0:0:
320,192,11865,1,0,0:0:0:0:
109,192,12224,1,0,0:0:0:0:
256,192,12224,1,0,0:0:0:0:
475,192,12584,1,0,0:0:0:0:
329,192,12584,1,0,0:0:0:0:
182,192,12943,1,0,0:0:0:0:
329,192,13122,1,0,0:0:0:0:
192,192,13482,1,0,0:0:0:0:
36,192,13482,1,0,0:0:0:0:
256,192,13661,1,0,0:0:0:0:
329,192,13841,1,0,0:0:0:0:
475,192,13841,1,0,0:0:0:0:
192,192,14380,128,0,15458:0:0:0:0:
320,192,14380,128,0,15458:0:0:0:0:
448,192,15458,1,0,0:0:0:0:
64,192,15458,1,0,0:0:0:0:
64,192,15817,1,0,0:0:0:0:
320,192,16176,1,0,0:0:0:0:
448,192,16536,1,0,0:0:0:0:
320,192,16715,1,0,0:0:0:0:
192,192,16895,1,0,0:0:0:0:
448,192,17254,1,0,0:0:0:0:
64,192,17613,1,0,0:0:0:0:
448,192,17973,1,0,0:0:0:0:
64,192,18152,1,0,0:0:0:0:
192,192,18332,1,0,0:0:0:0:
64,192,18691,1,0,0:0:0:0:
320,192,19051,1,0,0:0:0:0:
64,192,19410,1,0,0:0:0:0:
192,192,19589,1,0,0:0:0:0:
448,192,19769,1,0,0:0:0:0:
320,192,20128,1,0,0:0:0:0:
64,192,20488,1,0,0:0:0:0:
320,192,20847,1,0,0:0:0:0:
448,192,21027,1,0,0:0:0:0:
192,192,21206,1,0,0:0:0:0:
448,192,21566,1,0,0:0:0:0:
64,192,21925,1,0,0:0:0:0:
320,192,22284,1,0,0:0:0:0:
192,192,22464,1,0,0:0:0:0:
448,192,22643,1,0,0:0:0:0:
192,192,23003,1,0,0:0:0:0:
448,192,23362,1,0,0:0:0:0:
320,192,23721,1,0,0:0:0:0:
192,192,23901,1,0,0:0:0:0:
64,192,24081,1,0,0:0:0:0:
448,192,24440,1,0,0:0:0:0:
192,192,24440,1,0,0:0:0:0:
320,192,24799,1,0,0:0:0:0:
64,192,24799,1,0,0:0:0:0:
64,192,25158,1,0,0:0:0:0:
192,192,25338,1,0,0:0:0:0:
320,192,25518,1,0,0:0:0:0:
448,192,25697,1,0,0:0:0:0:
320,192,25877,1,0,0:0:0:0:
192,192,26057,1,0,0:0:0:0:
64,192,26236,1,0,0:0:0:0:
192,192,26416,1,0,0:0:0:0:
64,192,26595,1,0,0:0:0:0:
192,192,26775,1,0,0:0:0:0:
448,192,26955,128,0,27494:0:0:0:0:
320,192,26955,1,0,0:0:0:0:
320,192,27494,128,0,28033:0:0:0:0:
192,192,27494,1,0,0:0:0:0:
192,192,28033,128,0,29829:0:0:0:0:
64,192,28033,1,8,0:0:0:0:
448,192,28392,1,0,0:0:0:0:
64,192,28751,1,0,0:0:0:0:
320,192,29110,1,0,0:0:0:0:
64,192,29470,1,8,0:0:0:0:
320,192,29829,128,0,30368:0:0:0:0:
448,192,29829,1,0,0:0:0:0:
448,192,30188,1,0,0:0:0:0:
192,192,30368,128,0,30907:0:0:0:0:
64,192,30368,1,0,0:0:0:0:
448,192,30548,1,0,0:0:0:0:
64,192,30907,128,0,32703:0:0:0:0:
320,192,30907,1,8,0:0:0:0:
448,192,31266,1,0,0:0:0:0:
320,192,31625,1,0,0:0:0:0:
192,192,31985,1,0,0:0:0:0:
320,192,32344,1,8,0:0:0:0:
448,192,32703,128,0,33242:0:0:0:0:
192,192,32703,1,0,0:0:0:0:
64,192,33063,1,0,0:0:0:0:
320,192,33242,128,0,33781:0:0:0:0:
192,192,33242,1,0,0:0:0:0:
64,192,33422,1,0,0:0:0:0:
192,192,33781,128,0,35578:0:0:0:0:
64,192,33781,1,8,0:0:0:0:
448,192,34140,1,0,0:0:0:0:
320,192,34500,1,0,0:0:0:0:
64,192,34859,1,0,0:0:0:0:
448,192,35218,1,8,0:0:0:0:
448,192,35578,128,0,36116:0:0:0:0:
320,192,35578,1,0,0:0:0:0:
64,192,35937,1,0,0:0:0:0:
320,192,36116,128,0,36655:0:0:0:0:
192,192,36116,1,0,0:0:0:0:
64,192,36296,1,0,0:0:0:0:
192,192,36655,128,0,38452:0:0:0:0:
64,192,36655,1,8,0:0:0:0:
448,192,37015,1,0,0:0:0:0:
320,192,37374,1,0,0:0:0:0:
448,192,37733,1,0,0:0:0:0:
64,192,38092,1,0,0:0:0:0:
320,192,38452,128,0,38991:0:0:0:0:
448,192,38452,128,0,38991:0:0:0:0:
64,192,38811,1,0,0:0:0:0:
192,192,39530,1,8,0:0:0:0:
64,192,39889,128,0,40967:0:0:0:0:
320,192,39889,128,0,40967:0:0:0:0:
448,192,40248,1,0,0:0:0:0:
448,192,40967,1,8,0:0:0:0:
320,192,41326,128,0,41865:0:0:0:0:
192,192,41326,128,0,41865:0:0:0:0:
64,192,41865,1,0,0:0:0:0:
192,192,42404,1,8,0:0:0:0:
448,192,42763,1,0,0:0:0:0:
64,192,42763,1,0,0:0:0:0:
320,192,43122,1,0,0:0:0:0:
192,192,43482,1,0,0:0:0:0:
448,192,43482,1,0,0:0:0:0:
64,192,43841,1,8,0:0:0:0:
192,192,44200,128,0,44739:0:0:0:0:
448,192,44200,128,0,44739:0:0:0:0:
320,192,44739,1,0,0:0:0:0:
320,192,45278,1,0,0:0:0:0:
64,192,45637,1,0,0:0:0:0:
192,192,45817,1,0,0:0:0:0:
320,192,45997,1,0,0:0:0:0:
448,192,46176,128,0,46536:0:0:0:0:
320,192,46536,1,0,0:0:0:0:
192,192,46715,128,0,47075:0:0:0:0:
64,192,46715,1,0,0:0:0:0:
320,192,47075,128,0,47793:0:0:0:0:
448,192,47434,1,0,0:0:0:0:
192,192,47793,1,0,0:0:0:0:
64,192,48152,1,0,0:0:0:0:
448,192,48152,1,0,0:0:0:0:
192,192,48512,1,0,0:0:0:0:
320,192,48871,1,0,0:0:0:0:
448,192,48871,1,0,0:0:0:0:
192,192,49230,1,0,0:0:0:0:
64,192,49410,1,0,0:0:0:0:
192,192,49589,1,0,0:0:0:0:
448,192,49949,128,0,50667:0:0:0:0:
192,192,50308,1,0,0:0:0:0:
64,192,50667,128,0,51386:0:0:0:0:
320,192,51027,1,0,0:0:0:0:
448,192,51386,128,0,52104:0:0:0:0:
192,192,51745,1,0,0:0:0:0:
192,192,52104,128,0,52823:0:0:0:0:
320,192,52464,1,0,0:0:0:0:
448,192,52823,128,0,53542:0:0:0:0:
256,192,53182,128,0,53542:0:0:0:0:
64,192,53542,128,0,54260:0:0:0:0:
256,192,53901,128,0,54260:0:0:0:0:
475,192,54260,1,0,0:0:0:0:
329,192,54440,1,0,0:0:0:0:
182,192,54619,1,0,0:0:0:0:
36,192,54799,1,0,0:0:0:0:
109,192,55158,1,0,0:0:0:0:
256,192,55248,1,0,0:0:0:0:
402,192,55338,1,0,0:0:0:0:
109,192,55518,1,0,0:0:0:0:
256,192,55518,1,0,0:0:0:0:
320,192,56057,1,0,0:0:0:0:
448,192,56057,1,12,0:0:0:0:
192,192,56416,1,0,0:0:0:0:
320,192,56775,1,8,0:0:0:0:
64,192,56775,1,0,0:0:0:0:
448,192,57134,1,0,0:0:0:0:
192,192,57494,1,8,0:0:0:0:
64,192,57494,1,0,0:0:0:0:
320,192,57853,1,0,0:0:0:0:
192,192,58212,1,0,0:0:0:0:
448,192,58212,1,8,0:0:0:0:
64,192,58572,1,0,0:0:0:0:
320,192,58931,1,0,0:0:0:0:
448,192,58931,1,12,0:0:0:0:
448,192,59290,1,0,0:0:0:0:
64,192,59649,1,0,0:0:0:0:
320,192,59649,1,8,0:0:0:0:
192,192,59829,1,0,0:0:0:0:
320,192,60009,1,0,0:0:0:0:
448,192,60188,1,0,0:0:0:0:
320,192,60368,1,8,0:0:0:0:
64,192,60368,1,0,0:0:0:0:
192,192,60727,1,0,0:0:0:0:
320,192,61086,1,8,0:0:0:0:
448,192,61086,1,0,0:0:0:0:
448,192,61446,1,4,0:0:0:0:
64,192,61805,1,0,0:0:0:0:
320,192,61805,1,8,0:0:0:0:
192,192,62164,1,0,0:0:0:0:
448,192,62524,1,8,0:0:0:0:
320,192,62524,1,0,0:0:0:0:
64,192,62883,1,0,0:0:0:0:
192,192,63242,1,8,0:0:0:0:
64,192,63242,1,0,0:0:0:0:
320,192,63422,1,0,0:0:0:0:
448,192,63601,1,0,0:0:0:0:
320,192,63781,1,0,0:0:0:0:
192,192,63961,1,0,0:0:0:0:
320,192,64140,1,0,0:0:0:0:
448,192,64320,1,0,0:0:0:0:
320,192,64679,1,8,0:0:0:0:
64,192,64679,1,0,0:0:0:0:
192,192,64859,128,0,65218:0:0:0:0:
448,192,64859,128,4,65218:0:0:0:0:
64,192,65218,128,0,65578:0:0:0:0:
320,192,65218,128,4,65578:0:0:0:0:
192,192,65578,1,0,0:0:0:0:
448,192,65578,1,0,0:0:0:0:
64,192,65937,1,0,0:0:0:0:
320,192,65937,1,0,0:0:0:0:
192,192,66296,1,0,0:0:0:0:
448,192,66296,1,0,0:0:0:0:
320,192,66655,1,0,0:0:0:0:
192,192,66835,1,0,0:0:0:0:
320,192,67015,128,4,68631:0:0:0:0:
64,192,67554,1,0,0:0:0:0:
192,192,67913,1,0,0:0:0:0:
64,192,68272,1,0,0:0:0:0:
192,192,68631,128,0,69350:0:0:0:0:
448,192,68631,1,0,0:0:0:0:
64,192,68991,1,0,0:0:0:0:
320,192,69350,128,0,70069:0:0:0:0:
192,192,69709,1,0,0:0:0:0:
448,192,70069,128,0,71506:0:0:0:0:
320,192,70428,1,0,0:0:0:0:
64,192,70787,1,0,0:0:0:0:
192,192,71146,1,0,0:0:0:0:
320,192,71506,128,0,72943:0:0:0:0:
64,192,71506,1,0,0:0:0:0:
192,192,71865,1,0,0:0:0:0:
64,192,72224,1,0,0:0:0:0:
192,192,72584,1,0,0:0:0:0:
448,192,72763,1,0,0:0:0:0:
64,192,72943,1,0,0:0:0:0:
192,192,73302,1,8,0:0:0:0:
192,192,73661,1,0,0:0:0:0:
448,192,73661,1,0,0:0:0:0:
320,192,73841,1,0,0:0:0:0:
64,192,74021,1,0,0:0:0:0:
448,192,74021,1,8,0:0:0:0:
192,192,74380,1,0,0:0:0:0:
448,192,74739,1,8,0:0:0:0:
320,192,74739,1,0,0:0:0:0:
64,192,74919,1,0,0:0:0:0:
192,192,75098,1,0,0:0:0:0:
448,192,75098,1,0,0:0:0:0:
320,192,75458,1,8,0:0:0:0:
64,192,75817,1,0,0:0:0:0:
192,192,75817,1,0,0:0:0:0:
448,192,75997,1,0,0:0:0:0:
320,192,76176,1,8,0:0:0:0:
64,192,76176,1,0,0:0:0:0:
192,192,76536,1,0,0:0:0:0:
320,192,76895,1,8,0:0:0:0:
64,192,76895,1,0,0:0:0:0:
192,192,77075,1,0,0:0:0:0:
448,192,77254,1,0,0:0:0:0:
320,192,77254,1,0,0:0:0:0:
192,192,77613,1,8,0:0:0:0:
448,192,77973,1,0,0:0:0:0:
64,192,77973,1,0,0:0:0:0:
320,192,78152,1,0,0:0:0:0:
192,192,78332,1,8,0:0:0:0:
64,192,78332,1,0,0:0:0:0:
320,192,78691,1,0,0:0:0:0:
448,192,79051,1,8,0:0:0:0:
192,192,79051,1,0,0:0:0:0:
64,192,79230,1,0,0:0:0:0:
320,192,79410,1,0,0:0:0:0:
448,192,79410,1,0,0:0:0:0:
192,192,79769,1,0,0:0:0:0:
448,192,79769,1,0,0:0:0:0:
192,192,79949,1,4,0:0:0:0:
64,192,79949,1,0,0:0:0:0:
320,192,80308,1,4,0:0:0:0:
448,192,80308,1,0,0:0:0:0:
64,192,80488,1,0,0:0:0:0:
192,192,80488,1,4,0:0:0:0:
448,192,81566,128,4,82104:0:0:0:0:
320,192,81566,1,0,0:0:0:0:
320,192,82104,128,4,82823:0:0:0:0:
192,192,82104,1,0,0:0:0:0:
192,192,82823,128,4,83542:0:0:0:0:
64,192,82823,1,0,0:0:0:0:
448,192,83542,128,4,89470:0:0:0:0:
320,192,83542,128,0,86595:0:0:0:0:
192,192,86595,128,0,89470:0:0:0:0:
