osu file format v14

[General]
AudioFilename: audio.mp3
AudioLeadIn: 0
PreviewTime: 199910
Countdown: 0
SampleSet: Soft
StackLeniency: 0.4
Mode: 0
LetterboxInBreaks: 0
WidescreenStoryboard: 1

[Editor]
Bookmarks: 17679,220179
DistanceSpacing: 1.16
BeatDivisor: 4
GridSize: 4
TimelineZoom: 1.56

[Metadata]
Title:Palermo
TitleUnicode:パレルモ
Artist:Annabel
ArtistUnicode:Annabel
Creator:Niva
Version:Hard
Source:
Tags:featured artist fa mappers' guild mpg rionos caracol annabel318 j-pop japanese pop
BeatmapID:3630305
BeatmapSetID:1766909

[Difficulty]
HPDrainRate:5
CircleSize:3
OverallDifficulty:6
ApproachRate:7.5
SliderMultiplier:1.40000000596046
SliderTickRate:1

[Events]
//Background and Video events
0,0,"bg2.jpg",0,0
//Break Periods
2,93828,99639
//Storyboard Layer 0 (Background)
//Storyboard Layer 1 (Fail)
//Storyboard Layer 2 (Pass)
//Storyboard Layer 3 (Foreground)
//Storyboard Layer 4 (Overlay)
//Storyboard Sound Samples

[TimingPoints]
211,379.746835443038,6,2,76,40,1,0
211,-111.111111111111,6,2,76,40,0,0
780,-125,6,2,76,40,0,0
2109,-125,6,2,76,35,0,0
2489,-133.333333333333,6,2,76,40,0,0
4388,-133.333333333333,6,2,76,35,0,0
4767,-111.111111111111,6,2,76,40,0,0
5337,-125,6,2,76,40,0,0
6666,-125,6,2,76,35,0,0
7046,-133.333333333333,6,2,76,40,0,0
8185,-125,6,2,76,40,0,0
8565,-133.333333333333,6,2,76,40,0,0
8945,-125,6,2,76,35,0,0
9324,-111.111111111111,6,2,76,40,0,0
9894,-125,6,2,76,40,0,0
11223,-125,6,2,76,35,0,0
11603,-133.333333333333,6,2,76,40,0,0
12742,-142.857142857143,6,2,76,40,0,0
13502,-142.857142857143,6,2,76,35,0,0
13881,-111.111111111111,6,2,76,40,0,0
14451,-125,6,2,76,40,0,0
15780,-125,6,2,76,35,0,0
16160,-133.333333333333,6,2,76,40,0,0
17299,-142.857142857143,6,2,76,40,0,0
17679,-125,6,2,76,40,0,0
18059,-125,6,2,76,35,0,0
18438,-111.111111111111,6,2,76,50,0,0
19008,-125,6,2,76,50,0,0
19578,-142.857142857143,6,2,76,50,0,0
21097,-125,6,2,76,50,0,0
21856,-142.857142857143,6,2,76,50,0,0
22236,-125,6,2,76,50,0,0
22995,-111.111111111111,6,2,76,50,0,0
23565,-117.647058823529,6,2,76,50,0,0
24135,-142.857142857143,6,2,76,50,0,0
25274,-111.111111111111,6,2,76,50,0,0
25654,-133.333333333333,6,2,76,50,0,0
27552,-166.666666666667,6,2,76,50,0,0
29451,-166.666666666667,6,2,76,45,0,0
29831,-125,6,2,76,50,0,0
30970,-142.857142857143,6,2,76,50,0,0
31350,-149.253731343284,6,2,76,50,0,0
31729,-156.25,6,2,76,50,0,0
32109,-104.166666666667,6,2,76,50,0,0
32679,-117.647058823529,6,2,76,50,0,0
34008,-117.647058823529,6,2,76,45,0,0
34388,-133.333333333333,6,2,76,50,0,0
35527,-153.846153846154,6,2,76,50,0,0
35907,-133.333333333333,6,2,76,58,0,0
36286,-133.333333333333,6,2,76,64,0,0
36666,-111.111111111111,6,2,77,60,0,0
37236,-125,6,2,77,60,0,0
37805,-117.647058823529,6,2,77,60,0,0
39324,-133.333333333333,6,2,77,60,0,0
40464,-153.846153846153,6,2,77,60,0,0
41223,-104.166666666667,6,2,77,60,0,0
41793,-117.647058823529,6,2,77,60,0,0
42362,-117.647058823529,6,2,77,60,0,0
43881,-125,6,2,77,60,0,0
44641,-111.111111111111,6,2,77,60,0,0
45780,-153.846153846154,6,2,77,60,0,0
46540,-133.333333333333,6,2,77,60,0,0
46919,-117.647058823529,6,2,77,60,0,0
48059,-133.333333333333,6,2,77,60,0,0
48818,-166.666666666667,6,2,77,60,0,0
49198,-121.951219512195,6,2,77,60,0,0
50337,-166.666666666667,6,2,77,60,0,0
50717,-142.857142857143,6,2,77,60,0,0
52616,-166.666666666667,6,2,77,65,0,0
52995,-142.857142857143,6,2,77,65,0,0
53185,-142.857142857143,6,2,77,70,0,0
53755,-125,6,2,77,75,0,0
54324,-111.111111111111,6,2,77,65,0,0
54894,-100,6,2,78,80,0,1
55464,-111.111111111111,6,2,78,80,0,1
56033,-125,6,2,78,80,0,1
56413,-111.111111111111,6,2,78,80,0,1
56793,-133.333333333333,6,2,78,80,0,1
57173,-105.263157894737,6,2,78,80,0,1
57742,-117.64705882353,6,2,78,80,0,1
58692,-153.846153846155,6,2,78,80,0,1
59071,-133.333333333334,6,2,78,80,0,1
59451,-111.111111111111,6,2,78,80,0,1
60211,-142.857142857143,6,2,78,80,0,1
61729,-105.263157894737,6,2,78,80,0,1
62299,-111.111111111111,6,2,78,80,0,1
62869,-111.111111111111,6,2,78,80,0,1
64008,-105.263157894737,6,2,78,80,0,1
64578,-114.942528735632,6,2,78,80,0,1
65147,-133.333333333333,6,2,78,80,0,1
66856,-111.111111111111,6,2,78,80,0,1
67805,-142.857142857143,6,2,78,80,0,1
68185,-125,6,2,78,80,0,1
68565,-105.263157894737,6,2,78,80,0,1
69135,-111.111111111111,6,2,78,80,0,1
70464,-153.846153846154,6,2,78,80,0,1
70843,-142.857142857143,6,2,78,80,0,1
71223,-133.333333333333,6,2,78,80,0,1
71603,-125,6,2,78,80,0,1
72552,-111.111111111111,6,2,78,80,0,1
72932,-111.111111111111,6,2,78,80,0,0
73122,-100,6,2,78,80,0,1
73881,-142.857142857143,6,2,78,80,0,1
74261,-133.333333333333,6,2,78,80,0,1
75400,-104.166666666667,6,2,78,80,0,1
75970,-111.111111111111,6,2,78,80,0,1
76919,-142.857142857143,6,2,78,80,0,1
77679,-100,6,2,78,80,0,1
78438,-133.333333333333,6,2,78,80,0,1
79198,-153.846153846154,6,2,78,80,0,1
79957,-111.111111111111,6,2,78,80,0,1
81097,-100,6,2,78,80,0,1
82805,-111.111111111111,6,2,78,80,0,1
83755,-105.263157894737,6,2,78,80,0,1
84135,-181.818181818182,6,2,78,80,0,1
84514,-105.263157894737,6,2,78,80,0,1
85084,-111.111111111111,6,2,78,80,0,1
86033,-142.857142857143,6,2,78,80,0,1
86793,-153.846153846154,6,2,78,80,0,1
87173,-142.857142857143,6,2,78,80,0,1
87552,-133.333333333333,6,2,78,80,0,1
87932,-111.111111111111,6,2,78,80,0,1
89451,-153.846153846154,6,2,78,80,0,1
90211,-142.857142857143,6,2,78,80,0,1
90590,-117.647058823529,6,2,78,80,0,1
91350,-200,6,2,78,80,0,0
91373,-200,6,2,78,40,0,0
93628,-200,6,2,76,40,0,0
100464,-125,6,2,76,40,0,0
103303,-142.857142857143,6,2,76,40,0,0
104261,-153.846153846154,6,2,76,40,0,0
105021,-125,6,2,76,40,0,0
107299,-133.333333333333,6,2,76,40,0,0
107869,-142.857142857143,6,2,76,40,0,0
108818,-153.846153846154,6,2,76,40,0,0
109198,-166.666666666667,6,2,76,40,0,0
109578,-166.666666666667,6,2,99,50,0,0
110147,-125,6,2,99,50,0,0
112995,-142.857142857143,6,2,99,50,0,0
114704,-125,6,2,99,50,0,0
116413,-142.857142857143,6,2,99,50,0,0
116793,-133.333333333333,6,2,99,50,0,0
118692,-156.25,6,2,99,50,0,0
119831,-166.666666666667,6,2,99,50,0,0
122109,-142.857142857143,6,2,99,50,0,0
124198,-131.578947368421,6,2,99,50,0,0
125527,-121.951219512195,6,2,99,50,0,0
127046,-121.951219512195,6,2,99,56,0,0
127426,-181.818181818182,6,2,99,64,0,0
127805,-111.111111111111,6,2,77,60,0,0
128375,-142.857142857143,6,2,77,60,0,0
128945,-117.647058823529,6,2,77,60,0,0
131223,-125,6,2,77,60,0,0
131603,-181.818181818182,6,2,77,60,0,0
132362,-105.263157894737,6,2,77,60,0,0
132932,-111.111111111111,6,2,77,60,0,0
133502,-117.647058823529,6,2,77,60,0,0
135021,-125,6,2,77,60,0,0
135780,-105.263157894737,6,2,77,60,0,0
136540,-121.951219512195,6,2,77,60,0,0
136919,-153.846153846154,6,2,77,60,0,0
137679,-153.846153846154,6,2,77,60,0,0
138059,-125,6,2,77,60,0,0
138818,-166.666666666667,6,2,77,60,0,0
139198,-153.846153846154,6,2,77,60,0,0
140337,-142.857142857143,6,2,77,60,0,0
141476,-111.111111111111,6,2,77,60,0,0
142046,-125,6,2,77,60,0,0
142616,-153.846153846154,6,2,77,60,0,0
144324,-117.647058823529,6,2,77,60,0,0
144894,-125,6,2,77,60,0,0
145654,-142.857142857143,6,2,77,60,0,0
146033,-153.846153846154,6,2,77,60,0,0
146793,-166.666666666667,6,2,77,60,0,0
147932,-142.857142857143,6,2,77,60,0,0
149831,-166.666666666667,6,2,77,60,0,0
150590,-133.333333333333,6,2,77,60,0,0
151350,-166.666666666667,6,2,77,60,0,0
154008,-142.857142857143,6,2,77,60,0,0
155147,-125,6,2,77,60,0,0
155717,-142.857142857143,6,2,77,60,0,0
157426,-117.647058823529,6,2,77,60,0,0
159704,-166.666666666667,6,2,77,60,0,0
160084,-200,6,2,77,60,0,0
160449,-166.666666666667,6,2,77,60,0,0
160843,-117.647058823529,6,2,77,60,0,0
161437,-117.647058823529,6,2,12,10,0,0
161508,-117.647058823529,6,2,24,17,0,0
161603,-117.647058823529,6,2,12,24,0,0
161698,-117.647058823529,6,2,24,30,0,0
161793,-117.647058823529,6,2,77,60,0,0
162362,-166.666666666667,6,2,77,60,0,0
163122,-133.333333333333,6,2,77,60,0,0
164641,-117.647058823529,6,2,77,60,0,0
166540,-133.333333333333,6,2,77,60,0,0
167679,-166.666666666667,6,2,77,60,0,0
169008,-111.111111111111,6,2,77,60,0,0
169388,-125,6,2,77,60,0,0
169957,-133.333333333333,6,2,77,60,0,0
170527,-133.333333333333,6,2,12,10,0,0
170622,-133.333333333333,6,2,24,20,0,0
170693,-133.333333333333,6,2,12,30,0,0
170717,-133.333333333333,6,2,77,60,0,0
172236,-142.857142857143,6,2,77,60,0,0
173375,-113.636363636364,6,2,77,60,0,0
174324,-153.846153846154,6,2,77,60,0,0
174514,-200,6,2,77,60,0,0
174894,-181.818181818182,6,2,77,60,0,0
175274,-166.666666666667,6,2,77,60,0,0
176413,-117.647058823529,6,2,77,60,0,0
176793,-125,6,2,77,60,0,0
177362,-142.857142857143,6,2,77,60,0,0
177932,-125,6,2,77,60,0,0
179071,-111.111111111111,6,2,77,60,0,0
180211,-117.647058823529,6,2,77,50,0,0
180590,-117.647058823529,6,2,77,60,0,0
180970,-117.647058823529,6,2,77,70,0,0
181350,-93.4579439252336,6,2,77,80,0,0
181373,-93.4579439252336,6,2,12,5,0,0
181445,-93.4579439252336,6,2,24,10,0,0
181540,-93.4579439252336,6,2,12,15,0,0
181635,-93.4579439252336,6,2,24,20,0,0
181729,-93.4579439252336,6,2,12,25,0,0
181824,-93.4579439252336,6,2,24,30,0,0
181919,-93.4579439252336,6,2,12,35,0,0
182014,-93.4579439252336,6,2,24,40,0,0
182109,-93.4579439252336,6,2,12,45,0,0
182204,-93.4579439252336,6,2,24,50,0,0
182299,-93.4579439252336,6,2,12,40,0,0
182489,-125,6,2,76,50,0,0
182869,-125,6,2,99,50,0,0
183628,-133.333333333333,6,2,99,50,0,0
184388,-166.666666666667,6,2,99,50,0,0
184767,-117.647058823529,6,2,99,50,0,0
185337,-125,6,2,99,50,0,0
185907,-117.647058823529,6,2,99,50,0,0
187426,-153.846153846154,6,2,99,50,0,0
187805,-153.846153846154,6,2,99,50,0,0
188185,-181.818181818182,6,2,99,50,0,0
188565,-133.333333333333,6,2,99,50,0,0
189324,-117.647058823529,6,2,99,50,0,0
189894,-125,6,2,99,50,0,0
190464,-181.818181818182,6,2,99,50,0,0
191603,-117.647058823529,6,2,99,50,0,0
192173,-129.87012987013,6,2,99,50,0,0
192742,-95.5306169612806,6,2,64,50,0,0
192932,-181.818181818182,6,2,99,50,0,0
193122,-92.5873540803388,6,2,64,50,0,0
193312,-181.818181818182,6,2,99,50,0,0
193407,-181.818181818182,6,2,99,5,0,0
193502,-96.2825957072313,6,2,64,50,0,0
193597,-181.818181818182,6,2,64,5,0,0
193692,-181.818181818182,6,2,99,50,0,0
193786,-181.818181818182,6,2,99,5,0,0
193881,-117.647058823529,6,2,99,50,0,0
194451,-129.87012987013,6,2,99,50,0,0
195021,-95.0916528934941,6,2,64,50,0,0
195211,-181.818181818182,6,2,99,50,0,0
195400,-96.1139718167823,6,2,64,50,0,0
195590,-181.818181818182,6,2,99,50,0,0
195685,-181.818181818182,6,2,99,5,0,0
195780,-95.5695302263976,6,2,64,50,0,0
195875,-181.818181818182,6,2,64,5,0,0
195970,-181.818181818182,6,2,99,50,0,0
196065,-181.818181818182,6,2,99,5,0,0
196160,-105.263157894737,6,2,77,70,0,0
196729,-117.647058823529,6,2,77,70,0,0
197299,-111.111111111111,6,2,77,70,0,0
198438,-133.333333333333,6,2,77,70,0,0
198818,-113.636363636364,6,2,77,70,0,0
199198,-100,6,2,77,70,0,0
199957,-166.666666666667,6,2,77,70,0,0
200337,-166.666666666667,6,2,77,75,0,0
200717,-100,6,2,78,80,0,1
201856,-111.111111111111,6,2,78,80,0,1
202995,-105.263157894737,6,2,78,80,0,1
203565,-117.647058823529,6,2,78,80,0,1
204514,-153.846153846154,6,2,78,80,0,1
205274,-100,6,2,78,80,0,1
206413,-142.857142857143,6,2,78,80,0,1
206793,-153.846153846154,6,2,78,80,0,1
207173,-166.666666666667,6,2,78,80,0,1
207552,-111.111111111111,6,2,78,80,0,1
208122,-117.647058823529,6,2,78,80,0,1
208692,-142.857142857143,6,2,78,80,0,1
209831,-105.263157894737,6,2,78,80,0,1
210400,-111.111111111111,6,2,78,80,0,1
210970,-92.7357259986091,6,2,32,80,0,1
211160,-181.818181818182,6,2,78,80,0,1
211350,-93.116008058318,6,2,78,80,0,1
211635,-181.818181818182,6,2,78,5,0,1
211729,-93.1708106035852,6,2,78,80,0,1
211824,-181.818181818182,6,2,78,5,0,1
211919,-181.818181818182,6,2,32,80,0,1
212014,-181.818181818182,6,2,32,5,0,1
212109,-105.263157894737,6,2,78,80,0,1
212679,-117.647058823529,6,2,78,80,0,1
213248,-95.7447848370761,6,2,32,80,0,1
213438,-181.818181818182,6,2,78,80,0,1
213628,-96.1141519079505,6,2,78,80,0,1
213913,-181.818181818182,6,2,78,5,0,1
214008,-91.0942336108675,6,2,32,80,0,1
214103,-181.818181818182,6,2,32,5,0,1
214198,-181.818181818182,6,2,32,80,0,1
214293,-181.818181818182,6,2,32,5,0,1
214388,-111.111111111111,6,2,78,80,0,1
215147,-166.666666666667,6,2,78,80,0,1
215527,-111.111111111111,6,2,78,80,0,1
216666,-181.818181818182,6,2,78,80,0,1
217236,-158.730158730159,6,2,78,80,0,1
217805,-138.888888888889,6,2,78,80,0,1
218565,-117.647058823529,6,2,78,80,0,1
218945,-117.647058823529,6,2,78,80,0,1
219324,-133.333333333333,6,2,78,80,0,1
220084,-95.2380952380952,6,2,78,80,0,1
221983,-181.818181818182,6,2,78,80,0,1
222457,-181.818181818182,6,2,78,5,0,1
222552,-181.818181818182,6,2,78,80,0,1
222647,-181.818181818182,6,2,78,5,0,1
222742,-142.857142857143,6,2,78,80,0,1
222837,-142.857142857143,6,2,78,5,0,1
222932,-142.857142857143,6,2,78,80,0,1
223502,-200,6,2,78,80,0,0
223525,-200,6,2,78,40,0,0
225780,-200,6,2,76,40,0,0
237173,392.156862745098,6,2,78,80,1,0
237565,405.405405405405,6,2,78,80,1,0
237970,441.176470588235,6,2,78,80,1,0
238413,446.428571428571,6,2,78,80,1,0
238859,457.142857142857,6,2,78,80,1,0
239316,460.652591170825,6,2,78,80,1,0
239776,457.142857142857,6,2,78,80,1,0
240233,491.299897645855,6,2,78,80,1,0
240478,556.844547563805,6,2,78,80,1,0
243818,379.746835443038,6,2,78,80,1,0

[Colours]
Combo1 : 17,254,176
Combo2 : 173,255,95
Combo3 : 255,88,100
Combo4 : 255,94,55

[HitObjects]
455,79,211,6,0,B|421:56|428:26|428:26|421:56|383:62,1,125.999996691227,6|0,0:0|0:0,0:0:0:0:
299,43,780,2,0,B|264:97|301:147,1,112.000000476837,2|2,0:0|0:0,0:0:0:0:
393,207,1350,5,8,0:0:0:0:
256,267,1729,1,2,0:0:0:0:
393,207,2109,1,2,0:0:0:0:
315,349,2489,6,0,B|250:286|165:326,1,157.5000066787,0|2,0:0|0:0,0:0:0:0:
170,323,3438,1,2,0:0:0:0:
101,265,3628,6,0,B|65:259|65:259|45:237|45:237|6:230,2,105.000004452467,8|2|2,0:0|0:0|0:0,0:0:0:0:
179,114,4767,6,0,B|195:96|193:75|193:75|204:160,1,125.999996691227,2|0,0:0|0:0,0:0:0:0:
256,231,5337,2,0,B|302:273|359:242,1,112.000000476837,2|2,0:0|0:0,0:0:0:0:
439,184,5907,5,8,0:0:0:0:
429,327,6286,1,2,0:0:0:0:
439,184,6666,1,2,0:0:0:0:
508,365,7046,6,0,B|470:382|436:354|436:354|402:325|362:343,1,157.5000066787,0|2,0:0|0:0,0:0:0:0:
361,343,7995,1,2,0:0:0:0:
318,248,8185,6,0,B|299:242|299:230|299:230|299:243|280:248,1,56.0000002384184,8|0,0:0|0:0,0:0:0:0:
203,291,8565,2,0,B|175:291|175:291|154:301|154:301|132:292|132:292|102:292,1,105.000004452467,2|2,0:0|0:0,0:0:0:0:
302,375,9324,6,0,B|339:317|410:331,1,125.999996691227,6|0,0:0|0:0,0:0:0:0:
474,266,9894,2,0,B|510:216|471:162,1,112.000000476837,2|2,0:0|0:0,0:0:0:0:
373,201,10464,5,8,0:0:0:0:
255,71,10843,1,2,0:0:0:0:
373,201,11223,1,2,0:0:0:0:
280,291,11603,6,0,B|234:290|218:253|218:253|137:238,1,157.5000066787,0|2,0:0|0:0,0:0:0:0:
140,238,12552,1,2,0:0:0:0:
79,172,12742,6,0,B|61:126|61:126|82:83,2,97.9999974265096,8|2|2,0:0|0:0|0:0,0:0:0:0:
52,323,13881,6,0,B|101:275|168:300,1,125.999996691227,6|0,0:0|0:0,0:0:0:0:
241,249,14451,2,0,B|284:290|344:269,1,112.000000476837,2|2,0:0|0:0,0:0:0:0:
430,318,15021,5,8,0:0:0:0:
512,193,15400,1,2,0:0:0:0:
430,318,15780,1,2,0:0:0:0:
310,242,16160,6,0,B|251:261|251:261|240:288|240:288|177:307,1,157.5000066787,0|2,0:0|0:0,0:0:0:0:
177,307,17109,1,2,0:0:0:0:
97,248,17299,6,0,P|80:238|100:224,1,48.9999987132548,8|0,0:0|0:0,0:0:0:0:
130,145,17679,2,0,B|188:172|235:128,1,112.000000476837,2|2,0:0|0:0,0:0:0:0:
256,47,18248,1,0,0:0:0:0:
358,98,18438,6,0,B|390:74|385:45|385:45|390:73|431:84,1,125.999996691227,6|0,0:0|0:0,0:0:0:0:
502,140,19008,2,0,B|537:193|500:244,1,112.000000476837,2|2,0:0|0:0,0:0:0:0:
512,347,19578,5,10,0:0:0:0:
343,266,19957,1,2,0:0:0:0:
512,347,20337,6,0,L|462:337,1,48.9999987132548,2|2,0:0|0:0,0:0:0:0:
385,295,20717,2,0,L|385:242,1,48.9999987132548,2|0,0:0|0:0,0:0:0:0:
289,364,21097,6,0,B|188:395|154:297,1,168.000000715255,2|2,0:0|0:0,0:0:0:0:
50,226,21856,6,0,L|117:204,1,48.9999987132548,8|0,0:0|0:0,0:0:0:0:
96,211,22236,2,0,L|42:193,2,56.0000002384184,2|0|2,0:0|0:0|0:0,0:0:0:0:
256,48,22995,6,0,B|298:105|256:165,1,125.999996691227,2|0,0:0|0:0,0:0:0:0:
212,241,23565,2,0,B|262:196|322:225,1,119.000002776384,2|2,0:0|0:0,0:0:0:0:
322,224,24135,6,0,L|344:182,1,48.9999987132548,10|0,0:0|0:0,0:0:0:0:
358,324,24514,6,0,L|392:359,1,48.9999987132548,2|0,0:0|0:0,0:0:0:0:
493,263,24894,5,2,0:0:0:0:
493,263,25084,1,2,0:0:0:0:
493,263,25274,6,0,B|473:256|473:242|473:242|473:256|452:262,1,62.9999983456133,2|0,0:0|0:0,0:0:0:0:
370,221,25654,2,0,B|312:241|312:241|299:270|299:270|232:289,1,157.5000066787,2|2,0:0|0:0,0:0:0:0:
127,330,26413,6,0,L|66:320,1,52.5000022262334,8|2,0:0|0:0,0:0:0:0:
194,383,26793,5,2,0:0:0:0:
208,203,27173,1,2,0:0:0:0:
222,28,27552,6,0,B|249:23|264:7|264:-14|264:-14|264:7|273:40|295:58|338:62|369:43,1,209.999994485378,6|0,0:0|0:0,0:0:0:0:
463,11,28692,5,8,0:0:0:0:
406,144,29071,1,2,0:0:0:0:
463,11,29451,1,2,0:0:0:0:
476,231,29831,6,0,B|418:157|325:194,1,168.000000715255,0|2,0:0|0:0,0:0:0:0:
326,193,30780,1,2,0:0:0:0:
256,125,30970,6,0,L|256:77,1,48.9999987132548,8|0,0:0|0:0,0:0:0:0:
198,225,31350,6,0,L|158:249,1,46.8999979812002,2|2,0:0|0:0,0:0:0:0:
315,225,31729,6,0,L|355:249,1,44.8000001907347,2|0,0:0|0:0,0:0:0:0:
453,158,32109,6,0,B|474:143|479:122|479:122|460:212,1,134.400003853454,2|0,0:0|0:0,0:0:0:0:
505,290,32679,2,0,B|461:302|461:302|447:325|447:325|400:337,1,119.000002776384,2|2,0:0|0:0,0:0:0:0:
311,382,33248,5,8,0:0:0:0:
256,236,33628,1,2,0:0:0:0:
311,382,34008,1,2,0:0:0:0:
135,340,34388,6,0,B|44:366|4:282,1,157.5000066787,0|2,0:0|0:0,0:0:0:0:
5,283,35337,1,2,0:0:0:0:
72,192,35527,6,0,L|113:213,1,45.4999981108903,8|0,0:0|0:0,0:0:0:0:
244,187,35907,6,0,L|198:162,1,52.5000022262334,2|0,0:0|0:0,0:0:0:0:
337,134,36286,5,2,0:0:0:0:
421,174,36476,1,2,0:0:0:0:
506,214,36666,6,0,B|551:160|508:95,1,125.999996691227,6|0,1:2|0:0,0:0:0:0:
510,97,37236,2,0,L|449:119,1,56.0000002384184,2|0,1:2|0:0,0:0:0:0:
394,58,37616,1,2,0:0:0:0:
323,145,37805,6,0,B|252:152|230:89,2,119.000002776384,10|2|2,0:0|0:0|0:0,0:0:0:0:
409,123,38755,1,2,0:0:0:0:
459,196,38945,1,2,0:0:0:0:
405,266,39135,1,0,0:0:0:0:
323,232,39324,2,0,B|262:246|262:246|246:277|246:277|188:292,1,157.5000066787,2|2,0:0|0:0,0:0:0:0:
187,292,40084,6,0,L|153:253,1,52.5000022262334,10|0,0:0|0:0,0:0:0:0:
52,370,40464,6,0,L|84:335,2,45.4999981108903,2|0|0,0:0|0:0|1:2,0:0:0:0:
0,300,41033,1,2,0:0:0:0:
66,210,41223,6,0,B|142:230|179:161,1,134.400003853454,2|0,1:2|0:0,0:0:0:0:
178,161,41793,2,0,L|128:131,1,59.500001388192,2|0,1:2|0:0,0:0:0:0:
164,54,42173,1,2,0:0:0:0:
294,97,42362,6,0,B|329:97|329:97|352:108|352:108|374:97|374:97|413:97,2,119.000002776384,10|2|2,0:0|0:0|0:0,0:0:0:0:
164,54,43312,1,2,0:0:0:0:
241,159,43502,1,2,0:0:0:0:
242,34,43692,1,0,0:0:0:0:
164,134,43881,2,0,B|103:211|169:286,1,168.000000715255,2|2,0:0|0:0,0:0:0:0:
256,359,44641,6,0,B|274:348|270:333|270:333|274:348|297:349,1,62.9999983456133,10|2,0:0|0:0,0:0:0:0:
383,347,45021,1,2,1:2:0:0:
64,382,45400,5,2,0:0:0:0:
64,382,45590,1,2,0:0:0:0:
64,382,45780,6,0,L|50:335,1,45.4999981108903,6|0,1:2|0:0,0:0:0:0:
55,253,46160,5,2,0:0:0:0:
133,210,46350,5,0,0:0:0:0:
223,224,46540,6,0,L|235:171,1,52.5000022262334,2|2,0:0|0:0,0:0:0:0:
312,320,46919,6,0,B|379:339|417:283,1,119.000002776384,2|2,0:0|0:0,0:0:0:0:
391,97,47679,2,0,B|411:93|411:79|411:79|411:93|432:97,1,59.500001388192,2|2,0:0|0:0,0:0:0:0:
314,169,48059,6,0,B|270:176|246:137|246:137|170:122,1,157.5000066787,2|0,0:0|0:0,0:0:0:0:
170,122,48818,2,0,L|160:72,1,41.9999988970756,2|0,0:0|0:0,0:0:0:0:
61,192,49198,6,0,B|36:216|27:242|34:273|54:298|91:312|122:304|141:286|148:266|144:250|136:244|125:240|113:250|119:266,1,229.600004480933,2|2,0:0|0:0,0:0:0:0:
360,301,50337,6,0,L|364:257,1,41.9999988970756,2|2,0:0|0:0,0:0:0:0:
417,371,50717,2,0,B|354:311|279:351,1,146.999996139764,2|2,0:0|0:0,0:0:0:0:
178,301,51476,6,0,B|123:237|174:167,1,146.999996139764,2|0,0:0|0:0,0:0:0:0:
174,166,52236,2,0,L|224:167,1,48.9999987132548,2|0,0:0|0:0,0:0:0:0:
302,111,52616,6,0,L|302:70,1,41.9999988970756,2|2,0:0|0:0,0:0:0:0:
368,221,52995,5,0,0:0:0:0:
368,221,53185,2,0,B|401:181|458:196,1,97.9999974265096,2|2,0:0|0:0,0:0:0:0:
510,74,53755,6,0,L|456:86,1,56.0000002384184,2|0,0:0|0:0,0:0:0:0:
376,29,54135,1,0,0:0:0:0:
293,113,54324,6,0,B|256:95|256:65|256:65|256:96|221:112,1,125.999996691227,6|2,2:3|0:0,0:0:0:0:
94,101,54894,6,0,B|69:87|64:66|64:66|85:157,1,140.000000596046,6|2,1:2|0:2,0:0:0:0:
56,243,55464,2,0,P|101:202|162:208,1,125.999996691227,2|2,1:2|0:0,0:0:0:0:
292,138,56033,6,0,B|274:130|274:118|274:118|274:130|257:138,1,56.0000002384184,10|0,0:0|0:0,0:0:0:0:
320,219,56413,5,2,1:2:0:0:
410,238,56603,5,2,0:0:0:0:
500,208,56793,6,0,L|523:270,1,52.5000022262334,2|0,0:0|0:0,0:0:0:0:
511,75,57173,6,0,B|474:75|474:75|449:88|449:88|422:75|422:75|379:75,1,132.999997014761,2|2,1:2|0:0,0:0:0:0:
296,37,57742,2,0,P|275:91|298:145,1,119.000002776384,2|2,1:2|0:0,0:0:0:0:
379,243,58312,5,10,0:0:0:0:
310,309,58502,1,0,1:2:0:0:
310,309,58597,1,0,0:0:0:0:
310,309,58692,2,0,L|357:340,1,45.4999981108903,2|2,1:2|0:0,0:0:0:0:
198,223,59071,6,0,L|152:188,1,52.5000022262334,0|2,0:0|1:2,0:0:0:0:
184,381,59451,6,0,P|257:322|348:333,1,188.99999503684,2|2,1:2|1:2,0:0:0:0:
446,240,60211,1,2,0:0:0:0:
421,367,60400,1,0,0:0:0:0:
365,251,60590,6,0,L|343:203,1,48.9999987132548,10|2,0:0|0:0,0:0:0:0:
483,313,60970,6,0,L|535:313,2,48.9999987132548,2|0|0,1:2|0:0|0:0,0:0:0:0:
421,367,61540,1,2,0:0:0:0:
323,269,61729,6,0,B|271:282|271:282|258:306|258:306|207:320,1,132.999997014761,2|2,1:2|0:0,0:0:0:0:
137,381,62299,2,0,P|83:346|22:360,1,125.999996691227,2|2,1:2|0:0,0:0:0:0:
0,209,62869,6,0,B|20:202|20:188|20:188|20:202|40:209,1,62.9999983456133,10|0,0:0|1:2,0:0:0:0:
40,209,63154,1,0,0:0:0:0:
40,209,63248,1,0,1:2:0:0:
161,265,63438,1,2,0:0:0:0:
130,186,63628,5,0,0:0:0:0:
80,295,63818,1,2,1:2:0:0:
204,376,64008,6,0,B|243:376|263:349|263:349|330:349,1,132.999997014761,2|2,1:2|0:0,0:0:0:0:
408,302,64578,2,0,P|430:251|404:194,1,121.800001540746,2|2,1:2|0:0,0:0:0:0:
404,193,65147,6,0,L|457:179,1,52.5000022262334,10|0,0:0|0:0,0:0:0:0:
256,137,65527,6,0,L|220:90,1,52.5000022262334,0|0,1:2|0:0,0:0:0:0:
286,293,65907,5,2,0:0:0:0:
263,373,66097,1,2,0:0:0:0:
286,293,66286,6,0,L|302:244,2,52.5000022262334,2|2|0,1:2|1:2|0:0,0:0:0:0:
228,192,66856,2,0,P|293:196|334:157,1,125.999996691227,2|2,1:2|1:2,0:0:0:0:
256,22,67426,5,10,0:0:0:0:
176,63,67616,1,0,0:0:0:0:
180,71,67711,1,0,0:0:0:0:
184,79,67805,2,0,L|135:69,1,48.9999987132548,2|0,1:2|0:0,0:0:0:0:
279,147,68185,6,0,L|334:156,1,56.0000002384184,2|0,0:0|1:2,0:0:0:0:
157,209,68565,6,0,P|132:266|162:325,1,132.999997014761,2|2,1:2|0:0,0:0:0:0:
245,374,69135,2,0,B|262:362|260:349|260:349|262:362|286:364,2,62.9999983456133,2|0|2,1:2|1:2|0:0,0:0:0:0:
392,234,69704,5,2,0:2:0:0:
465,325,69894,1,0,0:0:0:0:
474,244,70084,1,10,0:0:0:0:
383,316,70274,1,2,0:0:0:0:
383,322,70369,1,2,0:0:0:0:
383,328,70464,2,0,L|336:319,1,45.4999981108903,0|2,1:2|0:0,0:0:0:0:
306,226,70843,6,0,L|343:193,1,48.9999987132548,2|0,1:2|1:2,0:0:0:0:
220,133,71223,6,0,L|208:186,1,52.5000022262334,2|2,0:0|1:2,0:0:0:0:
100,191,71603,6,0,L|77:133,1,56.0000002384184
9,334,71983,5,2,1:2:0:0:
142,308,72173,1,0,1:2:0:0:
18,251,72362,1,10,0:0:0:0:
85,372,72552,6,0,B|63:366|63:351|63:351|63:366|41:373,1,62.9999983456133,2|2,1:2|1:2,0:0:0:0:
142,252,72932,1,8,0:0:0:0:
142,260,73027,1,8,0:0:0:0:
143,268,73122,6,0,P|240:273|289:182,1,210.000000894069,6|2,1:2|1:2,0:0:0:0:
289,183,73881,2,0,L|239:183,1,48.9999987132548
389,119,74261,6,0,L|415:70,1,52.5000022262334,10|0,0:0|0:0,0:0:0:0:
389,249,74641,5,2,1:2:0:0:
469,228,74831,1,2,0:0:0:0:
512,298,75021,1,2,0:0:0:0:
461,363,75211,1,0,0:0:0:0:
384,331,75400,6,0,P|328:295|266:312,1,134.400003853454,2|2,1:2|0:0,0:0:0:0:
266,311,75970,2,0,P|240:257|263:197,1,125.999996691227,2|2,1:2|0:0,0:0:0:0:
359,81,76540,5,10,0:0:0:0:
439,143,76729,1,0,1:2:0:0:
439,143,76824,1,0,0:0:0:0:
439,143,76919,2,0,L|489:142,1,48.9999987132548,2|2,1:2|0:0,0:0:0:0:
348,178,77299,5,0,0:0:0:0:
250,143,77489,5,2,1:2:0:0:
145,178,77679,6,0,B|117:155|111:128|111:128|141:275,1,210.000000894069,2|2,1:2|1:2,0:0:0:0:
225,312,78438,1,2,0:0:0:0:
157,375,78628,1,0,0:0:0:0:
50,312,78818,6,0,L|-4:312,1,52.5000022262334,10|2,0:0|0:0,0:0:0:0:
94,273,79198,6,0,L|140:273,2,45.4999981108903,2|0|0,1:2|0:0|0:0,0:0:0:0:
213,351,79767,1,2,0:0:0:0:
320,298,79957,6,0,P|342:244|314:183,1,125.999996691227,2|2,1:2|0:0,0:0:0:0:
342,96,80527,2,0,P|301:141|240:137,1,125.999996691227,2|2,1:2|0:0,0:0:0:0:
104,57,81097,6,0,B|127:53|129:37|129:37|127:53|147:63,1,70.000000298023,10|0,0:0|1:2,0:0:0:0:
148,64,81381,1,0,0:0:0:0:
148,64,81476,1,0,1:2:0:0:
184,168,81666,5,2,0:0:0:0:
220,76,81856,5,0,0:0:0:0:
132,130,82046,5,2,1:2:0:0:
220,257,82236,6,0,B|270:272|270:272|284:301|284:301|337:317,1,140.000000596046,2|2,1:2|0:0,0:0:0:0:
413,372,82805,2,0,P|469:363|501:306,1,125.999996691227,2|2,1:2|0:0,0:0:0:0:
399,195,83375,5,10,0:0:0:0:
399,195,83565,1,0,0:0:0:0:
399,195,83755,2,0,B|420:189|420:172|420:172|420:189|441:194,1,66.4999985073803,2|0,1:2|0:0,0:0:0:0:
312,135,84135,6,0,P|325:126|311:113,1,38.5000013388394,2|2,0:0|0:0,0:0:0:0:
256,268,84514,6,0,P|197:234|136:248,1,132.999997014761,2|2,1:2|0:0,0:0:0:0:
136,247,85084,2,0,P|102:197|117:136,1,125.999996691227,2|2,1:2|1:2,0:0:0:0:
193,49,85654,5,10,0:2:0:0:
274,94,85843,1,0,0:0:0:0:
272,102,85938,1,0,0:0:0:0:
270,110,86033,2,0,L|326:98,1,48.9999987132548,0|0,1:2|0:0,0:0:0:0:
116,136,86413,5,2,0:0:0:0:
32,151,86603,1,0,1:2:0:0:
124,75,86793,6,0,L|118:124,1,45.4999981108903,2|2,1:2|1:2,0:0:0:0:
219,199,87173,6,0,L|212:151,1,48.9999987132548,2|0,0:0|1:2,0:0:0:0:
316,69,87552,6,0,L|309:129,1,52.5000022262334,2|0,1:2|0:0,0:0:0:0:
405,199,87932,6,0,B|431:199|431:199|472:199|463:221|502:221|502:221|526:221,2,125.999996691227,10|2|2,0:0|0:0|1:2,0:0:0:0:
95,96,89071,5,2,1:2:0:0:
179,76,89261,1,2,1:2:0:0:
223,149,89451,1,0,0:0:0:0:
167,214,89641,1,2,1:2:0:0:
87,181,89831,6,0,L|34:181,1,45.4999981108903,2|0,1:2|0:0,0:0:0:0:
172,142,90211,5,10,0:0:0:0:
256,206,90400,5,2,1:2:0:0:
390,161,90590,6,0,B|370:156|370:142|370:142|370:156|349:161,1,59.500001388192,0|2,1:2|0:0,0:0:0:0:
467,254,90970,5,0,3:0:0:0:
469,262,91065,1,0,3:0:0:0:
472,270,91160,1,0,0:3:0:0:
475,278,91255,1,0,3:0:0:0:
478,286,91350,6,0,B|473:294|465:302|457:312|448:318|437:321|427:327|414:327|403:327|391:327|378:321|369:320|360:312|352:304|345:294|340:284|335:273|333:260|333:248|333:238|335:223|335:214|333:201|328:189|325:180|319:170|309:163|296:156|288:149|276:145|266:143|255:145|242:148|230:149|221:156|210:164|203:170|196:181|191:192,1,420.000001788138,6|4,0:2|0:0,0:0:0:0:
31,370,100464,6,0,B|69:326|132:340,1,112.000000476837,6|0,0:0|0:0,0:0:0:0:
132,340,101033,2,0,B|168:290|132:236,1,112.000000476837,2|0,0:0|0:0,0:0:0:0:
63,156,101603,5,2,0:0:0:0:
194,56,101983,1,2,0:0:0:0:
63,156,102362,1,0,0:0:0:0:
172,255,102742,6,0,B|221:255|221:255|242:280|278:273,1,112.000000476837,2|0,0:0|0:0,0:0:0:0:
340,335,103312,2,0,B|318:303|338:267|338:267|358:231|339:196,1,146.999996139764,2|0,0:0|0:0,0:0:0:0:
265,156,104071,1,2,0:0:0:0:
192,115,104261,2,0,L|192:70,2,45.4999981108903
0,250,105021,6,0,B|28:228|22:204|22:204|28:228|66:235,1,112.000000476837,2|0,0:0|0:0,0:0:0:0:
146,192,105590,2,0,B|176:192|176:192|200:203|200:203|223:192|223:192|253:192,1,112.000000476837,2|0,0:0|0:0,0:0:0:0:
334,132,106160,5,2,0:0:0:0:
381,266,106540,1,2,0:0:0:0:
334,132,106919,1,0,0:0:0:0:
199,160,107299,6,0,B|165:112|195:62,1,105.000004452467,2|0,0:0|0:0,0:0:0:0:
271,19,107869,2,0,B|323:36|323:36|339:64|339:64|397:82,1,146.999996139764,2|0,0:0|0:0,0:0:0:0:
443,152,108628,5,2,0:0:0:0:
424,238,108818,6,0,L|469:255,2,45.4999981108903
333,256,109388,5,0,0:0:0:0:
256,192,109578,5,10,0:0:0:0:
430,39,110147,6,0,B|393:90|329:67,1,112.000000476837,2|2,0:0|0:0,0:0:0:0:
256,26,110717,2,0,L|281:142,2,112.000000476837,10|10|10,0:0|0:0|0:0,0:0:0:0:
182,70,111666,1,2,0:0:0:0:
49,37,111856,6,0,B|29:31|29:19|29:19|29:31|7:37,1,56.0000002384184,10|0,0:0|0:0,0:0:0:0:
96,119,112236,2,0,B|142:132|170:99|170:99|256:99,1,168.000000715255,10|2,0:0|0:0,0:0:0:0:
256,99,112995,6,0,L|245:52,1,48.9999987132548,10|0,0:0|0:0,0:0:0:0:
338,171,113375,6,0,L|384:184,2,48.9999987132548,10|0|8,0:0|0:0|0:0,0:0:0:0:
234,201,113944,5,8,0:0:0:0:
224,213,114039,1,8,0:0:0:0:
214,224,114134,1,10,0:0:0:0:
417,368,114704,6,0,B|452:317|412:264,1,112.000000476837,2|2,0:0|0:0,0:0:0:0:
345,211,115274,2,0,P|402:216|442:183,2,112.000000476837,10|10|10,0:0|0:0|0:0,0:0:0:0:
275,162,116223,1,2,0:0:0:0:
190,243,116413,6,0,L|200:297,1,48.9999987132548,10|0,0:0|0:0,0:0:0:0:
150,363,116793,2,0,B|63:405|17:317,1,157.5000066787,10|2,0:0|0:0,0:0:0:0:
18,319,117552,2,0,L|74:309,1,52.5000022262334,10|2,0:0|0:0,0:0:0:0:
93,221,117932,5,10,0:0:0:0:
256,383,118312,5,10,0:0:0:0:
422,221,118692,6,0,B|385:191|370:136|397:77|485:77|490:153,1,224.000000953674,10|0,0:0|0:0,0:0:0:0:
512,252,119831,6,0,B|455:224|418:276|418:276|383:325|329:298,1,209.999994485378,10|0,0:0|0:0,0:0:0:0:
256,367,120970,5,8,0:0:0:0:
192,217,121350,1,8,0:0:0:0:
329,298,121729,1,8,0:0:0:0:
166,313,122109,6,0,L|110:318,1,48.9999987132548,8|0,0:0|0:0,0:0:0:0:
203,216,122489,6,0,L|166:175,2,48.9999987132548,10|8|10,0:0|0:0|0:0,0:0:0:0:
301,178,123058,5,8,0:0:0:0:
302,166,123153,1,8,0:0:0:0:
303,154,123248,2,0,B|356:163|385:115,2,97.9999974265096,8|8|8,0:0|0:0|0:0,0:0:0:0:
195,235,124388,6,0,B|140:256|99:203,2,106.399999154167,8|8|8,0:0|0:0|0:0,0:0:0:0:
338,313,125527,6,0,B|403:330|437:269,2,114.800002240467,8|8|8,0:0|0:0|0:0,0:0:0:0:
147,111,126666,5,8,0:0:0:0:
72,80,126856,1,0,0:0:0:0:
23,145,127046,1,10,0:0:0:0:
66,214,127236,1,0,0:0:0:0:
144,192,127426,2,0,P|157:181|143:169,1,38.5000013388394,10|2,0:0|0:0,0:0:0:0:
228,281,127805,6,0,B|275:294|275:294|288:318|288:318|339:329,1,125.999996691227,6|0,1:2|0:0,0:0:0:0:
336,328,128375,2,0,L|288:342,1,48.9999987132548,2|0,1:2|0:0,0:0:0:0:
413,370,128755,1,2,0:0:0:0:
510,328,128945,6,0,B|548:271|507:218,2,119.000002776384,10|2|2,0:0|1:2|0:0,0:0:0:0:
406,293,129894,5,2,0:0:0:0:
359,365,130084,1,2,1:2:0:0:
312,293,130274,1,0,1:2:0:0:
215,328,130464,6,0,B|164:338|141:290|141:290|53:274,1,178.500004164576,2|2,0:0|0:0,0:0:0:0:
12,177,131223,6,0,B|28:168|26:156|26:156|28:168|49:170,1,56.0000002384184,10|0,0:0|0:0,0:0:0:0:
125,126,131603,2,0,P|138:114|123:104,1,38.5000013388394,2|0,0:0|0:0,0:0:0:0:
166,203,131983,5,0,1:2:0:0:
260,223,132173,5,2,0:0:0:0:
355,184,132362,6,0,B|370:171|367:149|367:149|383:246,1,132.999997014761,2|0,1:2|0:0,0:0:0:0:
427,320,132932,2,0,B|374:272|308:300,1,125.999996691227,2|2,1:2|0:0,0:0:0:0:
202,231,133502,6,0,B|155:242|155:242|143:264|143:264|97:276,2,119.000002776384,10|2|2,0:0|1:2|0:0,0:0:0:0:
258,169,134451,1,2,0:0:0:0:
335,279,134641,5,2,1:2:0:0:
253,298,134831,1,0,1:2:0:0:
335,198,135021,6,0,B|393:120|327:43,1,168.000000715255,2|2,0:0|0:0,0:0:0:0:
215,83,135780,5,10,0:0:0:0:
215,83,135970,1,2,0:0:0:0:
215,83,136160,2,0,B|194:72|197:57|197:57|194:72|172:74,1,66.4999985073803,2|0,0:0|0:0,0:0:0:0:
300,162,136540,6,0,B|317:153|314:140|314:140|317:153|336:154,1,57.4000011202334,2|2,1:2|0:0,0:0:0:0:
256,260,136919,5,6,1:2:0:0:
161,239,137109,1,0,0:0:0:0:
227,310,137299,1,2,0:0:0:0:
214,212,137489,1,0,1:2:0:0:
167,299,137679,6,0,L|119:299,1,45.4999981108903,2|2,0:0|0:0,0:0:0:0:
296,373,138059,6,0,B|358:390|389:333,1,112.000000476837,10|2,0:0|0:0,0:0:0:0:
487,155,138818,2,0,L|504:194,1,41.9999988970756,2|2,0:0|0:0,0:0:0:0:
407,175,139198,5,2,0:0:0:0:
459,77,139388,1,0,0:0:0:0:
380,97,139578,6,0,L|363:50,1,45.4999981108903
460,180,139957,6,0,L|508:194,1,45.4999981108903,2|0,1:2|0:0,0:0:0:0:
356,205,140337,6,0,B|269:207|254:290,1,146.999996139764,10|0,0:0|0:0,0:0:0:0:
253,290,141097,1,2,0:0:0:0:
49,91,141476,6,0,B|70:88|72:74|72:74|70:88|87:98,2,62.9999983456133,2|2|0,1:2|0:0|0:0,0:0:0:0:
62,184,142046,2,0,B|100:138|163:152,1,112.000000476837,2|2,1:2|0:0,0:0:0:0:
256,53,142616,6,0,L|269:103,1,45.4999981108903,10|0,0:0|1:2,0:0:0:0:
313,175,142995,2,0,L|268:186,1,45.4999981108903
312,265,143375,2,0,L|325:315,1,45.4999981108903,2|0,0:0|0:0,0:0:0:0:
433,365,143755,5,2,1:2:0:0:
483,282,143945,1,2,0:0:0:0:
501,350,144135,5,0,0:0:0:0:
416,297,144324,2,0,B|352:323|313:266,1,119.000002776384,2|2,1:2|0:0,0:0:0:0:
256,136,144894,6,0,B|190:151|190:151|175:179|175:179|108:194,1,168.000000715255,2|6,1:2|2:3,0:0:0:0:
108,193,145654,2,0,L|121:244,1,48.9999987132548,2|0,0:0|0:0,0:0:0:0:
5,161,146033,6,0,B|-49:101|3:38,1,136.499994332671,6|0,1:2|0:0,0:0:0:0:
104,95,146793,6,0,B|158:68|193:117|193:117|230:169|287:141,1,209.999994485378,2|0,0:0|0:0,0:0:0:0:
335,65,147932,2,0,B|308:47|311:25|311:25|308:46|274:52,1,97.9999974265096,2|0,0:0|0:0,0:0:0:0:
469,179,148692,5,2,0:0:0:0:
427,7,149071,5,2,0:0:0:0:
357,168,149451,5,2,0:0:0:0:
512,82,149831,6,0,L|469:82,1,41.9999988970756,2|2,0:0|0:0,0:0:0:0:
400,24,150211,2,0,P|414:13|400:0,1,41.9999988970756,2|0,0:0|0:0,0:0:0:0:
363,129,150590,6,0,B|270:114|234:193,1,157.5000066787,2|0,1:2|0:0,0:0:0:0:
142,237,151350,6,0,B|233:200|286:285,1,167.999995588302,2|2,0:0|0:0,0:0:0:0:
142,237,152489,5,2,0:0:0:0:
160,117,152869,5,2,0:0:0:0:
271,51,153248,5,2,0:0:0:0:
419,36,153628,6,0,B|428:18|428:18|419:-1,1,41.9999988970756,2|0,0:0|0:0,0:0:0:0:
360,103,154008,2,0,B|318:103|318:103|289:118|289:118|261:103|261:103|221:103,1,146.999996139764,2|0,0:0|0:0,0:0:0:0:
175,180,154767,1,2,0:0:0:0:
175,180,154957,1,0,0:0:0:0:
222,290,155147,6,0,B|262:246|324:262,1,112.000000476837,2|0,1:2|0:0,0:0:0:0:
394,217,155717,1,0,0:0:0:0:
464,175,155907,2,0,L|447:126,2,48.9999987132548,0|0|10,0:0|0:0|0:0,0:0:0:0:
448,379,156666,6,0,L|431:332,1,48.9999987132548,0|0,0:0|1:2,0:0:0:0:
431,332,157046,2,0,L|382:332,1,48.9999987132548
510,262,157426,6,0,B|549:208|505:152,2,119.000002776384,2|2|2,1:2|0:0|0:0,0:0:0:0:
382,332,158565,6,0,B|338:324|338:324|322:300|322:300|277:291,1,119.000002776384,2|2,0:0|0:0,0:0:0:0:
237,213,159135,5,2,0:0:0:0:
147,196,159324,5,2,0:0:0:0:
60,225,159514,5,0,0:0:0:0:
60,225,159609,1,0,0:0:0:0:
60,225,159704,2,0,L|19:225,1,41.9999988970756,2|0,1:2|1:2,0:0:0:0:
134,164,160084,6,0,L|169:164,1,35.0000001490115
272,284,160464,6,0,L|223:283,1,41.9999988970756,0|2,0:0|0:0,0:0:0:0:
346,225,160843,6,2,B|393:207|429:242|429:242|463:276|511:256,2,178.500004164576,10|0|2,0:0|1:2|1:2,0:1:0:0:
143,150,162362,6,0,L|129:193,1,41.9999988970756,2|0,0:0|0:0,0:0:0:0:
60,239,162742,2,0,L|18:239,1,41.9999988970756,2|0,0:0|0:0,0:0:0:0:
106,342,163122,6,0,B|140:302|202:317,1,105.000004452467,2|2,0:0|0:0,0:0:0:0:
285,335,163692,1,2,0:0:0:0:
323,259,163881,1,2,0:0:0:0:
256,206,164071,1,2,0:0:0:0:
256,199,164166,1,2,0:0:0:0:
256,192,164261,5,6,1:2:0:0:
418,63,164831,6,0,B|437:52|440:33|440:33|429:120,1,119.000002776384,2|2,0:0|0:0,0:0:0:0:
501,165,165400,2,0,B|436:147|393:193,1,119.000002776384,10|2,0:0|0:0,0:0:0:0:
296,148,165970,1,0,1:2:0:0:
349,238,166160,1,0,0:0:0:0:
359,138,166350,1,0,0:0:0:0:
290,214,166540,6,0,B|261:214|261:214|209:214|226:244|173:244|173:244|137:244,1,157.5000066787,2|2,1:2|0:0,0:0:0:0:
18,29,167489,5,2,0:0:0:0:
69,95,167679,2,0,L|47:137,1,41.9999988970756,2|0,0:0|0:0,0:0:0:0:
49,132,168059,6,0,L|92:132,1,41.9999988970756,2|0,0:0|0:0,0:0:0:0:
176,132,168438,5,0,0:0:0:0:
256,192,168628,5,2,0:0:0:0:
256,192,168723,1,0,0:0:0:0:
256,192,168818,1,2,1:2:0:0:
266,285,169008,6,0,B|249:297|253:311|253:311|249:297|229:294,1,62.9999983456133,0|0,1:2|0:0,0:0:0:0:
343,369,169388,6,0,B|377:373|398:351|398:351|450:351,1,112.000000476837,2|2,0:0|0:0,0:0:0:0:
512,293,169957,2,2,B|542:244|509:194,2,105.000004452467,10|2|0,0:0|0:0|0:0,0:1:0:0:
364,226,171097,6,0,B|323:242|293:211|293:211|261:177|220:194,1,157.5000066787,2|2,0:0|0:0,0:0:0:0:
220,193,172046,1,2,0:0:0:0:
146,119,172236,6,0,B|156:96|156:96|145:73,2,48.9999987132548,2|0|2,0:0|1:2|0:0,0:0:0:0:
103,193,172805,5,0,1:2:0:0:
185,242,172995,5,0,1:2:0:0:
111,335,173185,5,0,1:2:0:0:
111,335,173280,1,0,1:2:0:0:
111,335,173375,2,0,B|164:249|275:287,1,184.800006426429,2|2,1:2|0:0,0:0:0:0:
512,192,174324,5,2,0:0:0:0:
434,166,174514,6,0,L|424:126,1,35.0000001490115,10|0,0:0|0:0,0:0:0:0:
363,232,174894,6,0,L|357:270,1,38.5000013388394,2|0,0:0|0:0,0:0:0:0:
271,168,175274,6,0,L|260:124,1,41.9999988970756
180,247,175654,5,2,0:0:0:0:
107,285,175843,1,0,0:0:0:0:
47,228,176033,1,0,0:0:0:0:
83,154,176223,1,0,0:0:0:0:
164,165,176413,2,0,B|182:157|179:143|179:143|182:157|202:158,1,59.500001388192,2|0,0:0|0:0,0:0:0:0:
288,266,176793,6,0,B|349:291|388:241,1,112.000000476837,0|2,0:0|0:0,0:0:0:0:
387,241,177362,2,0,L|377:193,1,48.9999987132548,0|2,0:0|0:0,0:0:0:0:
327,82,177742,5,0,0:0:0:0:
327,90,177837,1,0,0:0:0:0:
327,98,177932,2,0,B|287:91|287:91|266:67|266:67|227:58,2,112.000000476837,2|2|2,1:2|0:0|0:0,0:0:0:0:
378,163,178881,1,0,0:0:0:0:
464,192,179071,6,0,B|390:189|361:251,1,125.999996691227,8|2,0:0|0:0,0:0:0:0:
256,194,179641,1,0,0:0:0:0:
307,294,179831,1,2,0:0:0:0:
327,187,180021,1,0,0:0:0:0:
244,264,180211,6,0,B|223:260|223:246|223:246|223:261|202:264,1,59.500001388192,6|0,0:0|0:0,0:0:0:0:
321,305,180590,5,4,0:0:0:0:
410,289,180780,5,0,0:0:0:0:
456,208,180970,5,4,0:0:0:0:
438,114,181160,5,0,0:0:0:0:
372,40,181350,6,2,B|345:67|345:67|343:65|343:65|346:67|346:67|379:351|379:351|382:353|382:353|379:351|379:351|352:375,1,374.49999016559,4|0,0:0|0:0,0:1:0:0:
256,297,182489,6,0,B|229:278|235:251|235:251|229:278|192:283,1,112.000000476837,14|10,0:0|0:0,0:0:0:0:
143,356,183059,2,0,B|107:363|85:338|85:338|37:338,1,112.000000476837,2|2,0:0|0:0,0:0:0:0:
0,242,183628,5,10,0:0:0:0:
0,242,183818,1,0,0:0:0:0:
0,242,184008,2,0,L|46:216,1,52.5000022262334,10|2,0:0|0:0,0:0:0:0:
81,140,184388,6,0,L|43:164,1,41.9999988970756,10|0,0:0|0:0,0:0:0:0:
176,192,184767,6,0,B|208:192|208:192|233:204|233:204|257:192|257:192|289:192,1,119.000002776384,10|10,0:0|0:0,0:0:0:0:
380,227,185337,2,0,B|418:176|378:122,1,112.000000476837,2|2,0:0|0:0,0:0:0:0:
314,25,185907,6,0,B|297:15|301:2|301:2|297:15|277:17,2,59.500001388192,10|0|10,0:0|0:0|0:0,0:0:0:0:
418,85,186476,1,10,0:0:0:0:
394,5,186666,5,10,0:0:0:0:
341,114,186856,1,8,0:0:0:0:
341,114,186951,1,8,0:0:0:0:
341,114,187046,1,10,0:0:0:0:
14,254,187616,5,2,0:0:0:0:
59,188,187806,1,10,0:0:0:0:
139,181,187995,1,0,0:0:0:0:
214,210,188185,2,0,L|205:253,1,38.5000013388394,10|2,0:0|0:0,0:0:0:0:
256,346,188565,6,0,B|345:384|388:298,1,157.5000066787,10|2,0:0|0:0,0:0:0:0:
329,201,189324,6,0,B|285:189|285:189|272:165|272:165|228:152,1,119.000002776384,10|10,0:0|0:0,0:0:0:0:
148,113,189894,2,0,B|124:162|124:162|151:212,1,112.000000476837,2|2,0:0|0:0,0:0:0:0:
245,324,190464,6,0,P|258:313|245:301,2,38.5000013388394,10|0|8,0:0|0:0|0:0,0:0:0:0:
168,362,191033,5,10,0:0:0:0:
76,344,191223,5,8,0:0:0:0:
45,254,191413,5,10,0:0:0:0:
47,246,191508,1,8,0:0:0:0:
50,238,191603,2,0,B|103:238|103:238|127:263|164:254,1,119.000002776384,10|10,0:0|0:0,0:0:0:0:
225,182,192173,2,0,B|256:169|256:143|256:143|256:169|288:182,1,107.799998320589,2|2,0:0|0:0,0:0:0:0:
367,278,192742,6,0,B|363:281|363:281|364:283|364:283|362:281|362:281|359:283|359:283|357:281|357:281|358:284|358:284|354:286|354:286|356:289|356:289|354:287|354:287|350:289|350:289|348:287|348:287|349:289|349:289|346:291|346:291|347:294|347:294|345:292|345:292|342:294|342:294|340:292|340:292|341:295|341:295|338:297|338:297|339:300|339:300|337:297|337:297|334:299,1,73.2749401823974,10|2,0:1|0:1,0:0:0:0:
398,201,193122,6,0,B|397:196|397:196|394:196|394:196|397:195|397:195|397:191|397:191|400:190|400:190|397:190|397:190|396:186|396:186|393:186|393:186|396:185|396:185|396:181|396:181|399:180|399:180|396:180|396:180|395:176|395:176|392:176|392:176|395:175|395:175|395:171|395:171|398:171|398:171|395:170|395:170|394:166|394:166|391:166|391:166|394:165|394:165|394:162,1,75.6042800116244,10|2,0:1|0:1,0:0:0:0:
449,267,193502,6,0,B|454:269|454:269|455:266|455:266|455:269|455:269|458:271|458:271|458:274|458:274|459:271|459:271|463:273|463:273|464:270|464:270|464:273|464:273|467:275|467:275|467:277|467:277|468:275|468:275|472:276|472:276|474:274|474:274|473:277|473:277|477:278|477:278|476:281|476:281|477:279|477:279|481:280|481:280|483:278|483:278|482:281|482:281|485:282,1,72.7026540155857,10|2,0:1|0:1,0:0:0:0:
375,373,193881,6,0,B|330:326|267:349,1,119.000002776384,10|10,0:0|0:0,0:0:0:0:
266,349,194451,2,0,B|225:305|257:250,1,107.799998320589,2|2,0:0|0:0,0:0:0:0:
262,128,195021,6,0,B|267:130|267:130|268:127|268:127|268:130|268:130|271:132|271:132|271:135|271:135|272:132|272:132|276:133|276:133|277:131|277:131|277:134|277:134|280:135|280:135|280:138|280:138|281:136|281:136|285:137|285:137|287:135|287:135|286:138|286:138|290:139|290:139|289:142|289:142|291:139|291:139|294:141|294:141|296:138|296:138|295:141|295:141|298:142,1,73.6131934867679,10|2,0:1|0:1,0:0:0:0:
210,64,195400,6,0,B|209:59|209:59|206:59|206:59|209:58|209:58|209:54|209:54|211:53|211:53|208:53|208:53|208:49|208:49|205:49|205:49|208:48|208:48|207:44|207:44|210:43|210:43|207:43|207:43|206:40|206:40|203:39|203:39|206:39|206:39|206:35|206:35|208:34|208:34|205:34|205:34|205:30|205:30|202:30|202:30|205:29|205:29|204:26,1,72.8302047153887,10|2,0:1|0:1,0:0:0:0:
181,142,195780,6,0,B|177:145|177:145|178:148|178:148|176:146|176:146|173:148|173:148|171:146|171:146|172:149|172:149|169:151|169:151|170:154|170:154|168:152|168:152|165:154|165:154|163:152|163:152|164:155|164:155|161:157|161:157|163:160|163:160|160:158|160:158|157:160|157:160|155:158|155:158|156:161|156:161|153:163|153:163|155:166|155:166|152:164|152:164|150:165,1,73.2451046567126,10|2,0:1|0:1,0:0:0:0:
35,192,196160,6,0,B|13:178|7:159|7:159|32:246,1,132.999997014761,2|2,1:2|0:0,0:0:0:0:
0,325,196729,2,0,B|39:273|108:291,1,119.000002776384,2|2,1:2|0:0,0:0:0:0:
215,228,197299,6,0,B|261:241|261:241|276:267|276:267|323:279,1,125.999996691227,2|10,1:2|0:0,0:0:0:0:
378,217,197869,1,2,0:0:0:0:
454,327,198059,5,0,1:2:0:0:
373,345,198248,1,2,0:0:0:0:
455,245,198438,6,0,B|471:238|469:225|469:225|471:238|487:240,1,52.5000022262334,2|0,1:2|1:2,0:0:0:0:
332,290,198818,6,0,B|350:287|353:272|353:272|350:287|369:295,1,61.6000021421431,0|0,0:0|1:2,0:0:0:0:
192,242,199198,6,0,B|213:232|211:216|211:216|213:232|236:236,1,70.000000298023,0|0,1:2|0:0,0:0:0:0:
108,284,199578,5,2,1:2:0:0:
16,247,199767,5,0,1:2:0:0:
4,148,199957,6,0,P|19:139|3:126,1,41.9999988970756,10|2,0:0|1:2,0:0:0:0:
134,192,200337,5,2,1:2:0:0:
155,203,200432,1,2,0:0:0:0:
179,205,200527,1,2,1:2:0:0:
202,197,200622,1,0,1:2:0:0:
218,180,200717,6,0,B|237:315|237:315|311:307,1,210.000000894069,6|2,1:2|1:2,0:0:0:0:
450,357,201476,5,0,0:0:0:0:
450,357,201666,1,0,0:0:0:0:
450,357,201856,2,0,B|431:348|434:333|434:333|431:348|410:350,1,62.9999983456133,10|0,0:0|0:0,0:0:0:0:
310,293,202236,5,2,1:2:0:0:
287,373,202426,5,2,0:0:0:0:
242,244,202616,5,2,0:0:0:0:
205,373,202805,5,0,0:0:0:0:
177,295,202995,6,0,B|136:295|136:295|114:307|114:307|91:295|91:295|50:295,1,132.999997014761,2|2,1:2|0:0,0:0:0:0:
50,295,203565,2,0,P|24:242|45:190,1,119.000002776384,2|2,1:2|0:0,0:0:0:0:
177,88,204135,5,10,0:0:0:0:
94,61,204324,1,0,1:2:0:0:
94,61,204419,1,0,0:0:0:0:
94,61,204514,2,0,L|47:39,1,45.4999981108903,2|2,1:2|0:0,0:0:0:0:
180,102,204894,5,0,0:0:0:0:
119,190,205084,5,2,1:2:0:0:
216,253,205274,6,0,B|304:222|304:222|352:266|413:234,1,210.000000894069,2|2,1:2|1:2,0:0:0:0:
504,240,206033,1,2,0:0:0:0:
501,332,206223,1,0,0:0:0:0:
408,332,206413,6,0,L|426:383,1,48.9999987132548,10|2,0:0|0:0,0:0:0:0:
313,243,206793,6,0,L|296:192,2,45.4999981108903,2|0|0,1:2|0:0|0:0,0:0:0:0:
256,315,207362,1,2,0:0:0:0:
157,276,207552,6,0,B|118:288|93:264|93:264|36:264,1,125.999996691227,2|2,1:2|0:0,0:0:0:0:
36,264,208122,2,0,B|11:212|11:212|33:155,1,119.000002776384,2|2,1:2|0:0,0:0:0:0:
76,33,208692,6,0,L|113:65,1,48.9999987132548,10|0,0:0|1:2,0:0:0:0:
113,65,208976,1,0,0:0:0:0:
113,65,209071,1,0,1:2:0:0:
33,154,209261,5,2,0:0:0:0:
75,233,209451,5,0,0:0:0:0:
172,247,209641,5,2,1:2:0:0:
256,192,209831,6,0,B|273:177|270:157|270:157|285:250,1,132.999997014761,2|2,1:2|0:0,0:0:0:0:
239,325,210400,2,0,P|291:295|353:307,1,125.999996691227,2|2,1:2|0:0,0:0:0:0:
490,218,210970,6,0,B|485:216|485:216|484:219|484:219|484:216|484:216|481:215|481:215|481:212|481:212|480:215|480:215|476:213|476:213|474:216|474:216|475:213|475:213|471:212|471:212|472:209|472:209|470:212|470:212|466:210|466:210|465:213|465:213|465:210|465:210|462:209|462:209|462:206|462:206|461:208|461:208|457:207|457:207|456:210|456:210|456:207|456:207|453:206,1,75.4833174383122,10|2,0:1|0:1,0:0:0:0:
406,125,211350,6,0,B|407:130|407:130|410:130|410:130|407:131|407:131|408:135|408:135|405:136|405:136|408:136|408:136|409:140|409:140|412:140|412:140|409:141|409:141|410:145|410:145|407:146|407:146|410:146|410:146|411:149|411:149|414:149|414:149|411:150|411:150|412:154|412:154|409:155|409:155|412:155|412:155|413:159|413:159|416:159|416:159|413:160|413:160|414:163,1,75.1750465831965,2|2,0:1|0:1,0:0:0:0:
373,242,211729,6,0,B|377:239|377:239|375:236|375:236|377:238|377:238|380:235|380:235|383:237|383:237|381:235|381:235|384:232|384:232|382:229|382:229|385:231|385:231|388:228|388:228|390:230|390:230|388:228|388:228|391:225|391:225|389:222|389:222|392:224|392:224|395:222|395:222|397:223|397:223|395:221|395:221|398:218|398:218|397:216|397:216|399:217|399:217|401:215,1,75.130829044821,2|2,0:1|0:1,0:0:0:0:
313,351,212109,6,0,B|264:343|264:343|245:316|245:316|196:306,1,132.999997014761,2|2,1:2|0:0,0:0:0:0:
136,236,212679,2,0,B|162:212|152:184|152:184|162:212|200:216,1,119.000002776384,2|2,1:2|1:2,0:0:0:0:
317,89,213248,6,0,B|316:94|316:94|319:95|319:95|316:95|316:95|315:99|315:99|312:99|312:99|315:100|315:100|314:104|314:104|317:105|317:105|314:104|314:104|313:108|313:108|310:108|310:108|312:109|312:109|312:113|312:113|314:114|314:114|311:114|311:114|311:118|311:118|308:118|308:118|310:119|310:119|309:123|309:123|312:124|312:124|309:124|309:124|309:127,1,73.1110342494047,2|2,1:1|0:1,0:0:0:0:
359,205,213628,6,0,B|355:202|355:202|353:203|353:203|355:201|355:201|352:198|352:198|353:196|353:196|351:198|351:198|348:195|348:195|346:197|346:197|347:194|347:194|345:191|345:191|346:189|346:189|344:191|344:191|341:188|341:188|339:190|339:190|340:187|340:187|337:185|337:185|339:182|339:182|337:184|337:184|334:181|334:181|331:183|331:183|333:180|333:180|331:178,1,72.8300682518566,2|2,0:1|0:1,0:0:0:0:
236,180,214008,6,0,B|241:178|241:178|240:175|240:175|242:178|242:178|245:177|245:177|247:180|247:180|246:177|246:177|250:175|250:175|250:172|250:172|251:175|251:175|255:174|255:174|256:177|256:177|256:174|256:174|260:172|260:172|259:169|259:169|261:172|261:172|264:171|264:171|266:173|266:173|265:170|265:170|269:169|269:169|269:166|269:166|270:169|270:169|273:168,1,76.8435055211909,2|2,0:1|1:2,0:0:0:0:
282,312,214388,5,2,1:2:0:0:
221,372,214578,1,0,1:2:0:0:
144,332,214767,1,2,0:0:0:0:
157,247,214958,1,0,1:2:0:0:
243,234,215147,2,0,P|256:219|241:206,1,41.9999988970756,2|0,1:2|0:0,0:0:0:0:
345,332,215527,6,0,P|391:296|454:306,2,125.999996691227,10|2|2,0:0|0:0|1:2,0:0:0:0:
44,109,216666,5,2,1:2:0:0:
44,109,216856,2,0,L|84:109,1,38.5000013388394,8|0,0:0|0:0,0:0:0:0:
168,150,217236,5,2,1:2:0:0:
168,150,217426,2,0,L|124:150,1,44.0999988419293,0|0,1:2|0:0,0:0:0:0:
256,68,217805,5,2,0:0:0:0:
307,147,217995,5,0,1:2:0:0:
228,223,218185,5,8,0:0:0:0:
324,271,218375,5,2,0:0:0:0:
256,348,218565,6,0,B|236:343|236:329|236:329|236:342|215:349,1,59.500001388192,0|0,0:0|1:2,0:0:0:0:
324,258,218945,5,2,0:0:0:0:
408,258,219135,1,2,1:2:0:0:
492,258,219324,2,0,B|503:233|503:233|490:208,2,52.5000022262334,2|0|2,1:2|0:0|1:2,0:0:0:0:
424,150,219894,5,2,0:0:0:0:
424,145,219989,1,2,0:0:0:0:
424,139,220084,2,0,B|384:155|358:123|358:123|329:89|292:104,2,146.999996139764,10|2|2,0:0|0:0|0:0,0:0:0:0:
401,307,221223,5,2,0:0:0:0:
506,286,221413,1,8,0:0:0:0:
434,366,221603,1,0,1:2:0:0:
445,254,221793,1,2,0:0:0:0:
499,351,221983,2,0,L|539:371,1,38.5000013388394,0|0,1:2|0:0,0:0:0:0:
401,307,222362,5,2,1:2:0:0:
505,243,222552,5,8,0:0:0:0:
387,192,222742,6,0,L|342:169,1,48.9999987132548,0|2,0:0|1:2,0:0:0:0:
475,91,223122,5,2,3:2:0:0:
475,85,223217,1,0,3:2:0:0:
475,79,223312,1,0,3:2:0:0:
475,73,223407,1,0,3:2:0:0:
475,67,223502,6,0,B|490:60|510:63|510:63|433:51|433:51|415:49|381:76|380:110|395:132|418:150|418:150|445:173|449:213|424:244|380:259|349:231|342:210,1,420.000001788138,6|4,1:2|0:0,0:0:0:0:
