osu file format v14

[General]
AudioFilename: Annabel - Above your hand.mp3
AudioLeadIn: 0
PreviewTime: 130562
Countdown: 0
SampleSet: Soft
StackLeniency: 0.9
Mode: 0
LetterboxInBreaks: 0
WidescreenStoryboard: 0

[Editor]
Bookmarks: 623,23756,43997,55562,78695,104720,124961,136527,182791,229056,292671
DistanceSpacing: 1.6
BeatDivisor: 4
GridSize: 8
TimelineZoom: 4.699997

[Metadata]
Title:Above your hand
TitleUnicode:Above your hand
Artist:Annabel
ArtistUnicode:Annabel
Creator:den0saur
Version:Insane
Source:さんかれあ
Tags:Sankarea Lantis japanese pop Undying love
BeatmapID:1961499
BeatmapSetID:939050

[Difficulty]
HPDrainRate:6
CircleSize:4
OverallDifficulty:7
ApproachRate:8.3
SliderMultiplier:1.4
SliderTickRate:1

[Events]
//Background and Video events
0,0,"bg.jpg",0,0
//Break Periods
//Storyboard Layer 0 (Background)
//Storyboard Layer 1 (Fail)
//Storyboard Layer 2 (Pass)
//Storyboard Layer 3 (Foreground)
//Storyboard Layer 4 (Overlay)
//Storyboard Sound Samples

[TimingPoints]
623,361.44578313253,4,2,0,30,1,0
23755,-200,4,2,0,30,0,0
43996,-200,4,2,0,50,0,0
54839,-200,4,2,1,50,0,0
55562,-200,4,2,0,50,0,0
78695,-200,4,2,0,30,0,0
103273,-200,4,2,2,30,0,0
104719,-200,4,2,0,50,0,0
124960,-133.333333333333,4,2,1,60,0,0
136526,-100,4,2,1,60,0,1
136616,-100,4,2,1,70,0,0
183153,-100,4,2,1,70,0,1
184508,-100,4,2,1,70,0,0
199056,-100,4,2,1,70,0,1
200050,-100,4,2,1,70,0,0
229056,-200,4,2,0,30,0,0
291265,370.37037037037,4,2,0,30,1,0
292376,408.163265306122,4,2,0,30,1,0
292784,384.615384615385,4,2,0,30,1,0
292784,-200,4,2,0,30,0,0
295860,-200,4,2,0,20,0,0
297399,-200,4,2,0,10,0,0

[Colours]
Combo1 : 255,94,55
Combo2 : 173,255,95
Combo3 : 17,254,176
Combo4 : 255,88,100

[HitObjects]
88,205,23755,6,0,P|163:199|247:188,1,140
227,191,25201,2,0,P|233:224|238:268,1,70
237,260,25924,1,0,0:0:0:0:
265,111,26285,1,2,0:0:0:0:
265,111,26647,2,0,P|258:76|254:41,1,70,2|0,0:0|0:0,0:0:0:0:
254,41,27369,1,0,0:0:0:0:
500,233,27731,5,0,0:0:0:0:
500,233,28092,2,0,L|431:242,1,70
430,242,28635,1,0,0:0:0:0:
416,322,29177,2,0,P|411:252|396:170,2,140
340,359,30984,1,2,0:0:0:0:
340,359,31707,6,0,L|266:368,1,70,0|2,0:0|0:0,0:0:0:0:
270,367,32429,1,0,0:0:0:0:
206,307,32791,1,0,0:0:0:0:
206,307,33153,1,0,0:0:0:0:
4,288,33514,5,0,0:0:0:0:
4,288,33876,2,0,L|72:278,1,70
73,277,34598,1,0,0:0:0:0:
120,167,34960,6,0,L|122:201,1,35,2|0,0:0|0:0,0:0:0:0:
122,201,35321,2,0,P|194:196|261:186,1,140,2|0,0:0|0:0,0:0:0:0:
261,185,36767,2,0,L|253:112,1,70
253,115,37490,1,0,0:0:0:0:
286,2,37851,2,0,L|320:0,1,35,2|0,0:0|0:0,0:0:0:0:
321,0,38213,2,0,L|328:72,1,70,2|0,0:0|0:0,0:0:0:0:
328,69,38936,1,0,0:0:0:0:
512,136,39297,5,0,0:0:0:0:
512,136,39659,2,0,L|436:141,1,70
442,140,40201,1,0,0:0:0:0:
278,242,40743,2,0,L|347:237,1,70
442,140,41466,2,0,P|433:70|429:-3,1,140
345,8,42550,1,2,0:0:0:0:
242,224,43996,6,0,P|179:247|97:243,1,140,0|0,3:2|0:0,0:0:0:0:
106,245,45080,1,0,0:0:0:0:
24,214,45442,2,0,P|24:250|21:283,1,70
21,283,46165,1,0,0:0:0:0:
98,330,46526,1,2,0:0:0:0:
300,320,46888,6,0,P|362:290|432:292,1,140,0|0,3:2|0:0,0:0:0:0:
432,293,47972,2,0,L|434:251,1,35
374,121,48333,2,0,P|375:159|373:193,1,70
373,191,49056,1,0,0:0:0:0:
373,191,49418,1,2,0:0:0:0:
66,90,49779,6,0,P|134:78|188:34,1,140,0|0,3:2|0:0,0:0:0:0:
188,34,50863,1,0,0:0:0:0:
349,13,51225,2,0,L|273:10,1,70
279,11,51948,1,0,0:0:0:0:
238,150,52310,1,0,3:0:0:0:
238,150,52671,1,2,3:2:0:0:
285,227,53033,1,0,0:0:0:0:
124,313,53394,6,0,P|166:283|218:276,1,105
218,276,54116,1,0,0:0:0:0:
265,358,54478,1,2,0:0:0:0:
265,358,54839,2,0,L|226:363,1,35,0|0,0:0|0:0,1:1:0:0:
231,362,55562,6,0,B|206:182|287:267|259:89,1,280,6|0,0:2|0:0,0:0:0:0:
259,89,57369,2,0,L|222:92,2,35
260,89,58092,1,0,0:0:0:0:
297,284,58454,6,0,L|299:318,2,35,2|0|0,0:0|0:0|0:0,0:0:0:0:
388,169,59177,2,0,L|386:134,2,35,2|0|0,0:0|0:0|0:0,0:0:0:0:
512,248,59900,2,0,P|477:253|442:253,1,70,2|0,0:3|0:0,0:0:0:0:
443,254,60622,5,0,0:0:0:0:
393,316,60803,1,0,0:0:0:0:
429,384,60984,1,0,0:0:0:0:
479,326,61165,1,0,0:0:0:0:
271,175,61345,6,0,L|191:181,1,70,2|0,0:0|0:0,0:0:0:0:
0,152,62068,2,0,L|69:146,1,70,2|0,0:0|0:0,0:0:0:0:
159,254,62791,2,0,P|156:184|149:114,1,140,2|0,0:3|0:0,0:0:0:0:
150,114,63876,1,0,0:0:0:0:
216,318,64237,6,0,L|250:313,1,35,2|0,0:0|0:0,0:0:0:0:
321,251,64598,1,0,0:0:0:0:
388,311,64779,1,0,0:0:0:0:
329,378,64961,1,2,0:3:0:0:
261,318,65141,1,0,0:0:0:0:
410,229,65321,2,0,L|444:233,1,35,2|0,0:0|0:0,0:0:0:0:
512,195,65683,6,0,P|520:121|415:37,1,210,0|0,3:3|3:3,0:0:0:0:
326,0,67129,6,0,P|322:37|315:84,1,70
318,69,67851,2,0,L|279:64,1,35,2|0,0:0|0:0,0:0:0:0:
172,88,68213,2,0,L|206:92,1,35
178,171,68574,2,0,P|102:180|55:227,1,140,2|2,0:0|0:0,0:0:0:0:
57,222,69659,1,0,0:0:0:0:
305,359,70020,6,0,L|308:317,1,35,2|0,0:0|0:0,0:0:0:0:
387,341,70382,1,0,0:0:0:0:
387,341,70562,1,0,0:0:0:0:
261,218,70743,6,0,L|264:260,1,35,2|0,0:0|0:0,0:0:0:0:
197,293,71105,1,0,0:0:0:0:
197,293,71285,1,0,0:0:0:0:
452,292,71466,6,0,L|455:257,1,35,2|0,0:3|0:0,0:0:0:0:
512,195,71827,1,0,0:0:0:0:
434,173,72008,1,0,0:0:0:0:
362,208,72188,1,0,0:0:0:0:
330,281,72369,1,0,0:0:0:0:
259,316,72550,1,0,0:0:0:0:
181,298,72731,1,0,0:0:0:0:
11,262,72912,6,0,L|88:254,1,70,2|0,0:0|0:0,0:0:0:0:
80,254,73635,2,0,L|84:292,1,35
23,372,73996,2,0,L|19:337,1,35
156,183,74357,6,0,P|225:186|289:160,1,140,2|0,0:3|0:0,0:0:0:0:
289,160,75442,1,0,0:0:0:0:
446,20,75803,6,0,P|441:63|442:95,1,70,2|0,0:0|0:0,0:0:0:0:
441,89,76526,2,0,L|518:97,1,70,2|0,0:3|0:0,0:0:0:0:
362,50,77249,1,2,0:0:0:0:
362,50,77610,1,2,0:0:0:0:
0,299,78695,6,0,P|69:300|139:307,1,140,2|0,0:3|0:0,0:0:0:0:
312,134,80141,2,0,P|277:133|242:129,1,70
163,172,80863,2,0,L|158:241,1,70
158,241,81406,2,0,L|136:239,2,17.5
80,294,82671,2,0,L|45:298,1,35,2|0,0:0|0:0,0:0:0:0:
150,347,83032,6,0,P|187:347|229:353,1,70,2|0,0:3|0:0,0:0:0:0:
313,301,83755,2,0,L|318:232,1,70
423,271,84478,1,2,0:3:0:0:
512,165,84839,1,0,0:0:0:0:
406,76,85201,1,0,0:0:0:0:
406,76,85743,2,0,L|403:96,2,17.5
303,29,87189,6,0,L|300:9,2,17.5,2|0|0,0:0|0:0|0:0,0:0:0:0:
222,137,87731,2,0,L|183:141,1,35
48,111,88092,2,0,L|102:107,1,52.5,0|2,0:0|0:0,0:0:0:0:
100,107,88454,2,0,P|102:123|102:140,1,35,2|0,0:0|0:0,0:0:0:0:
231,256,88815,6,0,L|311:263,1,70,2|0,0:3|0:0,0:0:0:0:
512,234,89538,2,0,L|459:229,1,52.5
459,229,89900,2,0,P|454:252|454:277,1,35,2|0,0:0|0:0,0:0:0:0:
391,328,90261,1,2,0:3:0:0:
245,383,90984,1,0,0:0:0:0:
148,263,91526,1,0,0:0:0:0:
148,263,91616,1,0,0:0:0:0:
148,263,91707,1,0,0:0:0:0:
148,263,92791,2,0,L|111:258,1,35,2|0,0:0|0:0,0:0:0:0:
27,209,93153,6,0,P|22:246|12:282,1,70,2|0,0:3|0:0,0:0:0:0:
114,149,93876,2,0,P|118:111|129:76,1,70
196,26,94418,1,0,0:0:0:0:
196,26,94508,1,0,0:0:0:0:
196,26,94598,2,0,P|261:34|348:36,1,140,0|0,0:3|0:0,0:0:0:0:
335,36,95683,1,0,0:0:0:0:
417,82,95863,5,0,0:0:0:0:
417,82,95954,1,0,0:0:0:0:
417,82,96044,1,2,0:3:0:0:
276,123,96406,1,0,0:0:0:0:
319,263,96767,1,0,0:0:0:0:
458,221,97129,1,2,0:0:0:0:
362,170,97490,5,0,0:0:0:0:
362,170,97851,1,0,0:0:0:0:
362,170,98213,1,0,0:0:0:0:
362,170,99297,6,0,P|356:135|356:93,2,70,0|0|2,0:0|0:0|0:0,0:0:0:0:
104,308,100743,2,0,P|138:302|173:302,1,70,0|2,0:0|0:0,0:0:0:0:
174,303,102189,6,2,L|166:262,1,35,0|0,0:0|0:0,0:0:0:0:
78,313,102550,2,2,L|92:267,1,35,0|0,0:0|0:0,0:0:0:0:
7,249,102912,2,2,L|37:220,1,35,0|0,0:0|0:0,0:0:0:0:
239,238,103273,6,0,B|376:257|311:195|447:216,1,210,2|0,0:2|3:0,0:0:0:0:
486,76,104719,6,0,P|490:111|491:146,1,70
452,300,105442,2,0,P|447:265|447:230,1,70
358,330,106165,2,0,L|281:341,1,70
222,287,106888,1,0,0:0:0:0:
43,243,107249,1,2,0:0:0:0:
43,243,107610,2,0,L|112:233,1,70
158,158,108333,1,0,0:0:0:0:
294,1,108695,5,0,0:0:0:0:
294,1,109056,2,0,L|225:10,1,70
224,10,109598,2,0,P|225:62|231:114,1,105
308,231,110502,1,0,0:0:0:0:
308,231,110863,2,0,P|307:196|304:161,2,70
427,196,111948,5,2,0:3:0:0:
279,312,112309,1,2,0:3:0:0:
163,164,112671,1,2,0:3:0:0:
163,164,113032,1,2,0:0:0:0:
311,48,113394,2,0,P|363:53|415:55,1,105
415,55,114116,1,0,0:0:0:0:
235,104,114478,1,0,0:0:0:0:
234,103,114840,2,0,P|200:99|162:97,1,70
87,151,115562,1,0,0:0:0:0:
87,151,115924,6,0,L|85:185,1,35,2|0,0:0|0:0,0:0:0:0:
35,270,116285,2,0,P|70:271|106:278,1,70
347,358,117008,2,0,P|311:356|276:350,1,70
192,306,117731,2,0,L|184:379,1,70
271,258,118454,1,0,0:0:0:0:
456,218,118815,1,2,0:0:0:0:
456,218,119177,2,0,L|463:146,1,70
390,87,119900,1,0,0:0:0:0:
150,119,120261,5,0,0:0:0:0:
150,119,120622,2,0,L|143:188,1,70,2|0,0:0|0:0,0:0:0:0:
142,188,121165,2,0,P|195:193|246:195,1,105
399,272,122068,2,0,L|395:306,1,35,2|0,0:3|0:0,0:0:0:0:
461,342,122430,2,0,P|391:333|318:329,1,140
321,329,123514,1,2,0:0:0:0:
43,265,124960,5,4,0:3:0:0:
44,265,125683,2,0,L|39:317,1,52.5000020027161
117,210,126044,2,0,L|122:135,1,52.5000020027161
119,359,126406,1,2,0:0:0:0:
119,359,126767,1,0,0:0:0:0:
188,306,126947,1,0,0:0:0:0:
265,342,127128,1,0,0:0:0:0:
265,342,127490,1,2,0:0:0:0:
471,128,127851,6,0,P|423:148|371:145,1,105.000004005432,4|0,0:3|0:0,0:0:0:0:
232,108,128394,1,0,0:0:0:0:
232,108,128574,2,0,L|291:102,1,52.5000020027161
400,234,128936,2,0,L|341:228,1,52.5000020027161
188,167,129297,2,0,P|190:111|183:43,2,105.000004005432,2|0|0,0:0|0:0|0:0,0:0:0:0:
304,312,130743,6,0,P|331:313|366:321,1,52.5000020027161,4|0,0:3|0:0,0:0:0:0:
232,257,131104,2,0,P|204:258|170:266,1,52.5000020027161
76,309,131466,1,0,0:0:0:0:
2,255,131647,1,0,0:0:0:0:
56,183,131827,2,0,L|110:191,1,52.5000020027161
208,46,132189,2,0,P|198:97|196:150,1,105.000004005432
344,157,132731,1,2,0:0:0:0:
344,157,132912,2,0,L|290:165,1,52.5000020027161,2|0,0:0|0:0,0:0:0:0:
418,205,133273,2,0,L|472:197,1,52.5000020027161
282,374,133635,5,4,0:3:0:0:
282,374,133996,2,0,L|222:366,1,52.5000020027161
111,384,134357,2,0,P|114:331|123:279,1,105.000004005432
211,209,134900,1,2,0:0:0:0:
211,209,135080,2,0,P|218:234|231:257,1,52.5000020027161,2|0,0:0|0:0,0:0:0:0:
29,242,135442,2,0,P|46:223|61:200,1,52.5000020027161
133,268,135803,1,0,3:0:0:0:
342,17,136526,6,0,P|329:90|331:165,1,140,4|0,1:0|0:0,0:0:0:0:
329,155,137249,2,0,L|404:165,1,70,8|0,0:1|0:0,0:0:0:0:
452,299,137610,1,0,1:0:0:0:
452,299,137972,2,0,L|382:289,1,70,0|0,1:0|1:0,0:0:0:0:
314,369,138333,1,0,3:0:0:0:
233,299,138514,1,0,3:0:0:0:
303,220,138695,1,8,0:1:0:0:
303,220,139056,2,2,L|307:266,1,35,4|0,3:2|0:0,0:0:0:0:
322,136,139237,5,0,0:0:0:0:
322,136,139327,1,0,0:0:0:0:
322,136,139418,2,0,L|313:53,1,70,4|0,1:2|0:0,0:0:0:0:
404,179,139779,1,0,0:0:0:0:
229,93,139960,1,0,0:0:0:0:
433,100,140141,1,8,0:1:0:0:
164,164,140321,6,0,P|198:169|231:180,1,70,2|0,3:2|0:0,0:0:0:0:
87,129,140683,2,0,P|52:134|19:145,1,70,2|0,3:2|0:0,0:0:0:0:
105,241,141044,1,0,1:0:0:0:
105,241,141225,1,0,1:0:0:0:
105,241,141586,5,8,0:1:0:0:
156,70,141767,1,0,1:0:0:0:
46,172,141948,2,2,L|92:164,1,35,4|0,3:2|0:0,0:0:0:0:
80,166,142309,6,0,L|-12:152,1,70,4|0,1:2|0:0,0:0:0:0:
191,336,142671,2,0,L|260:346,1,70,0|2,0:0|0:0,0:0:0:0:
351,163,143032,2,0,P|343:198|340:251,1,70,8|0,0:1|0:0,0:0:0:0:
250,184,143394,1,0,1:0:0:0:
250,184,143755,1,2,1:2:0:0:
362,255,143936,1,0,1:0:0:0:
458,165,144116,1,0,1:0:0:0:
458,165,144478,1,8,0:1:0:0:
458,165,144839,2,2,L|415:170,1,35,4|0,3:2|0:0,0:0:0:0:
423,169,145201,6,0,L|503:180,1,70,4|0,1:2|0:0,0:0:0:0:
413,57,145562,1,2,0:0:0:0:
244,111,145743,1,0,3:0:0:0:
331,9,145924,2,0,L|324:79,1,70,8|0,0:1|0:0,0:0:0:0:
186,174,146285,6,0,P|149:174|106:165,1,70,0|0,3:0|0:0,0:0:0:0:
33,292,146647,2,0,P|52:325|66:366,1,70,0|0,1:0|0:0,0:0:0:0:
206,370,147008,2,0,P|225:338|254:306,1,70,0|0,1:0|0:0,0:0:0:0:
156,269,147369,1,8,0:1:0:0:
156,269,147550,1,2,0:0:0:0:
156,269,147731,2,2,L|121:276,1,35,2|2,3:2|0:0,0:2:0:0:
25,210,147912,2,2,L|59:217,1,35,2|2,0:3|0:3,0:2:0:0:
231,181,148092,6,0,P|291:201|381:188,1,140,4|0,1:0|0:0,0:0:0:0:
366,193,148815,2,0,L|369:107,1,70,8|0,0:1|0:0,0:0:0:0:
512,335,149177,1,0,1:0:0:0:
512,335,149538,1,2,1:2:0:0:
437,234,149719,2,0,L|434:303,1,70,0|0,1:0|0:0,0:0:0:0:
192,300,150080,1,0,3:0:0:0:
280,351,150261,1,8,0:1:0:0:
341,271,150442,1,0,0:0:0:0:
485,101,150622,6,2,P|426:103|375:88,1,105,4|0,3:2|0:0,0:0:0:0:
429,124,150984,2,0,L|426:193,1,70,6|0,1:2|0:0,0:0:0:0:
328,178,151345,1,0,0:0:0:0:
190,325,151526,1,0,3:0:0:0:
358,263,151707,1,8,0:1:0:0:
161,233,151888,2,0,L|125:229,2,23.3333333333333,0|0|0,3:0|3:0|3:0,0:0:0:0:
161,233,152068,2,0,P|166:199|162:135,1,70,2|0,1:3|0:0,0:0:0:0:
250,384,152430,5,0,1:0:0:0:
180,324,152610,1,0,1:0:0:0:
90,300,152791,1,0,1:0:0:0:
0,317,152972,1,0,3:0:0:0:
432,279,153153,1,8,0:1:0:0:
432,279,153514,2,2,L|384:287,1,35,4|0,3:2|0:0,0:0:0:0:
397,284,153876,6,0,L|491:293,1,70,4|0,1:2|0:0,0:0:0:0:
213,213,154237,1,0,0:0:0:0:
325,328,154418,1,0,0:0:0:0:
305,98,154598,2,0,L|297:183,1,70,8|0,0:1|0:0,0:0:0:0:
378,205,154960,1,0,1:0:0:0:
378,205,155321,5,2,1:2:0:0:
492,148,155502,2,0,P|455:139|419:137,1,70,0|0,1:0|0:0,0:0:0:0:
252,306,155863,1,0,3:0:0:0:
136,235,156044,2,0,P|172:226|209:224,1,70,8|0,0:1|0:0,0:0:0:0:
357,355,156406,6,2,L|341:220,1,105,4|0,3:2|0:0,0:0:0:0:
345,251,156767,2,0,L|337:333,1,70,6|0,1:2|0:0,0:0:0:0:
238,324,157129,1,0,0:0:0:0:
448,277,157309,1,0,0:0:0:0:
173,254,157490,1,8,0:1:0:0:
0,293,157671,1,0,3:0:0:0:
0,293,157761,1,0,3:0:0:0:
0,293,157851,1,0,1:0:0:0:
0,293,158213,6,0,P|32:293|69:296,1,70,6|0,1:2|0:0,0:0:0:0:
214,233,158574,2,0,P|181:233|144:229,1,70,0|0,0:2|0:0,0:0:0:0:
321,58,158936,2,2,P|394:79|460:65,1,140,8|0,0:1|0:0,0:1:0:0:
455,67,159478,1,2,0:0:0:0:
256,163,159659,5,4,1:0:0:0:
256,163,160020,2,0,L|260:311,2,140,0|8|0,0:0|0:1|1:0,0:0:0:0:
256,163,161104,2,0,P|290:161|325:156,1,70,0|0,1:0|0:0,0:0:0:0:
181,231,161466,1,0,1:0:0:0:
53,111,161647,1,0,1:0:0:0:
229,64,161827,2,0,P|194:64|156:60,1,70,8|0,0:1|0:0,0:0:0:0:
156,142,162189,1,0,3:0:0:0:
156,142,162369,1,0,3:0:0:0:
402,35,162550,6,0,P|446:94|450:173,1,140,0|0,1:0|0:0,0:0:0:0:
452,158,163273,2,0,P|414:158|366:165,1,70,8|0,0:1|0:0,0:0:0:0:
303,217,163635,2,0,L|307:293,1,70,0|0,1:0|0:0,0:0:0:0:
102,361,163996,2,0,P|171:359|240:346,1,140,0|0,1:0|0:0,0:0:0:0:
465,280,164538,5,0,3:0:0:0:
321,230,164719,1,8,0:1:0:0:
379,292,164900,1,2,0:1:0:0:
465,280,165080,1,2,0:0:0:0:
406,209,165261,1,2,0:0:0:0:
439,383,165442,5,0,1:0:0:0:
439,383,165803,2,0,P|450:340|439:257,1,105
446,279,166165,2,0,L|366:270,1,70,8|0,0:1|0:0,0:0:0:0:
235,127,166526,1,0,3:0:0:0:
235,127,166707,1,0,3:0:0:0:
104,181,166888,2,0,L|173:188,1,70,0|0,1:0|0:0,0:0:0:0:
173,188,167430,5,0,1:0:0:0:
253,238,167610,2,0,P|250:307|239:377,1,140,8|0,0:1|0:0,0:0:0:0:
238,377,168333,1,0,1:0:0:0:
80,322,168514,1,0,3:0:0:0:
178,309,168695,1,0,0:0:0:0:
150,384,168876,1,0,0:0:0:0:
43,138,169056,5,8,0:1:0:0:
43,138,169418,1,0,1:0:0:0:
144,98,169598,1,0,1:0:0:0:
128,242,169779,2,0,P|119:203|118:164,1,70,0|0,1:0|0:0,0:0:0:0:
0,68,170141,2,0,L|91:51,1,70,0|0,3:0|0:0,0:0:0:0:
310,101,170502,2,0,L|241:113,1,70,8|0,0:1|0:0,0:0:0:0:
397,145,170863,2,2,L|404:190,1,35,4|0,3:2|0:0,0:0:0:0:
402,179,171225,2,0,L|411:86,1,70,0|0,1:0|0:0,0:0:0:0:
486,295,171586,6,0,P|430:264|336:271,1,140,0|8,3:0|0:1,0:0:0:0:
197,316,172129,1,2,0:0:0:0:
269,383,172309,2,0,L|342:374,1,70,0|0,1:0|0:0,0:0:0:0:
289,218,172671,2,0,L|219:226,1,70,0|0,1:0|0:0,0:0:0:0:
201,320,173032,1,0,3:0:0:0:
201,320,173213,1,0,3:0:0:0:
166,156,173394,1,8,0:1:0:0:
166,156,173755,6,2,P|171:208|159:258,1,105,4|0,0:2|3:0,0:0:0:0:
159,258,174116,2,0,L|16:240,1,140,0|0,1:0|0:0,0:0:0:0:
105,91,174659,1,2,0:0:0:0:
258,213,174839,1,8,0:1:0:0:
258,213,175201,6,0,L|331:222,1,70,0|0,1:0|3:0,0:0:0:0:
327,221,175472,1,0,3:0:0:0:
327,221,175562,2,0,P|339:147|344:68,1,140,0|0,1:0|0:0,0:0:0:0:
439,57,176104,1,0,0:0:0:0:
512,160,176285,2,0,L|432:147,1,70,8|0,0:1|0:0,0:0:0:0:
290,23,176647,1,0,0:0:0:0:
228,93,176828,1,0,0:0:0:0:
92,24,177008,2,0,L|161:35,1,70,0|0,1:0|0:0,0:0:0:0:
305,167,177369,5,0,3:0:0:0:
173,236,177550,1,0,3:0:0:0:
40,154,177731,2,0,L|109:142,1,70,8|0,0:1|0:0,0:0:0:0:
272,296,178092,2,0,L|118:320,1,140,0|0,1:0|1:0,0:0:0:0:
133,318,178815,5,0,3:0:0:0:
3,243,178996,1,0,3:0:0:0:
221,275,179177,2,0,L|290:286,1,70,8|0,0:1|0:0,0:0:0:0:
408,141,179538,2,0,L|269:118,1,140,2|0,0:0|1:0,0:0:0:0:
269,118,180261,6,0,P|265:157|255:198,1,70,0|0,3:0|0:0,0:0:0:0:
451,336,180622,2,0,P|454:301|461:266,1,70,8|0,0:1|0:0,0:0:0:0:
272,277,180984,1,2,1:2:0:0:
428,179,181165,1,0,0:0:0:0:
351,339,181345,1,4,1:2:0:0:
328,166,181526,5,0,3:2:0:0:
328,166,181707,1,0,3:0:0:0:
444,299,181888,5,0,0:2:0:0:
444,299,182068,1,12,0:1:0:0:
186,329,182249,1,0,0:0:0:0:
363,256,182430,1,0,3:0:0:0:
267,371,182610,1,0,1:0:0:0:
110,238,182791,5,4,1:0:0:0:
110,238,183153,2,0,L|258:253,1,140,0|8,0:0|0:1,0:0:0:0:
341,49,183695,1,0,0:0:0:0:
390,162,183876,2,0,L|265:174,1,105,0|0,1:0|0:0,0:0:0:0:
285,172,184237,2,0,P|283:137|279:103,1,70,0|0,1:0|0:0,0:0:0:0:
154,138,184598,1,0,3:0:0:0:
353,57,184779,1,0,3:0:0:0:
479,229,184960,6,0,P|481:264|485:298,1,70,8|0,0:1|0:0,0:0:0:0:
420,348,185321,1,0,3:0:0:0:
420,348,185502,1,0,3:0:0:0:
255,384,185683,2,0,P|253:349|248:314,1,70,0|0,1:0|0:0,0:0:0:0:
322,262,186044,1,2,0:0:0:0:
322,262,186406,6,0,P|395:272|471:274,1,140,8|0,0:1|1:0,0:0:0:0:
167,316,186948,1,0,3:0:0:0:
141,231,187129,2,0,P|67:220|-8:218,2,140,0|2|8,1:0|0:0|0:1,0:0:0:0:
141,231,188213,6,0,P|148:196|151:143,1,70,0|0,3:0|0:0,0:0:0:0:
150,161,188484,1,0,0:0:0:0:
150,161,188574,1,0,1:0:0:0:
245,210,188755,1,0,0:0:0:0:
438,80,188936,1,2,3:0:0:0:
287,131,189116,1,0,3:0:0:0:
381,164,189297,1,8,0:1:0:0:
381,164,189659,5,2,1:2:0:0:
342,0,189839,1,0,3:0:0:0:
264,132,190020,2,0,P|266:166|274:200,1,70,0|0,1:0|0:0,0:0:0:0:
239,304,190382,1,2,3:0:0:0:
369,180,190562,1,0,3:0:0:0:
180,240,190743,2,0,L|111:250,1,70,8|0,0:1|0:0,0:0:0:0:
346,269,191104,2,0,L|415:258,1,70
81,328,191466,6,0,P|75:262|60:190,1,140,2|0,1:2|0:0,0:0:0:0:
166,210,192008,1,0,0:0:0:0:
280,350,192189,2,0,P|224:354|176:365,1,105,8|0,0:1|0:0,0:0:0:0:
177,366,192550,2,0,L|166:295,1,70,0|2,1:0|0:0,0:0:0:0:
25,152,192912,6,0,L|95:159,1,70,2|0,1:3|0:0,0:0:0:0:
268,170,193273,1,0,3:0:0:0:
107,239,193454,1,0,3:0:0:0:
214,101,193635,2,2,P|308:150|422:131,1,210,8|0,0:1|0:0,0:1:0:0:
508,263,194357,6,0,P|450:234|353:248,2,140,4|2|8,1:2|0:0|0:1,0:0:0:0:
508,263,195442,1,0,1:0:0:0:
399,152,195622,1,2,0:0:0:0:
436,317,195803,1,0,1:0:0:0:
436,317,195984,2,0,L|431:229,1,70,0|0,1:0|0:0,0:0:0:0:
351,354,196345,1,0,1:0:0:0:
302,104,196526,2,0,L|297:192,1,70,8|0,0:1|0:0,0:0:0:0:
228,43,196888,2,0,P|187:44|146:37,1,70,2|0,0:0|0:0,0:0:0:0:
7,159,197249,6,0,P|68:127|138:128,1,140,2|0,1:2|0:0,0:0:0:0:
139,129,197972,2,0,L|134:217,1,70,8|0,0:1|0:0,0:0:0:0:
229,172,198333,1,0,1:0:0:0:
149,277,198514,1,2,3:0:0:0:
46,213,198695,1,0,1:0:0:0:
46,213,199056,5,0,3:0:0:0:
237,257,199237,1,0,1:0:0:0:
56,301,199418,2,0,L|14:295,1,35,8|0,3:1|0:0,0:0:0:0:
214,180,199598,2,0,L|248:176,1,35,2|2,0:3|0:3,0:0:0:0:
337,106,199779,2,2,P|339:158|349:209,1,105,6|0,0:0|0:0,0:0:0:0:
349,209,200141,2,0,L|434:200,2,70,0|0|0,1:0|0:0|0:0,0:0:0:0:
303,289,200683,1,0,1:0:0:0:
419,117,200863,1,8,0:1:0:0:
419,117,201225,5,0,1:0:0:0:
508,271,201406,1,0,3:0:0:0:
381,286,201586,1,0,1:0:0:0:
431,204,201767,1,0,1:0:0:0:
508,271,201948,1,0,3:0:0:0:
266,223,202129,1,0,3:0:0:0:
411,33,202309,2,0,P|445:31|497:10,1,70,8|0,0:1|0:0,0:0:0:0:
330,97,202671,2,2,P|276:94|209:57,1,105,6|0,0:0|0:0,0:0:0:0:
230,74,203032,6,0,P|227:110|221:143,1,70,2|0,1:2|0:0,0:0:0:0:
61,168,203394,2,0,P|56:203|54:238,1,70,2|0,0:3|0:0,0:0:0:0:
357,242,203755,2,0,P|354:279|348:311,1,70,8|0,0:1|0:0,0:0:0:0:
430,179,204116,1,2,1:2:0:0:
430,179,204297,1,2,3:0:0:0:
438,376,204478,6,0,P|349:337|224:344,1,210,6|0,1:0|0:0,0:0:0:0:
0,245,205201,2,0,P|89:206|214:213,1,210,14|0,0:1|0:0,0:0:0:0:
342,54,205924,5,4,1:0:0:0:
342,53,206285,2,0,P|334:89|334:123,1,70
234,82,206647,2,0,L|155:75,1,70,8|0,0:1|0:0,0:0:0:0:
92,133,207008,1,0,1:0:0:0:
92,133,207189,1,0,3:0:0:0:
75,0,207369,1,0,1:0:0:0:
132,214,207550,6,0,P|94:214|45:229,1,70,0|0,1:0|0:0,0:0:0:0:
207,172,207912,1,0,1:0:0:0:
207,172,208092,2,0,P|245:172|294:187,1,70,8|0,0:1|0:0,0:0:0:0:
501,245,208454,2,2,P|448:243|399:261,1,105,4|0,3:2|0:0,0:0:0:0:
442,222,208815,2,0,B|431:134|464:168|450:68,1,140,0|0,1:0|0:0,0:0:0:0:
452,83,209538,6,0,P|416:80|367:63,1,70,8|0,0:1|0:0,0:0:0:0:
216,292,209900,2,0,P|252:295|301:312,1,70,0|0,1:0|0:0,0:0:0:0:
332,378,210261,1,0,1:0:0:0:
396,266,210442,1,2,1:3:0:0:
279,211,210622,1,0,3:0:0:0:
279,211,210803,1,0,3:0:0:0:
143,343,210984,6,0,L|105:348,1,35,8|0,3:1|0:0,0:0:0:0:
0,306,211165,2,0,L|38:311,1,35,2|2,0:3|0:3,0:0:0:0:
90,142,211345,2,2,L|98:247,1,105,6|0,0:0|0:0,0:0:0:0:
97,246,211707,2,0,P|130:244|191:233,1,70,0|0,1:0|0:0,0:0:0:0:
30,77,212068,2,0,P|14:106|-6:164,1,70
224,120,212430,2,0,P|206:92|166:44,1,70,8|0,0:1|0:0,0:0:0:0:
116,151,212791,1,0,1:0:0:0:
116,151,213153,5,0,1:0:0:0:
305,177,213333,1,2,3:3:0:0:
194,274,213514,2,0,L|183:181,1,70,0|0,3:0|0:0,0:0:0:0:
100,253,213876,2,0,P|65:254|31:248,1,70,8|0,0:1|0:0,0:0:0:0:
275,300,214237,2,2,P|326:308|378:303,1,105,6|0,3:2|0:0,0:0:0:0:
378,303,214598,2,0,L|387:219,1,70,0|0,1:0|0:0,0:0:0:0:
313,172,214960,5,0,0:0:0:0:
453,351,215141,1,0,3:0:0:0:
453,351,215231,1,0,3:0:0:0:
453,351,215321,1,8,0:1:0:0:
253,232,215502,1,0,3:0:0:0:
388,129,215683,6,0,P|389:161|383:213,1,70,2|0,1:0|0:0,0:0:0:0:
438,273,216044,2,0,P|493:233|502:166,1,140,2|0,1:0|3:1,0:0:0:0:
512,80,216586,1,2,0:1:0:0:
269,54,216767,2,0,P|253:120|291:176,1,140,10|2,0:1|0:0,0:0:0:0:
291,176,217490,5,6,1:0:0:0:
199,196,217671,2,0,L|117:210,1,70,0|0,1:0|0:0,0:0:0:0:
44,94,218032,1,0,1:0:0:0:
136,74,218213,2,0,L|218:60,1,70,8|0,0:1|0:0,0:0:0:0:
240,337,218574,5,0,1:0:0:0:
151,332,218755,1,2,1:2:0:0:
16,212,218936,1,0,3:0:0:0:
105,217,219116,1,0,3:0:0:0:
51,362,219297,2,0,P|48:325|55:281,1,70,0|0,1:0|0:0,0:0:0:0:
283,154,219659,6,0,P|250:153|214:162,1,70,8|0,0:1|0:0,0:0:0:0:
376,14,220020,2,2,L|366:118,1,105,6|0,3:2|0:0,0:0:0:0:
366,118,220382,2,0,P|427:130|493:185,1,140,0|0,1:0|0:0,0:0:0:0:
322,218,220924,1,2,0:0:0:0:
417,298,221104,2,0,P|417:263|408:229,1,70,8|0,0:1|0:0,0:0:0:0:
235,176,221466,2,0,P|225:209|226:244,1,70,2|0,1:0|0:0,0:0:0:0:
137,305,221827,6,0,P|183:337|283:316,1,140,2|0,1:0|3:1,0:0:0:0:
322,253,222369,1,2,3:1:0:0:
285,101,222550,2,0,P|217:90|158:125,1,140,10|6,0:1|0:0,0:0:0:0:
70,187,223092,1,2,3:0:0:0:
251,199,223273,6,0,B|372:187|336:258|477:229,1,210,6|0,1:0|0:0,0:0:0:0:
479,145,223996,1,8,0:1:0:0:
479,145,224357,2,0,L|473:73,1,70,0|0,1:0|0:0,0:0:0:0:
256,73,224719,5,0,1:0:0:0:
399,180,224900,1,2,0:0:0:0:
338,13,225080,1,0,3:0:0:0:
292,180,225261,1,0,3:0:0:0:
416,80,225442,1,8,0:1:0:0:
416,80,225622,1,2,0:0:0:0:
201,171,225803,6,2,P|145:170|96:182,1,105,6|0,3:2|0:0,0:0:0:0:
149,148,226165,2,0,L|138:8,1,140,0|0,1:0|0:0,0:0:0:0:
240,76,226707,1,0,3:0:0:0:
140,263,226888,2,0,L|56:272,1,70,8|0,0:1|0:0,0:0:0:0:
0,111,227249,2,0,L|84:102,1,70,0|0,1:0|0:0,0:0:0:0:
271,196,227610,5,2,1:2:0:0:
298,334,227791,1,0,1:0:0:0:
108,298,227972,1,2,3:0:0:0:
446,235,228153,1,2,3:2:0:0:
187,338,228333,6,2,P|253:261|360:253,1,210,10|0,3:1|0:0,0:1:0:0:
96,183,229056,5,2,0:0:0:0:
96,183,230502,2,0,P|95:218|91:253,1,70
31,319,231225,1,0,0:0:0:0:
31,319,231767,2,0,L|9:321,2,17.5
158,337,233032,6,0,L|193:333,1,35,2|0,0:0|0:0,0:0:0:0:
275,367,233394,2,0,P|275:330|269:288,1,70,2|0,0:3|0:0,0:0:0:0:
347,200,234117,2,0,L|416:195,1,70
423,290,234840,1,2,0:3:0:0:
512,184,235201,1,0,0:0:0:0:
406,95,235563,1,0,0:0:0:0:
317,201,235923,1,0,0:0:0:0:
317,201,236285,1,0,0:0:0:0:
298,365,237551,6,0,L|295:385,2,17.5
217,257,238093,2,0,L|178:253,1,35
52,292,238454,2,0,L|106:288,1,52.5,0|2,0:0|0:0,0:0:0:0:
104,288,238816,2,0,P|105:267|103:249,1,35,2|0,0:0|0:0,0:0:0:0:
169,41,239177,2,0,P|168:76|172:111,1,70,2|0,0:3|0:0,0:0:0:0:
172,111,239900,2,0,L|230:108,2,52.5,0|2|0,0:0|0:0|0:0,0:0:0:0:
0,185,240622,6,0,P|83:230|204:208,1,210,0|0,3:0|0:0,0:0:0:0:
289,162,242068,2,0,P|346:183|430:170,1,140
423,173,243153,2,0,L|428:210,1,35,2|0,0:0|0:0,0:0:0:0:
484,108,243514,6,0,P|475:74|471:40,1,70,0|0,3:3|0:0,0:0:0:0:
339,217,244237,2,0,P|349:251|353:286,1,70
435,333,244960,2,0,P|366:325|304:356,1,140,2|0,0:2|0:0,0:0:0:0:
304,356,246045,1,0,0:0:0:0:
216,384,246225,5,0,0:0:0:0:
216,384,246316,1,0,0:0:0:0:
216,384,246406,1,2,3:3:0:0:
75,343,246767,1,0,0:0:0:0:
118,203,247129,1,0,0:0:0:0:
257,245,247490,1,2,0:0:0:0:
353,211,247852,1,0,0:0:0:0:
320,114,248214,1,0,0:0:0:0:
223,148,248575,1,0,0:0:0:0:
223,148,248935,1,0,0:0:0:0:
394,194,249297,6,0,P|426:194|466:201,2,70,0|0|0,3:0|0:0|0:0,0:0:0:0:
246,104,250382,2,0,P|213:104|174:111,2,70,2|0|0,0:3|0:0|0:0,0:0:0:0:
322,45,251465,1,0,0:0:0:0:
322,45,251827,1,0,0:0:0:0:
325,198,252189,6,0,L|320:276,1,70,0|0,3:0|0:0,0:0:0:0:
406,239,252912,1,0,0:0:0:0:
221,273,253273,2,0,L|226:351,1,70
140,314,253996,1,0,0:0:0:0:
414,314,254357,2,0,L|409:392,1,70
283,211,255080,6,0,P|289:146|291:71,1,140,0|0,3:0|0:0,0:0:0:0:
215,27,256165,2,0,L|139:18,2,70
329,2,257249,1,2,0:0:0:0:
329,2,257610,2,0,L|368:6,1,35,0|2,0:0|0:0,0:0:0:0:
509,95,257972,6,0,P|475:90|439:87,1,70,4|0,3:2|0:0,0:0:0:0:
440,88,258695,1,0,0:0:0:0:
272,173,259056,2,0,P|235:171|202:165,2,70
272,173,260141,2,0,L|269:214,1,35
336,260,260502,1,0,0:0:0:0:
135,294,260863,6,0,P|100:296|66:304,2,70,0|0|0,3:0|0:0|0:0,0:0:0:0:
214,333,261948,1,0,0:0:0:0:
3,233,262309,1,4,0:0:0:0:
3,233,263032,1,4,0:0:0:0:
216,183,263755,6,0,P|290:203|353:191,1,140,4|0,3:1|0:0,0:0:0:0:
440,197,264839,2,0,P|432:165|428:127,2,70,2|0|0,0:3|0:0|0:0,0:0:0:0:
395,280,265924,2,0,P|357:284|326:291,1,70,2|0,0:0|0:0,0:0:0:0:
83,78,266647,2,0,P|90:46|95:8,2,70,2|0|0,0:3|0:0|0:0,0:0:0:0:
128,161,267732,2,0,P|166:165|196:172,2,70,2|0|0,0:3|0:0|0:0,0:0:0:0:
39,155,268815,1,2,0:3:0:0:
39,155,269177,2,0,L|32:195,1,35,0|0,3:0|0:0,0:0:0:0:
141,304,269538,6,0,B|263:317|221:246|351:262,1,210,0|2,3:0|0:0,0:0:0:0:
435,233,270984,2,0,P|437:164|444:93,1,140
444,93,272249,1,2,0:0:0:0:
383,36,272430,2,0,L|310:26,1,70
194,95,273153,2,0,L|263:104,1,70,2|0,0:0|0:0,0:0:0:0:
462,235,273876,2,0,L|389:225,1,70
273,294,274599,2,0,L|342:303,1,70,2|0,0:0|0:0,0:0:0:0:
21,242,275321,6,0,P|82:215|161:222,1,140,4|0,3:2|0:0,0:0:0:0:
242,267,276406,2,0,L|250:197,2,70,2|0|0,0:3|0:0|0:0,0:0:0:0:
156,305,277490,1,2,0:3:0:0:
156,305,277851,1,2,0:0:0:0:
146,117,278213,2,0,L|155:48,2,70,2|0|0,3:0|0:0|0:0,0:0:0:0:
241,10,279297,1,2,0:3:0:0:
241,10,279658,1,2,0:0:0:0:
338,110,280020,1,2,0:0:0:0:
471,45,280382,1,2,0:3:0:0:
471,45,280743,1,0,0:0:0:0:
388,4,281104,6,0,L|380:143,1,140,0|0,3:0|0:0,0:0:0:0:
380,143,282189,2,0,L|430:149,1,35
269,274,282550,2,0,P|191:281|125:256,1,140,2|0,0:0|0:0,0:0:0:0:
133,261,283996,6,0,L|141:186,1,70
318,169,284719,2,0,L|326:94,1,70,2|0,0:0|0:0,0:0:0:0:
232,14,285442,2,0,L|225:84,1,70
435,185,286165,2,0,L|427:254,1,70,2|0,0:0|0:0,0:0:0:0:
373,115,286888,6,0,P|341:114|293:104,1,70,2|0,3:0|0:0,0:0:0:0:
233,162,287610,1,0,0:0:0:0:
233,162,287972,1,2,0:3:0:0:
385,270,288333,2,0,P|419:271|454:277,1,70,2|0,0:0|0:0,0:0:0:0:
454,277,289418,2,0,L|460:242,1,35,2|0,0:0|0:0,0:0:0:0:
398,157,289779,5,2,0:3:0:0:
314,137,290140,1,0,0:0:0:0:
255,202,290502,1,0,0:0:0:0:
255,202,290863,2,0,L|260:238,1,35,0|2,0:0|0:0,0:0:0:0:
182,276,291265,1,2,0:3:0:0:
104,298,291635,1,0,0:0:0:0:
32,263,292006,1,0,0:0:0:0:
0,190,292376,1,0,0:0:0:0:
0,190,292784,2,0,L|5:152,1,35,2|0,0:0|0:0,0:0:0:0:
256,192,293168,12,0,298937,0:0:0:0:
