osu file format v14

[General]
AudioFilename: Give Love On Christmas Day (Cover).mp3
AudioLeadIn: 0
PreviewTime: 110459
Countdown: 0
SampleSet: Soft
StackLeniency: 0.7
Mode: 0
LetterboxInBreaks: 0
WidescreenStoryboard: 0

[Editor]
Bookmarks: 82280,137148,142291,146137,171423,185137,247280,272566
DistanceSpacing: 1
BeatDivisor: 1
GridSize: 8
TimelineZoom: 1.9

[Metadata]
Title:Give Love On Christmas Day (Cover)
TitleUnicode:Give Love On Christmas Day (Cover)
Artist:Anna Yvette & Popeska
ArtistUnicode:Anna Yvette & Popeska
Creator:Battle
Version:Easy
Source:
Tags:jackson 5 dubstep holiday xmas winter
BeatmapID:839056
BeatmapSetID:383885

[Difficulty]
HPDrainRate:2
CircleSize:3
OverallDifficulty:2
ApproachRate:3
SliderMultiplier:0.8
SliderTickRate:1

[Events]
//Background and Video events
0,0,"better bg.jpg",0,0
//Break Periods
2,75623,80840
2,137337,142554
2,171623,183697
2,238480,247126
//Storyboard Layer 0 (Background)
//Storyboard Layer 1 (Fail)
//Storyboard Layer 2 (Pass)
//Storyboard Layer 3 (Foreground)
//Storyboard Sound Samples

[TimingPoints]
13709,428.571428571429,4,2,0,100,1,0
51423,-100,4,2,1,100,0,1
75423,-100,4,2,0,100,0,0
113137,-100,4,2,1,100,0,1
137137,-100,4,2,1,100,0,0
147423,-100,4,2,1,100,0,1
171423,-100,4,2,1,100,0,0
200566,-100,4,2,1,100,0,1
214280,-100,4,2,1,100,0,0
215994,-100,4,2,1,100,0,1
238280,-100,4,2,0,100,0,0
247280,-100,4,2,0,60,0,0
269137,-100,4,2,0,50,0,0
275994,-100,4,2,0,5,0,0

[Colours]
Combo1 : 241,27,27
Combo2 : 108,190,217
Combo3 : 245,22,106
Combo4 : 227,186,89
Combo5 : 41,157,13

[HitObjects]
16,246,13708,6,0,P|56:227|80:161,1,80
59,120,14566,1,0,0:0:0:0:
122,71,14994,1,0,0:0:0:0:
199,86,15423,2,0,B|226:96|226:96|277:93,1,80,2|0,0:0|0:0,0:0:0:0:
352,66,16280,2,0,P|431:79|440:88,1,80,0|0,0:0|0:0,0:0:0:0:
459,149,17137,6,0,L|461:303,1,80,2|0,0:0|0:0,0:0:0:0:
382,249,17994,2,0,L|380:95,1,80,0|0,0:0|0:0,0:0:0:0:
317,119,18851,1,2,0:0:0:0:
237,111,19280,1,0,0:0:0:0:
175,161,19709,2,0,P|136:169|82:151,1,80,0|0,0:0|0:0,0:0:0:0:
61,89,20566,6,0,L|35:268,1,160,6|2,0:0|0:0,0:0:0:0:
61,323,21851,1,0,0:0:0:0:
140,333,22280,1,2,0:0:0:0:
201,281,22709,2,0,P|243:258|288:258,1,80,2|2,0:0|0:0,0:0:0:0:
352,274,23566,1,2,0:0:0:0:
422,311,23994,6,0,P|469:221|430:148,1,160,2|2,0:0|0:0,0:0:0:0:
399,110,25280,1,0,0:0:0:0:
327,74,25709,2,0,L|236:78,1,80,2|2,0:0|0:0,0:0:0:0:
236,156,26566,2,0,L|145:160,1,80,2|0,0:0|0:0,0:0:0:0:
94,107,27423,6,0,P|139:200|114:262,1,160,4|2,0:0|0:0,0:0:0:0:
80,316,28709,1,0,0:0:0:0:
145,361,29137,2,0,P|234:367|241:362,1,80,2|2,0:0|0:0,0:0:0:0:
269,310,29994,2,0,P|358:304|365:309,1,80,2|0,0:0|0:0,0:0:0:0:
422,314,30851,6,0,L|448:172,1,80,2|0,0:0|0:0,0:0:0:0:
358,217,31709,2,0,L|384:75,1,80,2|2,0:0|0:0,0:0:0:0:
448,113,32566,2,0,P|338:119|285:77,1,160,2|2,0:0|0:0,0:0:0:0:
235,46,33851,1,0,0:0:0:0:
156,33,34280,6,0,B|102:37|102:37|46:68|39:141,1,160,4|2,0:0|0:0,0:0:0:0:
36,200,35566,1,0,0:0:0:0:
95,252,35994,2,0,P|141:263|201:233,2,80,2|2|2,0:0|0:0|0:0,0:0:0:0:
137,184,37280,1,2,0:0:0:0:
216,177,37709,6,0,B|274:212|259:293|259:293|270:306|308:299,1,160,4|2,0:0|0:0,0:0:0:0:
357,332,38994,1,0,0:0:0:0:
419,281,39423,2,0,L|424:186,1,80,2|2,0:0|0:0,0:0:0:0:
343,202,40280,2,0,L|338:107,1,80,2|2,0:0|0:0,0:0:0:0:
407,81,41137,6,0,P|323:99|249:53,1,160,4|2,0:0|0:0,0:0:0:0:
190,27,42423,1,2,0:0:0:0:
122,70,42851,2,0,B|81:62|81:62|20:73,1,80,2|0,0:0|0:0,0:0:0:0:
42,149,43709,2,0,B|82:156|82:156|143:145,1,80,2|2,0:0|0:0,0:0:0:0:
197,125,44566,6,0,L|400:146,1,160,4|2,0:0|0:0,0:0:0:0:
422,185,45851,1,0,0:0:0:0:
350,221,46280,2,0,L|241:210,1,80,2|2,0:0|0:0,0:0:0:0:
193,236,47137,2,0,P|184:293|194:338,1,80,2|0,0:0|0:0,0:0:0:0:
106,313,47994,6,0,P|101:233|71:153,1,160,4|2,0:0|0:0,0:0:0:0:
26,93,49280,1,2,0:0:0:0:
73,28,49709,2,0,P|117:7|167:13,1,80,2|2,0:0|0:0,0:0:0:0:
193,72,50566,2,0,P|237:93|287:87,1,80,2|2,0:0|0:0,0:0:0:0:
341,61,51423,5,4,0:0:0:0:
418,80,51851,1,0,0:0:0:0:
446,154,52280,2,0,L|452:257,1,80,8|2,0:0|0:0,0:0:0:0:
371,244,53137,2,0,L|359:63,1,160,4|8,0:0|0:0,0:0:0:0:
301,30,54423,1,2,0:0:0:0:
221,21,54851,6,0,P|178:16|119:37,1,80,4|0,0:0|0:0,0:0:0:0:
81,76,55709,1,8,0:0:0:0:
115,148,56137,1,2,0:0:0:0:
53,198,56566,2,0,L|45:292,1,80,4|0,0:0|0:0,0:0:0:0:
87,346,57423,2,0,P|158:358|170:348,1,80,2|8,0:0|0:0,0:0:0:0:
199,287,58280,6,0,B|181:231|218:201|218:201|213:156|249:130,1,160,4|8,0:0|0:0,0:0:0:0:
283,75,59566,1,2,0:0:0:0:
361,90,59994,2,0,P|432:101|472:77,1,80,4|2,0:0|0:0,0:0:0:0:
475,169,60851,2,0,L|470:291,1,80,2|8,0:0|0:0,0:0:0:0:
417,307,61709,6,0,P|380:318|309:293,1,80,4|2,0:0|0:0,0:0:0:0:
275,265,62566,1,8,0:0:0:0:
293,187,62994,1,2,0:0:0:0:
230,136,63423,2,0,B|202:138|202:138|184:143|184:143|131:142,1,80,4|8,0:0|0:0,0:0:0:0:
151,62,64280,2,0,B|179:60|179:60|197:55|197:55|250:56,1,80,8|4,0:0|0:3,0:0:0:0:
304,86,65137,6,0,P|309:48|289:3,2,80,4|2|8,0:0|0:0|0:0,0:0:0:0:
265,156,66423,1,2,0:0:0:0:
186,171,66851,2,0,L|91:169,1,80,4|2,0:0|0:0,0:0:0:0:
93,248,67709,2,0,L|188:250,1,80,8|2,0:0|0:0,0:0:0:0:
241,291,68566,5,4,0:0:0:0:
319,303,68994,1,2,0:0:0:0:
368,240,69423,2,0,P|382:187|370:151,1,80,8|2,0:0|0:0,0:0:0:0:
300,137,70280,2,0,P|294:97|391:23,1,160,4|8,0:0|0:0,0:0:0:0:
450,44,71566,1,4,0:3:0:0:
467,121,71994,6,0,B|479:164|479:164|472:232,1,80,4|2,0:0|0:0,0:0:0:0:
432,266,72851,2,0,L|328:271,1,80,8|2,0:0|0:0,0:0:0:0:
280,233,73709,1,4,0:0:0:0:
218,284,74137,1,2,0:0:0:0:
151,239,74566,2,0,P|101:183|105:148,1,80,8|4,0:0|0:3,0:0:0:0:
131,108,75423,5,0,0:0:0:0:
43,330,82280,5,2,0:0:0:0:
113,291,82709,1,0,0:0:0:0:
183,329,83137,2,0,B|230:345|284:333,1,80,8|0,0:0|0:0,0:0:0:0:
329,292,83994,2,0,P|367:222|397:214,1,80,2|0,0:0|0:0,0:0:0:0:
436,192,84851,1,8,0:0:0:0:
387,128,85280,1,2,0:0:0:0:
308,141,85709,6,0,L|168:151,1,80,2|0,0:0|0:0,0:0:0:0:
149,160,86566,2,0,P|145:230|160:262,1,80,8|2,0:0|0:0,0:0:0:0:
196,302,87423,1,2,0:0:0:0:
275,302,87851,1,2,0:0:0:0:
323,238,88280,2,0,P|329:198|321:159,1,80,8|2,0:0|0:0,0:0:0:0:
262,105,89137,6,0,P|324:150|394:119,1,160,2|8,0:0|0:0,0:0:0:0:
441,55,90423,1,2,0:0:0:0:
483,122,90851,2,0,L|496:223,1,80,2|2,0:0|0:0,0:0:0:0:
455,272,91709,1,8,0:0:0:0:
388,316,92137,1,2,0:0:0:0:
308,329,92566,6,0,B|269:331|269:331|228:324,1,80,4|0,0:0|0:0,0:0:0:0:
209,246,93423,2,0,B|168:239|168:239|129:241,1,80,8|2,0:0|0:0,0:0:0:0:
49,249,94280,1,2,0:0:0:0:
18,174,94709,2,0,P|17:123|55:75,1,80,2|8,0:0|0:0,0:0:0:0:
97,55,95566,1,4,0:0:0:0:
176,39,95994,6,0,B|281:36|281:36|338:52,1,160,2|8,0:0|0:0,0:0:0:0:
369,121,97280,1,2,0:0:0:0:
405,192,97709,2,0,B|418:236|418:236|418:283,2,80,2|2|8,0:0|0:0|0:0,0:0:0:0:
369,121,98994,1,2,0:0:0:0:
292,98,99423,6,0,P|192:120|132:110,1,160,2|8,0:0|0:0,0:0:0:0:
57,96,100709,1,2,0:0:0:0:
1,153,101137,2,0,P|12:196|9:266,1,80,2|2,0:0|0:0,0:0:0:0:
45,305,101994,1,8,0:0:0:0:
119,334,102423,1,2,0:0:0:0:
183,287,102851,6,0,B|256:253|282:341|373:253,1,160,4|8,0:0|0:0,0:0:0:0:
340,200,104137,1,2,0:0:0:0:
311,125,104566,2,0,B|306:81|306:81|315:39,1,80,2|2,0:0|0:0,0:0:0:0:
393,47,105423,2,0,B|398:91|398:91|390:125,1,80,8|2,0:0|0:0,0:0:0:0:
358,199,106280,6,0,L|179:207,1,160,4|8,0:0|0:0,0:0:0:0:
119,190,107566,1,2,0:0:0:0:
79,260,107994,2,0,P|54:321|64:363,1,80,8|2,0:0|0:0,0:0:0:0:
131,357,108851,1,2,0:0:0:0:
201,319,109280,1,2,0:0:0:0:
275,347,109709,6,0,P|369:362|396:347,1,80,4|2,0:0|0:0,0:0:0:0:
416,321,110566,2,0,L|448:209,1,80,2|2,0:0|0:0,0:0:0:0:
401,172,111423,1,2,0:0:0:0:
323,191,111851,2,0,P|256:168|242:154,1,80,2|2,0:0|0:0,0:0:0:0:
221,87,112709,1,2,0:0:0:0:
141,76,113137,6,0,L|42:82,1,80,4|2,0:0|0:0,0:0:0:0:
5,138,113994,1,8,0:0:0:0:
26,215,114423,1,2,0:0:0:0:
85,269,114851,2,0,P|114:308|149:325,1,80,4|2,0:0|0:0,0:0:0:0:
211,283,115709,2,0,L|216:197,1,80,8|4,0:0|0:3,0:0:0:0:
293,222,116566,6,0,L|288:308,1,80,4|2,0:0|0:0,0:0:0:0:
355,344,117423,1,8,0:0:0:0:
421,299,117851,1,2,0:0:0:0:
437,220,118280,2,0,P|449:167|441:128,1,80,4|2,0:0|0:0,0:0:0:0:
387,86,119137,1,8,0:0:0:0:
310,108,119566,1,4,0:3:0:0:
246,60,119994,6,0,B|205:60|180:82|180:82|138:47|67:52,1,160,4|8,0:0|0:0,0:0:0:0:
39,106,121280,1,2,0:0:0:0:
27,185,121709,2,0,P|14:238|27:273,1,80,2|4,0:0|0:3,0:0:0:0:
94,229,122566,2,0,L|138:306,1,80,8|2,0:0|0:0,0:0:0:0:
207,267,123423,5,4,0:0:0:0:
279,301,123851,1,2,0:0:0:0:
358,290,124280,2,0,P|449:287|460:277,1,80,8|2,0:0|0:0,0:0:0:0:
444,216,125137,2,0,L|431:70,1,80,4|2,0:0|0:0,0:0:0:0:
387,73,125994,1,8,0:0:0:0:
310,96,126423,1,8,0:0:0:0:
232,75,126851,6,0,P|246:7|256:-5,2,80,4|2|8,0:0|0:0|0:0,0:0:0:0:
252,152,128137,1,2,0:0:0:0:
253,232,128566,2,0,P|188:274|166:266,1,80,4|2,0:0|0:0,0:0:0:0:
125,230,129423,2,0,L|134:144,1,80,8|2,0:0|0:0,0:0:0:0:
54,166,130280,6,0,L|45:252,1,80,4|2,0:0|0:0,0:0:0:0:
79,318,131137,1,8,0:0:0:0:
156,336,131566,1,2,0:0:0:0:
220,288,131994,2,0,P|310:276|387:322,1,160,4|8,0:0|0:0,0:0:0:0:
432,354,133280,1,2,0:0:0:0:
488,296,133709,6,0,P|495:229|487:187,1,80,4|2,0:0|0:0,0:0:0:0:
415,198,134566,2,0,P|408:131|416:89,1,80,8|2,0:0|0:0,0:0:0:0:
411,38,135423,1,4,0:0:0:0:
332,22,135851,1,2,0:0:0:0:
293,92,136280,2,0,L|170:98,1,80,8|2,0:0|0:0,0:0:0:0:
157,153,137137,5,0,0:0:0:0:
256,192,143994,12,4,145709,0:1:0:0:
69,83,147423,6,0,L|176:78,1,80,4|2,0:0|0:0,0:0:0:0:
216,122,148280,1,8,0:0:0:0:
276,69,148709,1,2,0:0:0:0:
341,115,149137,2,0,P|414:208|392:289,1,160,4|8,0:0|0:0,0:0:0:0:
347,289,150423,1,2,0:0:0:0:
278,330,150851,6,0,L|167:333,1,80,4|2,0:0|0:0,0:0:0:0:
142,274,151709,2,0,L|31:277,1,80,8|2,0:0|0:0,0:0:0:0:
19,208,152566,2,0,P|12:175|24:110,1,80,4|2,0:0|0:0,0:0:0:0:
95,114,153423,2,0,P|102:81|90:16,1,80,8|2,0:0|0:0,0:0:0:0:
177,30,154280,6,0,B|211:47|246:34|246:34|264:41|264:41|287:19|385:58,1,160,4|8,0:0|0:0,0:0:0:0:
395,87,155566,1,2,0:0:0:0:
433,157,155994,2,0,P|439:259|423:289,1,80,8|2,0:0|0:0,0:0:0:0:
366,248,156851,2,0,P|360:146|376:116,1,80,8|0,0:0|0:0,0:0:0:0:
296,114,157709,6,0,P|258:99|146:111,1,80,4|2,0:0|0:0,0:0:0:0:
140,108,158566,1,8,0:0:0:0:
65,136,158994,1,2,0:0:0:0:
55,215,159423,2,0,P|42:272|76:324,1,80,4|2,0:0|0:0,0:0:0:0:
127,299,160280,2,0,L|222:304,1,80,8|8,0:0|0:0,0:0:0:0:
283,279,161137,6,0,P|284:321|268:354,2,80,4|2|8,0:0|0:0|0:0,0:0:0:0:
257,203,162423,1,2,0:0:0:0:
199,147,162851,2,0,L|109:145,1,80,4|2,0:0|0:0,0:0:0:0:
105,66,163709,2,0,L|195:68,1,80,8|2,0:0|0:0,0:0:0:0:
263,51,164566,5,4,0:0:0:0:
330,93,164994,2,0,P|356:186|347:215,1,80,2|8,0:0|0:0,0:0:0:0:
319,236,165851,1,2,0:0:0:0:
258,288,166280,2,0,P|186:289|124:214,1,160,4|8,0:0|0:0,0:0:0:0:
90,158,167566,1,8,0:0:0:0:
130,89,167994,6,0,L|241:59,1,80,4|2,0:0|0:0,0:0:0:0:
263,124,168851,2,0,L|374:94,1,80,8|2,0:0|0:0,0:0:0:0:
420,99,169709,2,0,P|463:180|460:222,1,80,4|2,0:0|0:0,0:0:0:0:
426,238,170566,1,8,0:0:0:0:
357,278,170994,1,2,0:0:0:0:
278,263,171423,5,0,0:0:0:0:
429,312,185137,6,0,P|439:274|427:196,1,80,0|0,0:0|0:0,0:0:0:0:
369,191,185994,2,0,P|368:151|378:112,1,80,0|0,0:0|0:0,0:0:0:0:
341,41,186851,2,0,L|239:37,1,80,0|0,0:0|0:0,0:0:0:0:
229,111,187709,2,0,L|116:108,1,80,0|0,0:0|0:0,0:0:0:0:
89,162,188566,6,0,P|56:275|63:292,1,80,0|0,0:0|0:0,0:0:0:0:
68,309,189423,2,0,L|176:311,1,80,0|0,0:0|0:0,0:0:0:0:
186,240,190280,2,0,L|294:242,1,80,0|0,0:0|0:0,0:0:0:0:
331,287,191137,2,0,P|418:293|434:284,1,80,0|0,0:0|0:0,0:0:0:0:
432,220,191994,5,8,0:0:0:0:
404,144,192423,1,8,0:0:0:0:
333,106,192851,2,0,P|281:114|216:84,1,80,8|8,0:0|0:0,0:0:0:0:
184,69,193709,1,8,0:0:0:0:
105,86,194137,1,8,0:0:0:0:
80,162,194566,2,0,L|72:272,1,80,8|8,0:0|0:0,0:0:0:0:
256,192,195423,12,4,198851,0:0:0:0:
27,103,200566,6,0,P|104:122|129:68,1,80,4|4,0:0|0:0,0:0:0:0:
153,69,201423,2,0,B|192:57|192:57|278:65,1,80,8|8,0:0|0:0,0:0:0:0:
299,101,202280,2,0,P|316:197|413:170,1,160,4|8,0:0|0:0,0:0:0:0:
443,222,203566,1,4,0:0:0:0:
419,298,203994,6,0,B|383:286|383:286|341:320|341:320|232:305,1,160,2|2,0:0|0:0,0:0:0:0:
205,268,205280,1,8,0:0:0:0:
139,221,205709,2,0,B|111:195|111:195|26:174,1,80,4|4,0:0|0:0,0:0:0:0:
75,105,206566,2,0,L|193:133,1,80,2|8,0:0|0:0,0:0:0:0:
226,155,207423,6,0,B|268:170|279:139|341:168,1,80,4|4,0:0|0:0,0:0:0:0:
384,147,208280,2,0,P|432:165|450:220,1,80,8|4,0:0|0:0,0:0:0:0:
427,265,209137,2,0,B|397:304|397:304|365:241|279:224,1,160,4|8,0:0|0:0,0:0:0:0:
240,203,210423,1,4,0:0:0:0:
161,188,210851,6,0,L|134:293,1,80,12|0,0:0|0:0,0:0:0:0:
68,230,211709,2,0,L|95:125,1,80,8|8,0:0|0:0,0:0:0:0:
133,86,212566,1,4,0:0:0:0:
210,65,212994,1,4,0:0:0:0:
284,93,213423,2,0,P|411:99|420:110,1,80,8|2,0:0|0:0,0:0:0:0:
428,109,214280,5,4,0:0:0:0:
114,43,215994,2,0,P|65:138|79:190,1,160,4|8,0:0|0:0,0:0:0:0:
136,238,217280,1,2,0:0:0:0:
209,205,217709,6,0,L|356:198,1,80,4|2,0:0|0:0,0:0:0:0:
320,127,218566,2,0,L|467:120,1,80,8|2,0:0|0:0,0:0:0:0:
460,175,219423,2,0,P|488:253|451:338,1,160,4|8,0:0|0:0,0:0:0:0:
386,302,220709,1,4,0:3:0:0:
312,270,221137,6,0,B|260:267|232:259|232:259|207:273|133:289,1,160,4|8,0:0|0:0,0:0:0:0:
79,263,222423,1,2,0:0:0:0:
33,198,222851,2,0,P|23:139|38:90,1,80,4|8,0:0|0:0,0:0:0:0:
75,56,223709,1,8,0:0:0:0:
145,92,224137,1,2,0:0:0:0:
217,58,224566,6,0,P|313:51|338:67,1,80,4|2,0:0|0:0,0:0:0:0:
370,68,225423,2,0,L|372:183,1,80,8|2,0:0|0:0,0:0:0:0:
298,181,226280,2,0,L|300:296,1,80,4|2,0:0|0:0,0:0:0:0:
237,311,227137,1,8,0:0:0:0:
167,271,227566,1,2,0:0:0:0:
90,293,227994,6,0,P|94:365|104:381,2,80,4|2|8,0:0|0:0|0:0,0:0:0:0:
71,214,229280,1,2,0:0:0:0:
133,164,229709,2,0,L|225:158,1,80,4|2,0:0|0:0,0:0:0:0:
246,86,230566,2,0,L|338:80,1,80,8|2,0:0|0:0,0:0:0:0:
380,139,231423,5,4,0:0:0:0:
356,215,231851,1,2,0:0:0:0:
414,269,232280,2,0,L|419:362,1,80,8|2,0:0|0:0,0:0:0:0:
338,339,233137,2,0,P|152:336|145:340,1,160,4|8,0:0|0:0,0:0:0:0:
109,352,234423,1,2,0:0:0:0:
49,298,234851,6,0,P|21:212|27:199,1,80,4|2,0:0|0:0,0:0:0:0:
11,148,235709,1,8,0:0:0:0:
56,82,236137,1,2,0:0:0:0:
137,77,236566,2,0,L|243:57,1,80,4|2,0:0|0:0,0:0:0:0:
281,108,237423,2,0,L|387:88,1,80,8|2,0:0|0:0,0:0:0:0:
415,36,238280,5,2,0:0:0:0:
70,96,248566,6,0,P|154:85|200:115,1,80,2|2,0:0|0:0,0:0:0:0:
196,146,249423,1,0,0:0:0:0:
164,219,249851,1,2,0:0:0:0:
99,266,250280,2,0,P|140:326|255:303,1,160,2|2,0:0|0:0,0:0:0:0:
266,264,251566,1,0,0:0:0:0:
343,281,251994,6,0,P|391:288|469:250,1,80,4|0,0:0|0:0,0:0:0:0:
455,209,252851,2,0,L|451:113,1,80,2|2,0:0|0:0,0:0:0:0:
383,86,253709,2,0,P|279:76|214:110,1,160,2|2,0:0|0:0,0:0:0:0:
192,168,254994,1,0,0:0:0:0:
208,246,255423,6,0,P|211:317|180:364,1,80,2|2,0:0|0:0,0:0:0:0:
130,305,256280,1,4,0:0:0:0:
55,334,256709,1,0,0:0:0:0:
7,270,257137,2,0,L|11:175,1,80,2|2,0:0|0:0,0:0:0:0:
50,120,257994,2,0,P|133:113|188:147,1,80,4|2,0:0|0:0,0:0:0:0:
185,167,258851,5,4,0:0:0:0:
242,110,259280,1,2,0:0:0:0:
303,161,259709,2,0,L|408:158,1,80,2|2,0:0|0:0,0:0:0:0:
384,238,260566,2,0,L|279:241,1,80,2|2,0:0|0:0,0:0:0:0:
224,232,261423,1,4,0:0:0:0:
167,288,261851,1,0,0:0:0:0:
88,271,262280,6,0,P|71:321|87:365,2,80,2|0|2,0:0|0:0|0:0,0:0:0:0:
126,200,263566,1,2,0:0:0:0:
171,134,263994,2,0,P|259:171|344:127,1,160,2|2,0:0|0:0,0:0:0:0:
382,106,265280,1,0,0:0:0:0:
447,151,265709,6,0,P|487:197|477:268,1,80,4|0,0:0|0:0,0:0:0:0:
448,282,266566,1,2,0:0:0:0:
374,249,266994,1,2,0:0:0:0:
311,298,267423,2,0,L|163:306,1,80,2|0,0:0|0:0,0:0:0:0:
182,238,268280,1,2,0:0:0:0:
108,270,268709,1,0,0:0:0:0:
51,213,269137,6,0,P|34:172|49:116,1,80,2|2,0:0|0:0,0:0:0:0:
92,79,269994,2,0,L|266:64,1,160,2|2,0:0|0:0,0:0:0:0:
330,76,271280,1,2,0:0:0:0:
391,126,271709,2,0,P|407:210|404:227,1,80,2|2,0:0|0:0,0:0:0:0:
376,277,272566,5,2,0:0:0:0:
256,192,272994,12,0,275994,0:0:0:0:
