osu file format v14

[General]
AudioFilename: audio.mp3
AudioLeadIn: 0
PreviewTime: 32790
Countdown: 0
SampleSet: Soft
StackLeniency: 0.7
Mode: 0
LetterboxInBreaks: 0
WidescreenStoryboard: 0

[Editor]
DistanceSpacing: 0.6
BeatDivisor: 4
GridSize: 4
TimelineZoom: 1.8

[Metadata]
Title:Ben 10 (TV Size)
TitleUnicode:Ben 10 (TV Size)
Artist:Anna Nordell
ArtistUnicode:Anna Nordell
Creator:Nitroz
Version:Insane
Source:Ben 10
Tags:man of action studios cartoon network warner bros gero svenska version main theme song engh classic andy sturmer
BeatmapID:1658370
BeatmapSetID:790286

[Difficulty]
HPDrainRate:7
CircleSize:5
OverallDifficulty:8
ApproachRate:8
SliderMultiplier:2
SliderTickRate:1

[Events]
//Background and Video events
0,0,"ben 10.png",0,0
Video,-120,"Ben10.avi"
//Break Periods
//Storyboard Layer 0 (Background)
//Storyboard Layer 1 (Fail)
//Storyboard Layer 2 (Pass)
//Storyboard Layer 3 (Foreground)
//Storyboard Sound Samples

[TimingPoints]
186,410.116199589884,4,2,0,70,1,0
186,-108.108108108108,4,2,0,70,0,0
32995,-83.3333333333333,4,2,0,80,0,1
45708,-90.9090909090909,4,2,0,70,0,0
55039,-75.9301442672741,4,2,0,70,0,0

[Colours]
Combo1 : 128,255,0
Combo2 : 85,85,85

[HitObjects]
432,256,5107,5,0,1:0:0:0:
256,336,5517,1,0,1:0:0:0:
80,256,5927,1,0,1:0:0:0:
112,224,6030,1,0,1:0:0:0:
80,192,6132,1,0,1:0:0:0:
112,160,6235,1,0,1:0:0:0:
80,128,6337,2,0,L|80:64,3,46.2499998235703,0|0|0|0,1:0|1:0|1:0|1:0,0:0:0:0:
144,32,6747,6,8,L|240:32,1,92.4999996471405,4|0,0:0|0:0,0:0:0:0:
224,128,7157,2,8,L|320:128,1,92.4999996471405,0|0,1:0|0:0,0:0:0:0:
416,128,7568,1,2,0:0:0:0:
336,224,7773,1,0,0:0:0:0:
416,304,7978,1,0,1:0:0:0:
336,224,8183,1,0,0:0:0:0:
240,224,8388,6,8,L|144:224,1,92.4999996471405,2|0,0:0|0:0,0:0:0:0:
112,320,8798,2,8,L|16:320,1,92.4999996471405,0|0,1:0|0:0,0:0:0:0:
16,224,9208,1,2,0:0:0:0:
112,224,9413,2,8,L|112:128,1,92.4999996471405,0|0,0:0|1:0,0:0:0:0:
112,32,9823,1,0,1:0:0:0:
160,48,9926,1,0,1:0:0:0:
208,32,10028,6,0,P|224:80|208:128,1,92.4999996471405,2|2,0:0|0:0,0:0:0:0:
192,208,10438,2,8,P|176:256|192:304,1,92.4999996471405,0|0,1:0|0:0,0:0:0:0:
288,336,10849,1,2,0:0:0:0:
288,208,11054,1,0,0:0:0:0:
384,288,11259,1,0,1:0:0:0:
384,160,11464,1,0,0:0:0:0:
448,80,11669,6,8,L|352:80,1,92.4999996471405,2|0,0:0|0:0,0:0:0:0:
256,80,12079,2,8,L|176:128,3,92.4999996471405,0|0|2|0,1:0|0:0|0:0|0:0,0:0:0:0:
96,192,12899,1,0,1:0:0:0:
96,240,13002,1,0,1:0:0:0:
96,287,13104,1,0,1:0:0:0:
96,336,13207,1,0,1:0:0:0:
96,287,13309,6,8,L|192:287,1,92.4999996471405,2|0,0:0|0:0,0:0:0:0:
288,336,13719,2,8,L|384:336,1,92.4999996471405,0|0,1:0|0:0,0:0:0:0:
464,272,14129,1,2,0:0:0:0:
464,160,14335,1,0,0:0:0:0:
384,96,14540,1,0,1:0:0:0:
304,160,14745,1,0,0:0:0:0:
192,160,14950,6,8,L|192:64,3,92.4999996471405,2|0|0|0,0:0|0:0|1:0|0:0,0:0:0:0:
80,64,15770,1,2,0:0:0:0:
80,176,15975,1,0,0:0:0:0:
80,288,16180,1,0,1:0:0:0:
176,336,16385,1,0,1:0:0:0:
208,336,16488,1,0,1:0:0:0:
240,336,16590,5,2,0:0:0:0:
352,336,16795,1,0,0:0:0:0:
448,288,17000,2,0,L|448:192,1,92.4999996471405,0|0,1:0|0:0,0:0:0:0:
448,96,17410,1,2,0:0:0:0:
352,96,17615,1,0,0:0:0:0:
256,144,17820,2,0,L|256:240,1,92.4999996471405,0|0,1:0|0:0,0:0:0:0:
160,288,18231,5,2,0:0:0:0:
64,288,18436,1,0,0:0:0:0:
64,192,18641,2,0,L|64:99,1,92.4999996471405,0|0,1:0|0:0,0:0:0:0:
160,48,19051,1,2,0:0:0:0:
256,48,19256,1,0,0:0:0:0:
256,160,19461,5,0,1:0:0:0:
256,192,19563,1,0,1:0:0:0:
256,224,19666,1,0,1:0:0:0:
256,256,19769,1,0,1:0:0:0:
256,288,19871,5,4,0:0:0:0:
368,288,20076,1,0,0:0:0:0:
480,288,20281,1,0,1:0:0:0:
480,176,20486,1,0,0:0:0:0:
480,64,20691,1,2,0:0:0:0:
368,64,20896,1,0,0:0:0:0:
368,176,21101,1,0,1:0:0:0:
368,288,21306,1,0,0:0:0:0:
256,288,21512,5,2,0:0:0:0:
256,176,21717,1,0,0:0:0:0:
256,64,21922,1,0,1:0:0:0:
144,64,22127,1,0,0:0:0:0:
144,176,22332,2,8,B|144:288|144:288|80:336,1,184.999999294281,2|0,0:0|1:0,0:0:0:0:
0,240,22947,1,0,1:0:0:0:
0,192,23049,1,0,1:0:0:0:
0,144,23152,5,4,0:0:0:0:
64,32,23357,1,0,0:0:0:0:
176,32,23562,1,0,1:0:0:0:
64,32,23767,1,0,0:0:0:0:
176,32,23972,1,2,0:0:0:0:
288,32,24177,1,0,0:0:0:0:
288,144,24382,1,0,1:0:0:0:
400,144,24587,1,0,0:0:0:0:
288,144,24792,5,2,0:0:0:0:
176,144,24998,1,0,0:0:0:0:
64,144,25203,1,0,1:0:0:0:
64,32,25408,2,8,L|160:32,1,92.4999996471405,0|2,0:0|0:0,0:0:0:0:
256,32,25818,1,0,1:0:0:0:
240,80,25920,1,0,1:0:0:0:
256,128,26023,1,0,1:0:0:0:
240,176,26125,1,0,1:0:0:0:
256,224,26228,1,0,1:0:0:0:
240,272,26330,1,0,1:0:0:0:
256,320,26433,5,4,0:0:0:0:
368,304,26638,1,0,0:0:0:0:
464,256,26843,1,0,1:0:0:0:
368,208,27048,1,0,0:0:0:0:
464,160,27253,1,2,0:0:0:0:
368,112,27458,1,0,0:0:0:0:
464,64,27663,1,0,1:0:0:0:
368,16,27868,1,0,0:0:0:0:
256,16,28073,5,2,0:0:0:0:
144,16,28278,1,0,0:0:0:0:
256,16,28484,1,0,1:0:0:0:
256,128,28689,1,0,0:0:0:0:
256,240,28894,1,2,0:0:0:0:
144,240,29099,1,0,0:0:0:0:
96,160,29304,1,0,1:0:0:0:
96,48,29509,1,0,1:0:0:0:
144,32,29611,1,0,1:0:0:0:
192,16,29714,5,4,0:0:0:0:
256,96,29919,1,0,0:0:0:0:
320,16,30124,1,0,1:0:0:0:
416,48,30329,1,0,0:0:0:0:
416,160,30534,2,0,L|352:272,1,92.4999996471405,2|0,0:0|0:0,0:0:0:0:
320,336,30944,1,0,1:0:0:0:
224,368,31149,1,0,0:0:0:0:
168,288,31354,5,4,0:0:0:0:
160,176,31559,1,0,1:0:0:0:
160,144,31661,1,0,1:0:0:0:
160,112,31764,1,0,1:0:0:0:
160,80,31866,1,0,1:0:0:0:
176,56,31969,1,0,1:0:0:0:
200,40,32072,1,0,1:0:0:0:
232,40,32175,5,0,1:0:0:0:
264,40,32277,1,0,1:0:0:0:
296,40,32380,1,0,1:0:0:0:
328,40,32482,1,0,1:0:0:0:
352,48,32585,5,0,1:0:0:0:
368,64,32687,1,0,1:0:0:0:
384,80,32790,1,0,1:0:0:0:
400,96,32892,1,0,1:0:0:0:
416,112,32995,6,8,L|512:208,1,119.999996337891,4|0,0:0|0:0,0:0:0:0:
496,352,33405,2,8,L|400:256,1,119.999996337891,0|2,1:0|0:0,0:0:0:0:
304,144,33815,2,8,L|300:284,1,119.999996337891,0|2,3:0|0:0,0:0:0:0:
192,320,34225,1,0,1:0:0:0:
64,320,34430,6,8,L|64:80,2,239.999992675781,2|2|2,0:0|0:0|0:0,0:0:0:0:
192,320,35455,1,0,3:0:0:0:
320,256,35661,1,2,0:0:0:0:
448,320,35866,1,0,1:0:0:0:
448,192,36071,1,4,0:0:0:0:
448,144,36173,1,0,0:0:0:0:
448,96,36276,5,2,0:0:0:0:
352,32,36481,1,2,0:0:0:0:
225,32,36686,1,0,1:0:0:0:
97,32,36891,1,2,0:0:0:0:
97,160,37096,1,0,3:0:0:0:
225,160,37301,1,2,0:0:0:0:
225,288,37506,1,0,1:0:0:0:
336,352,37711,6,8,B|480:352|480:352|480:240,2,239.999992675781,2|2|2,0:0|0:0|0:0,0:0:0:0:
224,288,38736,2,8,L|128:384,2,119.999996337891,0|2|0,3:0|0:0|1:0,0:0:0:0:
224,160,39352,1,4,0:0:0:0:
256,128,39454,1,0,0:0:0:0:
288,96,39557,5,2,0:0:0:0:
384,192,39762,1,2,0:0:0:0:
320,304,39967,1,0,1:0:0:0:
192,304,40172,1,2,0:0:0:0:
320,304,40377,1,0,3:0:0:0:
192,304,40582,1,2,0:0:0:0:
128,192,40787,1,0,1:0:0:0:
208,96,40992,6,8,B|272:32|272:32|432:32,2,239.999992675781,2|2|2,0:0|0:0|0:0,0:0:0:0:
80,96,42017,1,0,3:0:0:0:
80,224,42222,1,2,0:0:0:0:
80,352,42427,1,0,1:0:0:0:
208,352,42633,1,2,0:0:0:0:
256,352,42735,1,0,0:0:0:0:
304,352,42838,5,6,0:0:0:0:
431,192,43043,1,2,0:0:0:0:
227,163,43248,1,4,1:0:0:0:
390,313,43453,1,2,0:0:0:0:
336,95,43658,1,4,0:0:0:0:
256,305,43863,1,2,0:0:0:0:
173,95,44068,1,4,1:0:0:0:
119,313,44273,1,2,0:0:0:0:
281,163,44478,5,4,0:0:0:0:
77,192,44683,1,6,0:0:0:0:
256,305,44888,1,4,1:0:0:0:
448,272,45093,2,4,B|448:144|448:144|320:144,1,239.999992675781,6|2,0:0|0:0,0:0:0:0:
256,240,45708,1,0,1:0:0:0:
176,144,45913,1,0,1:0:0:0:
256,64,46119,5,4,1:0:0:0:
144,16,46324,1,2,0:0:0:0:
32,64,46529,1,0,1:0:0:0:
32,176,46734,1,2,0:0:0:0:
144,128,46939,1,4,3:0:0:0:
256,176,47144,1,2,0:0:0:0:
368,128,47349,1,0,1:0:0:0:
480,176,47554,1,2,0:0:0:0:
480,288,47759,5,2,1:0:0:0:
368,288,47964,1,2,0:0:0:0:
320,288,48067,1,2,1:0:0:0:
208,288,48272,1,2,0:0:0:0:
160,288,48374,1,2,1:0:0:0:
64,256,48579,2,8,L|64:368,2,110.000003356934,2|2|0,1:0|0:0|1:0,0:0:0:0:
32,160,49194,1,2,0:0:0:0:
32,128,49297,1,2,0:0:0:0:
32,95,49399,5,4,1:0:0:0:
112,32,49605,1,2,0:0:0:0:
192,96,49810,1,0,1:0:0:0:
112,32,50015,1,2,0:0:0:0:
112,144,50220,1,4,3:0:0:0:
144,176,50322,1,0,0:0:0:0:
176,208,50425,1,2,0:0:0:0:
288,208,50630,1,0,1:0:0:0:
400,208,50835,1,2,0:0:0:0:
400,112,51040,5,2,1:0:0:0:
320,80,51245,1,2,0:0:0:0:
272,80,51347,1,2,1:0:0:0:
192,144,51553,1,2,0:0:0:0:
144,144,51655,1,2,1:0:0:0:
48,192,51860,1,2,1:0:0:0:
48,304,52065,1,2,0:0:0:0:
160,304,52270,1,0,1:0:0:0:
271,303,52475,1,2,0:0:0:0:
304,304,52578,1,2,0:0:0:0:
336,303,52680,5,4,1:0:0:0:
448,304,52885,1,2,0:0:0:0:
448,256,52988,2,0,L|448:192,1,55.0000016784668,0|0,0:0|1:0,0:0:0:0:
352,80,53296,1,2,0:0:0:0:
352,128,53398,2,0,L|352:192,1,55.0000016784668,2|4,0:0|3:0,0:0:0:0:
240,304,53706,1,2,0:0:0:0:
240,256,53809,2,0,L|240:192,1,55.0000016784668,0|0,0:0|1:0,0:0:0:0:
208,32,54116,1,0,1:0:0:0:
160,16,54218,1,0,1:0:0:0:
112,32,54321,5,0,1:0:0:0:
96,80,54423,1,0,1:0:0:0:
112,128,54526,1,0,1:0:0:0:
96,176,54628,1,0,1:0:0:0:
112,224,54731,1,0,1:0:0:0:
96,272,54833,1,0,1:0:0:0:
144,286,54936,1,0,1:0:0:0:
187,272,55039,6,0,B|220:258|220:258|293:288|293:288|278:215|278:215|322:171|322:171|256:157|256:157|220:99|220:99|184:157|184:157|118:171|118:171|162:215|162:215|143:288,1,658.499991358795,4|2,1:0|0:0,0:0:0:0:
