osu file format v14

[General]
AudioFilename: audio.mp3
AudioLeadIn: 0
PreviewTime: 32790
Countdown: 0
SampleSet: Soft
StackLeniency: 0.7
Mode: 0
LetterboxInBreaks: 0
WidescreenStoryboard: 1

[Editor]
DistanceSpacing: 1
BeatDivisor: 4
GridSize: 8
TimelineZoom: 3.499999

[Metadata]
Title:Ben 10 (TV Size)
TitleUnicode:Ben 10 (TV Size)
Artist:Anna Nordell
ArtistUnicode:Anna Nordell
Creator:Nitroz
Version:Hard
Source:Ben 10
Tags:man of action studios cartoon network warner bros gero svenska version main theme song engh classic andy sturmer
BeatmapID:1658567
BeatmapSetID:790286

[Difficulty]
HPDrainRate:6
CircleSize:4
OverallDifficulty:6
ApproachRate:7
SliderMultiplier:2
SliderTickRate:1

[Events]
//Background and Video events
0,0,"ben 10.png",0,0
Video,-120,"Ben10.avi"
//Break Periods
//Storyboard Layer 0 (Background)
//Storyboard Layer 1 (Fail)
//Storyboard Layer 2 (Pass)
//Storyboard Layer 3 (Foreground)
//Storyboard Sound Samples

[TimingPoints]
186,410.116199589884,4,2,0,70,1,0
186,-100,4,2,0,70,0,0
32995,-83.3333333333333,4,2,0,80,0,1
45708,-90.9090909090909,4,2,0,70,0,0

[Colours]
Combo1 : 128,255,0
Combo2 : 85,85,85

[HitObjects]
448,64,5107,5,0,1:0:0:0:
448,168,5517,1,0,1:0:0:0:
448,272,5927,2,0,L|392:272,4,50,0|0|0|0|0,1:0|1:0|1:0|1:0|1:0,0:0:0:0:
448,352,6542,1,0,1:0:0:0:
368,352,6747,6,8,P|320:368|272:352,1,100,4|0,0:0|0:0,0:0:0:0:
304,280,7157,2,8,P|256:264|192:296,1,100,0|0,1:0|0:0,0:0:0:0:
144,312,7568,1,2,0:0:0:0:
96,256,7773,1,0,0:0:0:0:
144,200,7978,1,0,1:0:0:0:
96,144,8183,1,0,0:0:0:0:
160,96,8388,6,8,P|208:80|256:96,1,100,2|0,0:0|0:0,0:0:0:0:
216,160,8798,2,8,P|264:176|312:160,1,100,0|0,1:0|0:0,0:0:0:0:
376,120,9208,1,2,0:0:0:0:
448,136,9413,2,8,P|464:184|448:232,1,100,0|0,0:0|1:0,0:0:0:0:
448,304,9823,1,0,1:0:0:0:
368,304,10028,6,8,P|352:256|368:208,1,100,2|0,0:0|0:0,0:0:0:0:
368,136,10438,2,8,P|384:88|368:40,1,100,0|0,1:0|0:0,0:0:0:0:
296,40,10849,1,2,0:0:0:0:
232,80,11054,1,0,0:0:0:0:
168,40,11259,1,0,1:0:0:0:
104,80,11464,1,0,0:0:0:0:
48,136,11669,6,8,P|32:184|48:232,1,100,2|0,0:0|0:0,0:0:0:0:
112,272,12079,2,8,P|160:288|208:272,3,100,0|0|2|0,1:0|0:0|0:0|0:0,0:0:0:0:
288,272,12899,1,0,1:0:0:0:
336,336,13104,1,0,1:0:0:0:
384,272,13309,5,2,0:0:0:0:
384,192,13514,1,0,0:0:0:0:
384,112,13719,2,8,P|336:96|288:112,1,100,0|0,1:0|0:0,0:0:0:0:
224,64,14129,1,2,0:0:0:0:
160,112,14335,1,0,0:0:0:0:
160,192,14540,1,0,1:0:0:0:
160,272,14745,1,0,0:0:0:0:
240,272,14950,6,8,P|288:288|336:272,3,100,2|0|0|0,0:0|0:0|1:0|0:0,0:0:0:0:
408,272,15770,1,2,0:0:0:0:
408,192,15975,1,0,0:0:0:0:
408,112,16180,1,0,1:0:0:0:
296,48,16590,5,2,0:0:0:0:
216,48,16795,1,0,0:0:0:0:
96,112,17205,1,0,0:0:0:0:
96,192,17410,1,2,0:0:0:0:
96,272,17615,1,0,0:0:0:0:
248,336,18026,1,0,0:0:0:0:
328,336,18231,5,2,0:0:0:0:
408,336,18436,1,0,0:0:0:0:
408,192,18846,1,0,0:0:0:0:
368,128,19051,2,0,L|256:128,1,100,2|0,0:0|0:0,0:0:0:0:
272,48,19461,2,0,L|160:48,1,100,0|0,1:0|1:0,0:0:0:0:
80,64,19871,5,4,0:0:0:0:
80,144,20076,1,0,0:0:0:0:
80,224,20281,1,0,1:0:0:0:
80,304,20486,1,0,0:0:0:0:
144,352,20691,2,8,L|244:352,1,100,2|0,0:0|0:0,0:0:0:0:
320,352,21101,2,8,L|320:240,1,100,0|0,1:0|0:0,0:0:0:0:
320,176,21512,5,2,0:0:0:0:
240,176,21717,1,0,0:0:0:0:
240,96,21922,1,0,1:0:0:0:
320,96,22127,1,0,0:0:0:0:
320,176,22332,2,8,B|408:176|408:176|408:64,1,200,2|0,0:0|1:0,0:0:0:0:
336,32,22947,1,0,1:0:0:0:
288,48,23049,1,0,1:0:0:0:
240,64,23152,5,4,0:0:0:0:
160,64,23357,1,0,0:0:0:0:
96,112,23562,1,0,1:0:0:0:
160,160,23767,1,0,0:0:0:0:
96,208,23972,1,2,0:0:0:0:
96,288,24177,1,0,0:0:0:0:
176,288,24382,2,8,L|288:288,1,100,0|0,1:0|0:0,0:0:0:0:
272,208,24792,5,2,0:0:0:0:
352,208,24998,1,0,0:0:0:0:
432,208,25203,1,0,1:0:0:0:
400,136,25408,2,8,P|352:120|304:136,2,100,0|2|0,0:0|0:0|1:0,0:0:0:0:
480,136,26023,1,0,1:0:0:0:
456,32,26228,1,0,1:0:0:0:
400,32,26330,1,0,1:0:0:0:
352,32,26433,5,4,0:0:0:0:
272,32,26638,1,0,0:0:0:0:
192,32,26843,1,0,1:0:0:0:
120,64,27048,1,0,0:0:0:0:
64,120,27253,2,8,P|48:168|64:216,1,100,2|0,0:0|0:0,0:0:0:0:
112,272,27663,2,8,P|160:288|208:272,1,100,0|0,1:0|0:0,0:0:0:0:
288,312,28073,5,2,0:0:0:0:
352,272,28278,1,0,0:0:0:0:
288,232,28484,1,0,1:0:0:0:
352,192,28689,1,0,0:0:0:0:
432,192,28894,1,2,0:0:0:0:
432,112,29099,1,0,0:0:0:0:
432,32,29304,2,0,B|328:32,1,100,0|0,1:0|1:0,0:0:0:0:
256,32,29714,6,0,B|152:32,1,100,4|0,0:0|0:0,0:0:0:0:
80,128,30329,1,0,0:0:0:0:
80,208,30534,1,2,0:0:0:0:
80,288,30739,1,0,0:0:0:0:
232,336,31149,1,0,0:0:0:0:
312,336,31354,5,4,0:0:0:0:
392,336,31559,1,0,1:0:0:0:
360,136,31970,1,0,1:0:0:0:
272,200,32175,2,0,L|208:200,3,50,0|0|0|0,1:0|1:0|1:0|1:0,0:0:0:0:
176,224,32585,2,0,L|128:256,3,50,0|0|0|0,1:0|1:0|1:0|1:0,0:0:0:0:
96,288,32995,6,8,P|32:272|0:192,1,119.999996337891,4|0,0:0|0:0,0:0:0:0:
112,208,33405,2,8,P|64:162|76:76,1,119.999996337891,0|2,1:0|0:0,0:0:0:0:
176,160,33815,2,8,P|157:96|211:28,1,119.999996337891,0|2,3:0|0:0,0:0:0:0:
272,48,34225,1,0,1:0:0:0:
368,48,34430,6,8,B|480:48|480:48|480:176,2,239.999992675781,2|2|2,0:0|0:0|0:0,0:0:0:0:
272,48,35455,1,0,3:0:0:0:
176,96,35661,1,2,0:0:0:0:
80,48,35866,1,0,1:0:0:0:
80,144,36071,1,4,0:0:0:0:
80,176,36173,1,0,0:0:0:0:
80,208,36276,5,2,0:0:0:0:
80,304,36481,1,2,0:0:0:0:
176,272,36686,1,0,1:0:0:0:
272,304,36891,1,2,0:0:0:0:
368,272,37096,1,0,3:0:0:0:
368,176,37301,1,2,0:0:0:0:
272,144,37506,1,0,1:0:0:0:
208,64,37711,6,8,B|32:64|32:64|32:144,2,239.999992675781,2|2|2,0:0|0:0|0:0,0:0:0:0:
304,64,38736,2,8,P|368:48|432:80,2,119.999996337891,0|2|0,3:0|0:0|1:0,0:0:0:0:
320,160,39352,1,4,0:0:0:0:
336,192,39454,1,0,0:0:0:0:
320,224,39557,5,2,0:0:0:0:
288,320,39762,1,2,0:0:0:0:
192,368,39967,1,0,1:0:0:0:
96,320,40172,1,2,0:0:0:0:
96,224,40377,1,0,3:0:0:0:
96,128,40582,1,2,0:0:0:0:
96,32,40787,1,0,1:0:0:0:
192,64,40992,6,8,B|256:0|256:0|416:0,2,239.999992675781,2|2|2,0:0|0:0|0:0,0:0:0:0:
192,160,42017,1,0,3:0:0:0:
192,256,42222,1,2,0:0:0:0:
288,256,42427,1,0,1:0:0:0:
352,320,42633,2,0,L|352:384,2,59.9999981689454,2|0|4,0:0|0:0|0:0,0:0:0:0:
448,256,43043,5,2,0:0:0:0:
448,160,43248,1,4,1:0:0:0:
352,96,43453,2,0,L|352:16,2,59.9999981689454,2|0|4,0:0|0:0|0:0,0:0:0:0:
240,80,43863,1,2,0:0:0:0:
144,80,44068,1,4,1:0:0:0:
144,176,44273,2,0,L|144:256,2,59.9999981689454,2|0|4,0:0|0:0|0:0,0:0:0:0:
240,272,44683,5,6,0:0:0:0:
368,272,44888,1,4,1:0:0:0:
368,144,45093,2,4,B|272:144|272:144|272:80|272:80|176:80,1,239.999992675781,6|2,0:0|0:0,0:0:0:0:
144,208,45708,2,8,P|128:256|144:320,1,110.000003356934,0|0,1:0|1:0,0:0:0:0:
256,336,46119,5,4,1:0:0:0:
336,336,46324,1,2,0:0:0:0:
416,336,46529,1,0,1:0:0:0:
416,256,46734,1,2,0:0:0:0:
416,176,46939,2,0,L|304:112,1,110.000003356934,4|2,3:0|0:0,0:0:0:0:
256,176,47349,2,0,L|152:232,1,110.000003356934,0|2,1:0|0:0,0:0:0:0:
96,176,47759,5,2,1:0:0:0:
96,96,47964,2,8,L|160:96,1,55.0000016784668,2|2,0:0|1:0,0:0:0:0:
208,96,48169,1,2,0:0:0:0:
176,8,48374,2,8,L|256:8,1,55.0000016784668,2|2,1:0|1:0,0:0:0:0:
296,72,48579,2,0,L|408:72,2,110.000003356934,0|0|2,1:0|0:0|1:0,0:0:0:0:
224,128,49194,1,2,0:0:0:0:
184,152,49297,1,2,0:0:0:0:
144,176,49399,5,4,1:0:0:0:
128,264,49605,1,2,0:0:0:0:
200,296,49810,1,0,1:0:0:0:
272,264,50015,1,2,0:0:0:0:
336,312,50220,2,0,L|432:259,1,110.000003356934,4|2,3:0|0:0,0:0:0:0:
488,200,50630,2,0,L|391:147,1,110.000003356934,0|0,1:0|0:0,0:0:0:0:
320,104,51040,5,2,1:0:0:0:
288,176,51245,2,8,L|224:176,1,55.0000016784668,2|2,0:0|1:0,0:0:0:0:
176,176,51450,1,2,0:0:0:0:
208,256,51655,2,8,L|144:256,1,55.0000016784668,2|2,1:0|1:0,0:0:0:0:
112,320,51860,2,0,L|0:320,2,110.000003356934,0|0|2,1:0|0:0|0:0,0:0:0:0:
192,312,52475,1,2,0:0:0:0:
240,312,52578,1,2,0:0:0:0:
288,312,52680,5,4,1:0:0:0:
368,312,52885,1,2,0:0:0:0:
432,264,53090,1,0,1:0:0:0:
432,184,53296,1,2,0:0:0:0:
488,112,53501,2,8,P|432:96|376:112,1,110.000003356934,4|2,3:0|0:0,0:0:0:0:
288,160,53911,2,8,P|232:176|176:160,1,110.000003356934,0|0,1:0|0:0,0:0:0:0:
80,128,54321,5,0,1:0:0:0:
80,144,54423,1,0,1:0:0:0:
80,160,54526,1,0,1:0:0:0:
80,176,54628,1,0,1:0:0:0:
80,192,54731,2,12,L|80:272,3,55.0000016784668,0|0|0|4,1:0|1:0|1:0|1:0,0:0:0:0:
