osu file format v14

[General]
AudioFilename: audio.mp3
AudioLeadIn: 0
PreviewTime: 32790
Countdown: 0
SampleSet: Soft
StackLeniency: 0.3
Mode: 0
LetterboxInBreaks: 0
WidescreenStoryboard: 0

[Editor]
Bookmarks: 5107,55039
DistanceSpacing: 1.1
BeatDivisor: 4
GridSize: 4
TimelineZoom: 1

[Metadata]
Title:Ben 10 (TV Size)
TitleUnicode:Ben 10 (TV Size)
Artist:Anna Nordell
ArtistUnicode:Anna Nordell
Creator:Nitroz
Version:Gero's Insane
Source:Ben 10
Tags:man of action studios cartoon network warner bros gero svenska version main theme song engh classic andy sturmer
BeatmapID:1698275
BeatmapSetID:790286

[Difficulty]
HPDrainRate:7.5
CircleSize:4
OverallDifficulty:8
ApproachRate:8.8
SliderMultiplier:2
SliderTickRate:1

[Events]
//Background and Video events
0,0,"ben 10.png",0,0
Video,-120,"Ben10.avi"
//Break Periods
//Storyboard Layer 0 (Background)
//Storyboard Layer 1 (Fail)
//Storyboard Layer 2 (Pass)
//Storyboard Layer 3 (Foreground)
//Storyboard Sound Samples

[TimingPoints]
186,410.116199589884,4,2,0,70,1,0
186,-100,4,2,0,70,0,0
32995,-83.3333333333333,4,2,0,80,0,1
45708,-90.9090909090909,4,2,0,70,0,0

[Colours]
Combo1 : 193,197,52
Combo2 : 85,85,85
Combo3 : 123,208,47
Combo4 : 205,128,75

[HitObjects]
256,204,5107,5,0,1:0:0:0:
256,204,5517,1,0,1:0:0:0:
256,204,5927,5,0,1:0:0:0:
256,188,6030,1,0,1:0:0:0:
256,172,6132,1,0,1:0:0:0:
256,156,6235,1,0,1:0:0:0:
256,140,6337,1,0,1:0:0:0:
256,124,6440,1,0,1:0:0:0:
256,108,6542,1,0,1:0:0:0:
256,92,6645,1,0,1:0:0:0:
256,76,6747,37,4,0:0:0:0:
156,249,6953,1,0,0:0:0:0:
356,134,7157,1,0,1:0:0:0:
256,308,7363,1,0,0:0:0:0:
156,135,7568,5,2,0:0:0:0:
356,250,7773,1,0,0:0:0:0:
256,76,7978,1,0,1:0:0:0:
156,249,8183,1,0,0:0:0:0:
356,134,8388,37,2,0:0:0:0:
456,192,8593,1,0,0:0:0:0:
356,250,8798,1,0,1:0:0:0:
256,192,9003,1,0,0:0:0:0:
356,134,9208,5,2,0:0:0:0:
356,134,9618,1,0,1:0:0:0:
456,192,9823,37,0,1:0:0:0:
456,192,9926,1,0,1:0:0:0:
456,192,10028,1,2,0:0:0:0:
356,366,10233,1,0,0:0:0:0:
356,134,10438,1,0,1:0:0:0:
256,308,10643,1,0,0:0:0:0:
256,76,10849,5,2,0:0:0:0:
156,250,11054,1,0,0:0:0:0:
156,18,11259,1,0,1:0:0:0:
56,192,11464,1,0,0:0:0:0:
256,76,11669,37,2,0:0:0:0:
156,134,11874,1,0,0:0:0:0:
56,76,12079,1,0,1:0:0:0:
156,18,12284,1,0,0:0:0:0:
256,76,12489,5,2,0:0:0:0:
256,76,12899,37,0,1:0:0:0:
272,76,13001,1,0,1:0:0:0:
288,76,13104,1,0,1:0:0:0:
304,76,13206,1,0,1:0:0:0:
320,76,13309,5,2,0:0:0:0:
484,192,13514,1,0,0:0:0:0:
284,192,13719,1,0,1:0:0:0:
448,76,13924,1,0,0:0:0:0:
384,268,14129,37,2,0:0:0:0:
448,76,14335,1,0,0:0:0:0:
284,192,14540,1,0,1:0:0:0:
484,192,14745,1,0,0:0:0:0:
320,76,14950,5,2,0:0:0:0:
284,192,15155,1,0,0:0:0:0:
168,156,15360,1,0,1:0:0:0:
204,40,15565,1,0,0:0:0:0:
320,76,15770,37,2,0:0:0:0:
284,192,15975,1,0,0:0:0:0:
204,40,16180,1,0,1:0:0:0:
168,156,16385,37,0,1:0:0:0:
168,156,16488,1,0,1:0:0:0:
168,156,16590,2,0,B|136:207|164:247|168:251|172:255|200:295|168:346,1,200,2|0,0:0|1:0,0:0:0:0:
412,260,17205,1,0,0:0:0:0:
284,192,17410,2,0,B|260:260|260:260|302:380,1,200,2|0,0:0|1:0,0:0:0:0:
479,260,18026,1,0,0:0:0:0:
317,97,18231,38,0,B|284:192,1,100,2|0,0:0|0:0,0:0:0:0:
446,355,18641,2,0,B|479:260,1,100,0|0,1:0|0:0,0:0:0:0:
445,29,19051,2,0,B|412:124,1,100,2|0,0:0|0:0,0:0:0:0:
302,380,19461,5,0,1:0:0:0:
256,363,19563,1,0,1:0:0:0:
303,342,19666,1,0,1:0:0:0:
280,333,19769,1,0,1:0:0:0:
304,304,19871,5,4,0:0:0:0:
391,192,20076,1,0,0:0:0:0:
304,80,20281,1,0,1:0:0:0:
487,192,20486,1,0,0:0:0:0:
304,304,20691,5,2,0:0:0:0:
391,192,20896,1,0,0:0:0:0:
208,80,21101,1,0,1:0:0:0:
295,192,21306,1,0,0:0:0:0:
112,304,21512,37,2,0:0:0:0:
199,192,21717,1,0,0:0:0:0:
112,80,21922,1,0,1:0:0:0:
25,192,22127,1,0,0:0:0:0:
112,304,22332,5,2,0:0:0:0:
112,304,22742,1,0,1:0:0:0:
199,192,22947,37,0,1:0:0:0:
199,192,23049,1,0,1:0:0:0:
199,192,23152,1,4,0:0:0:0:
256,64,23357,1,0,0:0:0:0:
313,192,23562,1,0,1:0:0:0:
256,36,23767,1,0,0:0:0:0:
199,164,23972,5,2,0:0:0:0:
256,8,24177,1,0,0:0:0:0:
313,164,24382,1,0,1:0:0:0:
142,64,24587,1,0,0:0:0:0:
370,64,24792,37,2,0:0:0:0:
313,164,24998,1,0,0:0:0:0:
199,164,25203,1,0,1:0:0:0:
142,64,25408,1,0,0:0:0:0:
256,64,25613,1,2,0:0:0:0:
370,64,25818,5,0,1:0:0:0:
397,91,25920,1,0,1:0:0:0:
414,125,26023,1,0,1:0:0:0:
420,164,26125,1,0,1:0:0:0:
414,203,26228,1,0,1:0:0:0:
397,237,26331,1,0,1:0:0:0:
370,264,26433,37,4,0:0:0:0:
199,364,26638,1,0,0:0:0:0:
313,164,26843,1,0,1:0:0:0:
313,364,27048,1,0,0:0:0:0:
199,164,27253,5,2,0:0:0:0:
313,364,27458,1,0,0:0:0:0:
313,164,27663,1,0,1:0:0:0:
199,364,27868,1,0,0:0:0:0:
370,264,28073,37,2,0:0:0:0:
142,264,28278,1,0,0:0:0:0:
313,164,28484,1,0,1:0:0:0:
199,164,28689,1,0,0:0:0:0:
256,64,28894,1,2,0:0:0:0:
256,264,29099,1,0,0:0:0:0:
142,64,29304,1,0,1:0:0:0:
370,64,29509,37,0,1:0:0:0:
370,64,29611,1,0,1:0:0:0:
370,64,29714,2,0,L|470:64,1,100,4|0,0:0|0:0,0:0:0:0:
142,64,30124,2,0,L|42:64,1,100,0|0,1:0|0:0,0:0:0:0:
313,164,30534,2,0,L|413:164,1,100,2|0,0:0|0:0,0:0:0:0:
199,164,30944,2,0,L|99:164,1,100,0|0,1:0|0:0,0:0:0:0:
256,264,31354,1,4,0:0:0:0:
370,64,31559,5,0,1:0:0:0:
347,53,31661,1,0,1:0:0:0:
324,43,31764,1,0,1:0:0:0:
301,33,31866,1,0,1:0:0:0:
278,23,31969,1,0,1:0:0:0:
256,12,32071,1,0,1:0:0:0:
234,23,32175,5,0,1:0:0:0:
211,33,32278,1,0,1:0:0:0:
188,43,32380,1,0,1:0:0:0:
165,53,32483,1,0,1:0:0:0:
142,64,32585,38,0,L|154:112,1,50,0|0,1:0|1:0,0:0:0:0:
358,112,32790,2,0,L|370:64,1,50,0|0,1:0|1:0,0:0:0:0:
256,12,32995,38,0,B|256:119|256:119|252:127|252:127|260:127|260:127|256:135|256:135|256:242,1,239.999992675781,4|0,0:0|1:0,0:0:0:0:
154,112,33610,1,2,0:0:0:0:
358,112,33815,1,0,3:0:0:0:
256,356,34020,1,2,0:0:0:0:
256,128,34225,1,0,1:0:0:0:
356,299,34430,6,0,P|412:318|468:299,1,119.999996337891,2|0,0:0|3:0,0:0:0:0:
156,299,34840,2,0,P|100:318|44:299,1,119.999996337891,2|0,0:0|1:0,0:0:0:0:
316,192,35250,2,0,P|256:108|196:192,1,239.999992675781,2|2,0:0|0:0,0:0:0:0:
256,356,35866,1,0,1:0:0:0:
362,76,36071,6,0,P|256:28|150:76,1,239.999992675781,4|2,0:0|0:0,0:0:0:0:
316,192,36686,1,0,1:0:0:0:
256,100,36891,1,2,0:0:0:0:
196,192,37096,1,0,3:0:0:0:
362,76,37301,1,2,0:0:0:0:
256,280,37506,1,0,1:0:0:0:
150,76,37711,6,0,B|108:69|85:90|77:108|77:108|62:139,1,119.999996337891,2|0,0:0|3:0,0:0:0:0:
362,76,38121,2,0,B|403:69|426:90|434:108|434:108|449:139,1,119.999996337891,2|0,0:0|1:0,0:0:0:0:
196,192,38531,2,0,L|81:226,1,119.999996337891,2|0,0:0|3:0,0:0:0:0:
316,192,38941,2,0,L|430:226,1,119.999996337891,2|0,0:0|1:0,0:0:0:0:
256,280,39352,22,0,B|216:222|252:170|256:166|260:162|296:110|256:52,1,239.999992675781,4|2,0:0|0:0,0:0:0:0:
134,192,39967,1,0,1:0:0:0:
378,192,40172,1,2,0:0:0:0:
256,52,40377,1,0,3:0:0:0:
256,280,40582,1,2,0:0:0:0:
362,76,40787,1,0,1:0:0:0:
150,76,40992,6,0,B|92:76|92:76|48:119,1,119.999996337891,2|0,0:0|3:0,0:0:0:0:
362,76,41402,2,0,B|420:76|420:76|463:119,1,119.999996337891,2|0,0:0|1:0,0:0:0:0:
344,308,41812,2,0,B|288:324|256:384|256:384|224:324|168:308,1,239.999992675781,2|2,0:0|0:0,0:0:0:0:
256,208,42427,1,0,1:0:0:0:
344,308,42633,1,2,0:0:0:0:
256,180,42838,21,4,0:0:0:0:
123,330,43043,1,2,0:0:0:0:
256,152,43248,37,4,1:0:0:0:
389,330,43453,1,2,0:0:0:0:
256,124,43658,5,4,0:0:0:0:
78,352,43863,1,2,0:0:0:0:
256,96,44068,37,4,1:0:0:0:
434,352,44273,1,2,0:0:0:0:
256,68,44478,5,4,0:0:0:0:
92,192,44683,1,6,0:0:0:0:
420,192,44888,1,4,1:0:0:0:
256,40,45093,37,6,0:0:0:0:
256,40,45503,1,2,0:0:0:0:
176,118,45708,5,0,1:0:0:0:
211,145,45810,1,0,1:0:0:0:
256,156,45913,1,0,1:0:0:0:
301,145,46015,1,0,1:0:0:0:
336,118,46119,6,0,P|352:170|336:222,1,110.000003356934,4|2,1:0|0:0,0:0:0:0:
256,312,46529,1,0,1:0:0:0:
176,221,46734,1,2,0:0:0:0:
176,221,46836,1,2,0:0:0:0:
176,221,46939,2,0,P|160:169|176:117,1,110.000003356934,4|2,3:0|0:0,0:0:0:0:
256,27,47349,1,0,1:0:0:0:
336,118,47554,5,2,0:0:0:0:
336,118,47656,1,2,0:0:0:0:
336,118,47759,2,0,B|388:100|388:100|440:118,1,110.000003356934,2|2,1:0|0:0,0:0:0:0:
440,222,48067,2,0,B|422:170|422:170|440:118,1,110.000003356934,2|0,1:0|0:0,0:0:0:0:
439,14,48374,1,2,1:0:0:0:
439,14,48477,1,2,1:0:0:0:
439,14,48579,2,0,B|457:66|457:66|439:118,1,110.000003356934,2|2,1:0|0:0,0:0:0:0:
440,325,48989,1,0,1:0:0:0:
176,266,49194,37,2,0:0:0:0:
176,266,49297,1,2,0:0:0:0:
176,266,49399,2,0,P|160:214|176:162,1,110.000003356934,4|2,1:0|0:0,0:0:0:0:
256,72,49809,1,0,1:0:0:0:
336,163,50014,1,2,0:0:0:0:
336,163,50116,1,2,0:0:0:0:
336,163,50219,2,0,P|352:215|336:267,1,110.000003356934,4|2,3:0|0:0,0:0:0:0:
256,357,50629,1,0,1:0:0:0:
176,266,50834,5,2,0:0:0:0:
176,266,50936,1,2,0:0:0:0:
176,266,51039,2,0,B|124:284|124:284|72:266,1,110.000003356934,2|2,1:0|0:0,0:0:0:0:
72,162,51347,2,0,B|90:214|90:214|72:266,1,110.000003356934,2|0,1:0|0:0,0:0:0:0:
73,370,51654,1,2,1:0:0:0:
73,370,51757,1,2,1:0:0:0:
73,370,51859,2,0,B|55:318|55:318|73:266,1,110.000003356934,2|2,1:0|0:0,0:0:0:0:
72,59,52269,1,0,1:0:0:0:
336,118,52475,37,2,0:0:0:0:
336,118,52578,1,2,0:0:0:0:
336,118,52680,2,0,P|352:170|336:222,1,110.000003356934,4|2,1:0|0:0,0:0:0:0:
256,312,53090,1,0,1:0:0:0:
176,221,53295,1,2,0:0:0:0:
176,221,53397,1,2,0:0:0:0:
176,221,53500,2,0,P|160:169|176:117,1,110.000003356934,4|2,3:0|0:0,0:0:0:0:
256,27,53910,1,0,1:0:0:0:
336,118,54115,5,0,1:0:0:0:
336,118,54217,1,0,1:0:0:0:
336,118,54321,5,0,1:0:0:0:
360,143,54423,1,0,1:0:0:0:
385,169,54526,1,0,1:0:0:0:
336,221,54628,5,0,1:0:0:0:
360,246,54730,1,0,1:0:0:0:
385,272,54833,1,0,1:0:0:0:
336,324,54937,5,0,1:0:0:0:
360,349,55039,1,4,1:0:0:0:
