osu file format v14

[General]
AudioFilename: Anna Kendrick - Cups (Pitch Perfect's -_02.mp3
AudioLeadIn: 0
PreviewTime: 105403
Countdown: 0
SampleSet: None
StackLeniency: 0.7
Mode: 0
LetterboxInBreaks: 0
WidescreenStoryboard: 1

[Editor]
DistanceSpacing: 1.2
BeatDivisor: 4
GridSize: 4
TimelineZoom: 0.9000001

[Metadata]
Title:Cups
TitleUnicode:Cups
Artist:Anna Kendrick
ArtistUnicode:Anna Kendrick
Creator:MusicBoX
Version:Normal
Source:
Tags:pitch perfect when you're gonna miss me when i'm im gone cup song
BeatmapID:788562
BeatmapSetID:358626

[Difficulty]
HPDrainRate:5
CircleSize:4
OverallDifficulty:5
ApproachRate:5
SliderMultiplier:1.2
SliderTickRate:2

[Events]
//Background and Video events
0,0,"1A755E486CF5E11E444E46758108A27D2013247125129649.jpg",0,0
Video,0,"Anna Kendrick - Cups (Pitch Perfects When Im Gone)_1.flv"
//Break Periods
2,135141,141587
2,172064,178510
//Storyboard Layer 0 (Background)
//Storyboard Layer 1 (Fail)
//Storyboard Layer 2 (Pass)
//Storyboard Layer 3 (Foreground)
//Storyboard Sound Samples

[TimingPoints]
83711,461.538461538462,4,2,0,50,1,0
105864,-100,4,3,0,50,0,1
135403,-100,4,2,0,50,0,0
157557,-100,4,3,0,50,0,1
172326,-100,4,2,0,50,0,0
201864,-100,4,3,0,50,0,1
216634,-100,4,2,0,50,0,0
230941,-100,4,2,0,5,0,1
230970,-100,4,2,0,5,0,0

[Colours]
Combo1 : 255,89,89
Combo2 : 108,255,108
Combo3 : 117,117,255
Combo4 : 255,136,64
Combo5 : 79,145,255

[HitObjects]
54,183,83710,5,8,0:0:0:0:
54,183,83941,1,8,0:0:0:0:
116,218,84172,2,0,P|176:234|235:194,2,120
218,116,85557,2,0,P|264:74|326:87,1,120
377,120,86249,1,0,0:0:0:0:
313,153,86480,2,0,B|290:205|313:272,1,120
449,301,87403,5,8,0:0:0:0:
386,336,87634,1,8,0:0:0:0:
314,329,87864,2,0,P|256:316|198:329,1,120
126,336,88557,1,0,0:0:0:0:
63,301,88787,1,0,0:0:0:0:
63,83,89249,5,0,0:0:0:0:
126,48,89480,1,0,0:0:0:0:
198,55,89710,2,0,P|256:68|314:55,1,120
386,48,90403,1,0,0:0:0:0:
449,83,90633,1,0,0:0:0:0:
455,226,91095,1,4,0:0:0:0:
391,260,91326,6,0,L|441:324,2,60,0|2|0,0:0|0:0|0:0,0:0:0:0:
394,188,92018,1,0,0:0:0:0:
394,188,92249,1,0,0:0:0:0:
330,222,92480,2,0,L|261:222,1,60,2|0,0:0|0:0,0:0:0:0:
252,291,92941,2,2,B|173:259|144:314|55:271,2,180
124,224,94787,5,8,0:0:0:0:
78,168,95018,2,0,L|38:220,1,60,8|0,0:0|0:0,0:0:0:0:
74,279,95480,2,0,P|116:316|239:296,2,180,0|2|0,0:0|0:0|0:0,0:0:0:0:
69,207,97095,1,2,0:0:0:0:
103,143,97326,1,0,0:0:0:0:
296,46,98018,1,2,0:0:0:0:
353,89,98249,1,0,0:0:0:0:
416,55,98480,6,8,P|447:86|446:121,1,60
397,149,98941,2,2,P|366:180|367:215,1,60,0|2,0:0|0:0,0:0:0:0:
433,212,99403,2,2,P|464:243|463:278,1,60,0|2,0:0|0:0,0:0:0:0:
400,285,99864,2,0,P|325:295|279:268,1,120,2|0,0:0|0:0,0:0:0:0:
215,276,100557,2,2,B|209:216|270:236|241:138,1,120
175,180,101249,2,0,P|131:171|76:107,1,120
139,77,101941,5,0,0:0:0:0:
207,100,102172,2,2,P|241:95|340:119,1,120
307,254,103095,2,2,P|341:259|440:235,2,120
185,331,104480,1,0,0:0:0:0:
120,299,104710,1,0,0:0:0:0:
98,83,105403,5,0,0:0:0:0:
43,216,105864,2,0,P|98:182|216:225,1,180,4|0,0:0|0:0,0:0:0:0:
156,264,106787,1,0,0:0:0:0:
211,310,107018,1,0,0:0:0:0:
264,261,107249,2,0,P|327:302|394:300,2,120,0|4|2,0:0|0:0|0:0,0:0:0:0:
195,239,108403,2,0,P|223:200|335:243,1,180,0|2,0:0|0:0,0:0:0:0:
455,158,109557,5,4,0:0:0:0:
399,112,109787,1,0,0:0:0:0:
386,183,110018,2,0,P|344:201|273:168,1,120,2|0,0:0|0:0,0:0:0:0:
218,134,110710,2,0,P|172:122|141:130,1,60,0|2,0:0|0:0,0:0:0:0:
56,223,111403,2,0,P|53:143|82:89,1,120,4|2,0:0|0:0,0:0:0:0:
121,156,112095,2,0,P|124:236|95:290,1,120
150,330,112787,6,0,L|216:330,1,60,2|0,0:0|0:0,0:0:0:0:
227,259,113249,2,0,L|200:196,2,60,4|0|2,0:0|0:0|0:0,0:0:0:0:
280,307,113941,1,0,0:0:0:0:
346,335,114172,2,0,P|418:333|472:248,1,180,4|0,0:0|0:0,0:0:0:0:
400,241,115095,2,0,P|363:200|398:137,1,120,4|2,0:0|0:0,0:0:0:0:
449,114,115787,1,0,0:0:0:0:
389,73,116018,2,0,P|353:52|268:67,1,120,0|2,0:0|0:0,0:0:0:0:
134,77,116941,6,0,P|80:103|59:164,1,120,4|2,0:0|0:0,0:0:0:0:
191,211,117864,2,0,P|222:252|196:329,1,120,4|2,0:0|0:0,0:0:0:0:
331,238,118787,2,0,P|436:162|294:174,1,360,4|2,0:0|0:0,0:0:0:0:
43,168,120634,2,0,P|98:202|216:159,1,180,4|0,0:0|0:0,0:0:0:0:
156,120,121557,1,0,0:0:0:0:
211,74,121788,1,0,0:0:0:0:
264,123,122019,2,0,P|327:82|394:84,2,120,0|4|2,0:0|0:0|0:0,0:0:0:0:
195,145,123173,2,0,P|223:184|335:141,1,180,0|2,0:0|0:0,0:0:0:0:
455,226,124327,5,4,0:0:0:0:
399,272,124557,1,0,0:0:0:0:
386,201,124788,2,0,P|344:183|273:216,1,120,2|0,0:0|0:0,0:0:0:0:
218,250,125480,2,0,P|172:262|141:254,1,60,0|2,0:0|0:0,0:0:0:0:
56,161,126173,2,0,P|53:241|82:295,1,120,4|2,0:0|0:0,0:0:0:0:
121,228,126865,2,0,P|124:148|95:94,1,120
150,54,127557,6,0,L|216:54,1,60,2|0,0:0|0:0,0:0:0:0:
227,125,128019,2,0,L|200:188,2,60,4|0|2,0:0|0:0|0:0,0:0:0:0:
280,77,128711,1,0,0:0:0:0:
346,49,128942,2,0,P|418:51|472:136,1,180,4|0,0:0|0:0,0:0:0:0:
400,143,129865,2,0,P|363:184|398:247,1,120,4|2,0:0|0:0,0:0:0:0:
449,270,130557,1,0,0:0:0:0:
389,311,130788,2,0,P|353:332|268:317,1,120,0|2,0:0|0:0,0:0:0:0:
134,307,131711,6,0,P|80:281|59:220,1,120,4|2,0:0|0:0,0:0:0:0:
191,173,132634,2,0,P|222:132|196:55,1,120,4|2,0:0|0:0,0:0:0:0:
331,146,133557,2,0,P|436:222|294:210,1,360,4|2,0:0|0:0,0:0:0:0:
420,317,142787,5,8,0:0:0:0:
359,278,143018,2,0,L|329:201,1,60,8|0,0:0|0:0,0:0:0:0:
407,202,143480,2,0,L|435:132,1,60,0|8,0:0|0:0,0:0:0:0:
358,134,143941,2,0,L|330:64,2,60
338,203,144634,2,0,P|300:220|227:190,2,120,2|0|2,0:0|0:0|0:0,0:0:0:0:
396,161,145787,1,0,0:0:0:0:
398,88,146018,1,2,0:0:0:0:
257,54,146480,5,8,0:0:0:0:
257,54,146710,1,8,0:0:0:0:
193,87,146941,2,0,P|137:105|124:104,1,60
67,85,147403,2,0,P|53:132|90:208,1,120,8|0,0:0|0:0,0:0:0:0:
132,242,148095,2,0,P|169:258|203:254,1,60,0|2,0:0|0:0,0:0:0:0:
64,331,148787,1,0,0:0:0:0:
64,331,149018,1,0,0:0:0:0:
207,341,149480,1,0,0:0:0:0:
207,341,149710,6,0,P|255:341|276:327,1,60,2|0,0:0|0:0,0:0:0:0:
328,301,150172,2,8,L|367:352,1,60
406,289,150634,2,0,L|457:250,1,60
390,217,151095,2,0,L|324:234,2,60,8|0|8,0:0|0:0|0:0,0:0:0:0:
429,156,151787,1,0,0:0:0:0:
375,107,152018,2,0,P|336:72|262:90,1,120
312,141,152710,1,0,0:0:0:0:
366,187,152941,2,0,P|344:219|255:223,1,120,2|0,0:0|0:0,0:0:0:0:
210,186,153634,1,0,0:0:0:0:
146,218,153864,6,0,P|119:257|146:328,2,120,4|0|4,0:0|0:0|0:0,0:0:0:0:
266,138,155249,1,0,0:0:0:0:
401,88,155710,2,2,P|412:149|190:235,1,360,6|2,0:0|0:0,0:0:0:0:
54,282,157557,6,0,P|54:184|190:135,1,240,4|2,0:0|0:0,0:0:0:0:
188,198,158710,1,0,0:0:0:0:
140,252,158941,2,0,L|175:303,1,60,2|0,0:0|0:0,0:0:0:0:
245,313,159403,2,0,B|327:300|296:214|376:194,2,180
268,170,161249,6,0,L|317:105,1,60
370,93,161710,1,2,0:0:0:0:
403,156,161941,2,0,L|427:222,1,60
364,254,162403,1,0,0:0:0:0:
425,292,162634,2,0,P|416:328|327:328,1,120,2|0,0:0|0:0,0:0:0:0:
199,328,163557,1,2,0:0:0:0:
127,319,163787,1,0,0:0:0:0:
66,279,164018,2,0,B|36:214|106:234|71:169,1,120,0|2,0:0|0:0,0:0:0:0:
42,102,164710,5,0,0:0:0:0:
100,59,164941,2,0,L|162:48,1,60
200,107,165403,2,0,L|262:141,1,60,2|0,0:0|0:0,0:0:0:0:
291,74,165864,2,0,L|353:63,1,60
404,111,166326,1,2,0:0:0:0:
441,172,166557,1,0,0:0:0:0:
400,231,166787,2,0,L|338:220,1,60
300,279,167249,2,0,L|238:313,1,60,2|0,0:0|0:0,0:0:0:0:
209,246,167710,2,0,P|151:233|87:188,2,120,0|2|0,0:0|0:0|0:0,0:0:0:0:
277,223,168864,5,0,0:0:0:0:
340,189,169095,2,0,P|373:151|359:79,1,120,2|0,0:0|0:0,0:0:0:0:
240,159,170018,2,0,P|207:197|221:269,1,120,2|0,0:0|0:0,0:0:0:0:
73,237,170941,1,2,0:0:0:0:
73,237,171172,1,0,0:0:0:0:
93,94,171634,2,0,L|169:72,1,60,0|2,0:0|0:0,0:0:0:0:
362,70,179710,6,0,L|415:132,1,60,8|8,0:0|0:0,0:0:0:0:
343,159,180172,2,0,L|285:188,3,60,2|0|8|0,0:0|0:0|0:0|0:0,0:0:0:0:
313,254,181095,1,10,0:0:0:0:
184,318,181557,2,0,L|122:291,1,60,8|0,0:0|0:0,0:0:0:0:
78,242,182018,1,10,0:0:0:0:
87,170,182249,2,0,L|211:152,1,120,8|0,0:0|0:0,0:0:0:0:
185,83,182941,1,10,0:0:0:0:
150,314,183403,6,0,L|97:252,1,60,8|8,0:0|0:0,0:0:0:0:
169,225,183865,2,0,L|227:196,3,60,2|0|8|0,0:0|0:0|0:0|0:0,0:0:0:0:
199,130,184788,1,10,0:0:0:0:
328,66,185250,2,0,L|390:93,1,60,8|0,0:0|0:0,0:0:0:0:
434,142,185711,1,10,0:0:0:0:
425,214,185942,2,0,L|301:232,1,120,8|0,0:0|0:0,0:0:0:0:
327,301,186634,1,10,0:0:0:0:
299,159,187095,5,8,0:0:0:0:
299,159,187326,1,0,0:0:0:0:
336,97,187557,2,0,L|408:60,2,60,8|0|8,0:0|0:0|0:0,0:0:0:0:
264,89,188249,1,0,0:0:0:0:
192,80,188480,1,10,0:0:0:0:
142,215,188941,2,0,L|83:280,1,60,0|2,0:0|0:0,0:0:0:0:
168,287,189403,2,0,L|109:352,1,60,0|2,0:0|0:0,0:0:0:0:
101,259,189864,2,0,L|160:194,1,60,0|2,0:0|0:0,0:0:0:0:
211,231,190326,1,8,0:0:0:0:
336,301,190787,5,8,0:0:0:0:
336,301,191018,1,8,0:0:0:0:
364,234,191249,2,0,L|408:285,2,60,2|0|2,0:0|0:0|0:0,0:0:0:0:
341,165,191941,1,0,0:0:0:0:
385,108,192172,1,8,0:0:0:0:
176,301,192634,5,8,0:0:0:0:
176,301,192865,1,0,0:0:0:0:
148,234,193096,2,0,L|104:285,2,60,10|0|2,0:0|0:0|0:0,0:0:0:0:
171,165,193788,1,0,0:0:0:0:
127,108,194019,1,8,0:0:0:0:
256,192,198172,12,8,201403,0:0:0:0:
458,102,201864,6,0,P|458:200|322:249,1,240,4|2,0:0|0:0,0:0:0:0:
324,186,203017,1,0,0:0:0:0:
372,132,203249,2,0,L|340:72,1,60,2|0,0:0|0:0,0:0:0:0:
267,71,203710,2,0,B|185:84|216:170|136:190,2,180
244,214,205556,6,0,L|195:279,1,60
142,291,206017,1,2,0:0:0:0:
109,228,206249,2,0,L|85:162,1,60
148,130,206710,1,0,0:0:0:0:
87,92,206941,2,0,P|96:56|185:56,1,120,2|0,0:0|0:0,0:0:0:0:
313,56,207864,1,2,0:0:0:0:
385,65,208094,1,0,0:0:0:0:
446,105,208325,2,0,B|476:170|406:150|441:215,1,120,0|2,0:0|0:0,0:0:0:0:
470,282,209017,5,0,0:0:0:0:
412,325,209249,2,0,L|350:336,1,60
312,277,209710,2,0,L|250:243,1,60,2|0,0:0|0:0,0:0:0:0:
221,310,210172,2,0,L|159:321,1,60
108,273,210633,1,2,0:0:0:0:
71,212,210864,1,0,0:0:0:0:
112,153,211095,2,0,L|174:164,1,60
212,105,211556,2,0,L|274:71,1,60,2|0,0:0|0:0,0:0:0:0:
303,138,212017,2,0,P|361:151|425:196,2,120,0|2|0,0:0|0:0|0:0,0:0:0:0:
235,161,213171,5,0,0:0:0:0:
172,195,213402,2,0,P|139:233|153:305,1,120,2|0,0:0|0:0,0:0:0:0:
272,225,214325,2,0,P|305:187|291:115,1,120,2|0,0:0|0:0,0:0:0:0:
439,147,215248,1,2,0:0:0:0:
439,147,215479,1,0,0:0:0:0:
419,290,215941,2,0,L|343:312,1,60,0|2,0:0|0:0,0:0:0:0:
230,317,216634,6,0,P|143:298|80:149,1,240,2|0,0:0|0:0,0:0:0:0:
55,317,218018,1,2,0:0:0:0:
55,317,218480,2,0,P|122:274|149:161,2,180,2|0|2,0:0|0:0|0:0,0:0:0:0:
199,319,220326,5,2,0:0:0:0:
269,304,220557,2,0,L|331:332,1,60
315,245,221018,2,0,P|354:202|353:137,1,120
326,75,221711,2,0,P|269:70|215:122,1,120,2|2,0:0|0:0,0:0:0:0:
79,85,222634,1,0,0:0:0:0:
177,189,223095,1,0,0:0:0:0:
38,228,223557,6,0,L|51:293,1,60,2|0,0:0|0:0,0:0:0:0:
117,261,224018,2,0,L|171:288,1,60,2|0,0:0|0:0,0:0:0:0:
127,344,224480,1,2,0:0:0:0:
198,354,224711,1,0,0:0:0:0:
262,322,224941,2,0,B|331:296|319:346|395:310,1,120,2|0,0:0|0:0,0:0:0:0:
424,260,225634,2,0,P|451:216|448:194,1,60,0|2,0:0|0:0,0:0:0:0:
416,146,226095,1,0,0:0:0:0:
358,189,226326,1,2,0:0:0:0:
358,189,226557,1,0,0:0:0:0:
302,234,226787,2,0,P|259:214|269:138,1,120,2|0,0:0|0:0,0:0:0:0:
256,192,227711,12,0,230941,0:0:0:0:
