osu file format v14

[General]
AudioFilename: audio.mp3
AudioLeadIn: 0
PreviewTime: 0
Countdown: 1
SampleSet: None
StackLeniency: 0.6
Mode: 0
LetterboxInBreaks: 0
WidescreenStoryboard: 1

[Editor]
Bookmarks: 31012
DistanceSpacing: 1
BeatDivisor: 4
GridSize: 16
TimelineZoom: 1.6

[Metadata]
Title:Tunteisiin (TV Size)
TitleUnicode:Tunteisiin (TV Size)
Artist:Anna Hanski
ArtistUnicode:Anna Hanski
Creator:Rustamthebest
Version:Normal
Source:Salatut elämät
Tags:Salatut elämät, Ismo Lateila, Finland, Tunteisiin, Salkkarit
BeatmapID:1908262
BeatmapSetID:913517

[Difficulty]
HPDrainRate:4
CircleSize:3
OverallDifficulty:5
ApproachRate:5
SliderMultiplier:1.40000000596046
SliderTickRate:1

[Events]
//Background and Video events
0,0,"1801178.jpg",0,0
//Break Periods
//Storyboard Layer 0 (Background)
//Storyboard Layer 1 (Fail)
//Storyboard Layer 2 (Pass)
//Storyboard Layer 3 (Foreground)
//Storyboard Sound Samples

[TimingPoints]
162,370.37037037037,4,3,0,40,1,0
162,-100,4,3,0,40,0,0
523,272.727272727273,4,3,0,40,1,0
672,370.37037037037,4,3,0,40,1,0
34283,-100,4,3,0,5,0,0

[HitObjects]
464,160,162,5,4,0:0:0:0:
400,160,347,1,4,0:0:0:0:
336,160,523,1,4,0:0:0:0:
336,160,672,2,0,L|192:172,2,140.000000596046,4|0|0,0:0|0:0|0:0,0:0:0:0:
96,288,2153,6,4,L|255:301,1,140.000000596046
304,304,2709,1,4,0:0:0:0:
448,304,3079,1,4,0:0:0:0:
464,160,3449,1,4,0:0:0:0:
464,160,3634,2,0,L|320:172,1,140.000000596046,4|0,0:0|0:0,0:0:0:0:
208,240,4375,2,0,L|351:252,1,140.000000596046
224,336,5116,2,0,L|80:323,1,140.000000596046
288,256,6042,5,4,0:0:0:0:
288,192,6227,1,4,0:0:0:0:
288,128,6412,1,4,0:0:0:0:
288,128,6597,2,0,L|431:115,2,140.000000596046,4|0|0,0:0|0:0|0:0,0:0:0:0:
512,304,8079,6,4,L|352:317,1,140.000000596046,4|0,0:0|0:0,0:0:0:0:
304,320,8634,1,4,0:0:0:0:
304,176,9005,1,4,0:0:0:0:
160,176,9375,1,4,0:0:0:0:
160,176,9560,2,0,L|147:319,1,140.000000596046,4|0,0:0|0:0,0:0:0:0:
288,320,10301,2,0,L|427:307,1,140.000000596046
464,176,11042,2,0,L|451:32,1,140.000000596046
320,48,11783,5,4,0:0:0:0:
176,48,12153,1,4,0:0:0:0:
32,48,12523,2,0,L|19:191,1,140.000000596046,4|0,0:0|0:0,0:0:0:0:
16,320,13264,2,0,P|72:366|144:371,1,140.000000596046
208,368,13820,2,4,L|278:362,1,70.000000298023
416,336,14746,6,0,L|428:196,1,140.000000596046
432,128,15301,2,4,L|438:58,1,70.000000298023
304,48,15857,2,4,L|234:42,1,70.000000298023
96,48,16412,2,0,L|89:127,1,70.000000298023,4|0,0:0|0:0,0:0:0:0:
80,192,16783,2,0,P|120:287|213:332,1,210.000000894069
352,336,17709,5,4,0:0:0:0:
352,192,18079,1,4,0:0:0:0:
352,48,18449,2,0,L|212:35,1,140.000000596046,4|0,0:0|0:0,0:0:0:0:
416,320,19746,5,4,0:0:0:0:
416,320,19931,2,0,P|384:256|320:224,1,140.000000596046,4|0,0:0|0:0,0:0:0:0:
237,326,21227,6,4,L|167:320,1,70.000000298023
66,222,21783,2,4,L|72:143,1,70.000000298023
182,67,22338,2,0,L|251:73,1,70.000000298023,4|0,0:0|0:0,0:0:0:0:
321,81,22709,2,0,P|417:113|481:209,1,210.000000894069,4|0,0:0|0:0,0:0:0:0:
268,182,23820,5,4,0:0:0:0:
268,246,24005,1,4,0:0:0:0:
268,310,24190,1,4,0:0:0:0:
268,310,24375,2,0,L|411:323,2,140.000000596046,4|0|0,0:0|0:0|0:0,0:0:0:0:
64,64,25857,6,0,L|223:77,1,140.000000596046,4|0,0:0|0:0,0:0:0:0:
272,80,26412,1,4,0:0:0:0:
416,96,26783,1,4,0:0:0:0:
400,240,27153,1,4,0:0:0:0:
400,240,27338,2,0,L|256:227,1,140.000000596046,4|0,0:0|0:0,0:0:0:0:
160,128,28079,2,0,L|303:140,1,140.000000596046
432,144,28820,1,8,0:0:0:0:
416,288,29190,6,4,L|336:281,1,70.000000298023
352,208,29560,6,4,L|421:214,1,70.000000298023
432,144,29931,6,4,L|352:137,1,70.000000298023
256,192,30301,12,0,34283,0:0:0:0:
