osu file format v14

[General]
AudioFilename: audio.ogg
AudioLeadIn: 0
PreviewTime: 48347
Countdown: 0
SampleSet: Soft
StackLeniency: 0.7
Mode: 0
LetterboxInBreaks: 0
WidescreenStoryboard: 1

[Editor]
Bookmarks: 24741,27433
DistanceSpacing: 1.1
BeatDivisor: 4
GridSize: 32
TimelineZoom: 2.4

[Metadata]
Title:Hana no Youni (TV Size)
TitleUnicode:花のように (TV Size)
Artist:Anna
ArtistUnicode:Anna
Creator:Nao Tomori
Version:Normal
Source:ツンデレ悪役令嬢リーゼロッテと実況の遠藤くんと解説の小林さん
Tags:Endo and Kobayashi Live! The Latest on Tsundere Villainess Lieselotte! Tsundere Akuyaku Reijou Reijo Rizerotte to Jikkyou Jikkyo no Endo-kun Endou-kun to Kaisetsu no Kobayashi-san japanese anime pop ed ending cut short version you ni
BeatmapID:4101564
BeatmapSetID:1975655

[Difficulty]
HPDrainRate:4
CircleSize:3
OverallDifficulty:3.5
ApproachRate:5
SliderMultiplier:1.06
SliderTickRate:1

[Events]
//Background and Video events
0,0,"lieselotte bg.jpg",0,0
Video,77,"tsunrize_ed.mp4"
//Break Periods
//Storyboard Layer 0 (Background)
//Storyboard Layer 1 (Fail)
//Storyboard Layer 2 (Pass)
//Storyboard Layer 3 (Foreground)
//Storyboard Layer 4 (Overlay)
//Storyboard Sound Samples

[TimingPoints]
126,384.615384615385,4,2,10,47,1,0
126,-100,4,2,10,47,0,0
24741,-100,4,2,10,62,0,0
48972,-66.6666666666667,4,2,10,87,0,0
49356,-86.9565217391304,4,2,10,77,0,1
72433,-100,4,2,10,67,0,0
73587,-57.0125427594071,4,2,10,87,0,1
73972,-90.9090909090909,4,2,10,77,0,0
86376,-90.9090909090909,4,2,0,38,0,0

[Colours]
Combo1 : 204,200,240
Combo2 : 164,255,164
Combo3 : 73,239,248
Combo4 : 245,75,75

[HitObjects]
41,64,126,6,0,P|23:153|48:222,2,159,2|0|0,0:0|0:0|0:0,0:0:0:0:
145,13,1664,2,0,B|229:-4|229:-4|306:52,1,159,2|0,0:0|0:0,0:0:0:0:
293,156,2626,1,2,0:0:0:0:
397,206,3010,2,0,P|451:208|467:69,1,212,2|0,0:0|0:0,0:0:0:0:
380,21,4164,1,0,0:0:0:0:
303,109,4549,6,0,L|123:143,1,159,2|0,0:0|0:0,0:0:0:0:
100,103,5318,2,0,P|62:98|-14:89,2,106,2|2|0,0:0|0:0|0:0,0:0:0:0:
148,70,6279,1,2,0:0:0:0:
256,161,6856,6,0,L|247:232,2,53,2|0|0,0:0|0:0|0:0,0:0:0:0:
340,80,7626,2,0,B|407:42|477:63|477:63|508:108|490:145,1,212,2|0,0:0|0:0,0:0:0:0:
438,229,8779,1,2,0:0:0:0:
345,299,9164,1,2,0:0:0:0:
345,299,9356,2,0,B|299:295|270:338|282:328|260:366|207:371,2,159,0|2|0,0:0|0:0|0:0,0:0:0:0:
438,229,10895,5,2,0:0:0:0:
352,150,11279,1,0,0:0:0:0:
237,170,11664,1,2,0:0:0:0:
176,269,12049,1,0,0:0:0:0:
61,291,12433,6,0,P|48:258|81:80,2,212,0|2|0,3:0|3:2|3:0,0:0:0:0:
168,349,14356,1,0,3:0:0:0:
168,349,14549,2,0,L|183:235,1,106,2|0,2:0|2:0,0:0:0:0:
293,279,15318,2,0,P|303:188|320:98,1,159,2|0,2:2|2:0,2:0:0:0:
309,63,16087,2,0,P|302:19|298:-4,2,53,2|0|2,0:0|3:0|0:0,0:0:0:0:
425,63,16856,6,0,B|507:110|492:200|492:200|465:214|435:230,1,212,2|2,2:0|0:0,0:0:0:0:
341,176,18010,1,2,0:0:0:0:
282,278,18395,1,2,0:0:0:0:
282,278,18587,2,0,B|206:262|179:316|206:315|159:372|89:356,1,212,0|2,3:0|3:2,0:0:0:0:
20,276,19741,1,0,3:0:0:0:
91,183,20126,2,0,B|115:112|120:101|120:101|83:33,2,159,0|2|2,3:0|0:0|3:2,0:0:0:0:
178,260,21664,6,0,P|212:269|300:178,1,159,0|2,3:0|0:0,0:0:0:0:
260,153,22433,1,0,3:0:0:0:
316,50,22818,1,0,3:0:0:0:
428,21,23202,2,0,B|408:94|426:138|423:100|463:178|422:241,2,212,2|0|2,3:2|3:0|3:2,0:0:0:0:
428,21,25895,5,0,3:0:0:0:
339,96,26279,1,2,3:2:0:0:
237,39,26664,1,0,3:0:0:0:
124,71,27049,1,0,3:0:0:0:
61,169,27433,1,0,3:0:0:0:
61,169,27626,1,2,0:0:0:0:
102,277,28010,2,0,B|166:302|244:258|202:251|240:180|356:210,1,265,2|0,0:0|3:0,0:0:0:0:
438,269,29356,6,0,P|437:297|427:380,2,106,2|0|0,3:2|3:0|3:0,0:0:0:0:
504,172,30510,2,0,P|492:117|472:56,1,106,2|0,3:2|3:0,0:0:0:0:
477,69,32433,5,2,3:2:0:0:
366,32,32818,1,0,3:0:0:0:
263,87,33202,1,0,3:0:0:0:
268,203,33587,2,0,P|275:247|283:331,1,106,2|0,3:2|3:0,0:0:0:0:
281,308,34741,2,0,P|238:343|131:323,1,159,0|0,3:0|0:0,0:0:0:0:
105,284,35510,5,2,3:2:0:0:
163,183,35895,1,0,3:0:0:0:
89,92,36279,1,0,3:0:0:0:
163,2,36664,2,0,P|195:30|276:26,1,106,2|0,3:2|3:0,0:0:0:0:
256,34,38587,5,2,3:2:0:0:
370,11,38972,1,0,3:0:0:0:
443,101,39356,1,0,3:0:0:0:
380,199,39741,1,0,3:0:0:0:
380,199,39933,1,2,0:0:0:0:
437,300,40318,2,0,P|380:294|124:376,1,318,2|2,0:0|0:0,0:0:0:0:
88,363,41664,5,0,3:0:0:0:
136,256,42049,1,0,3:0:0:0:
136,256,42241,1,2,0:0:0:0:
37,193,42626,2,0,P|33:119|75:34,1,159,2|0,0:0|3:0,0:0:0:0:
67,43,44741,5,2,3:2:0:0:
180,14,45126,1,0,3:0:0:0:
248,108,45510,1,0,3:0:0:0:
188,208,45895,1,0,3:0:0:0:
265,294,46279,2,0,B|317:314|443:265|431:132|356:53|356:53|343:98|371:129,1,424,0|12,3:0|0:0,0:0:0:0:
368,125,49356,6,0,P|431:111|503:104,1,121.900002325058,6|8,3:2|0:0,0:0:0:0:
396,5,50126,2,0,P|333:19|261:26,1,121.900002325058,0|8,3:0|0:0,0:0:0:0:
142,8,50895,1,0,3:0:0:0:
26,76,51279,1,8,0:0:0:0:
26,76,51472,1,2,0:0:0:0:
111,179,51856,1,2,0:0:0:0:
23,281,52241,2,0,P|63:323|183:307,1,182.850003487587,2|8,0:0|0:0,0:0:0:0:
242,332,53010,5,2,0:0:0:0:
242,332,53202,1,0,3:0:0:0:
332,232,53587,1,8,0:0:0:0:
332,232,53779,2,0,L|302:42,1,182.850003487587,2|8,0:0|0:0,0:0:0:0:
351,3,54549,1,2,0:0:0:0:
476,49,54933,1,2,0:0:0:0:
432,176,55318,2,0,B|451:299|451:299|428:266|393:258,1,182.850003487587,2|8,0:0|0:0,0:0:0:0:
274,281,56279,5,0,3:0:0:0:
151,326,56664,1,8,0:0:0:0:
50,242,57049,1,0,3:0:0:0:
73,113,57433,1,8,0:0:0:0:
73,113,57626,1,2,0:0:0:0:
196,68,58010,1,2,0:0:0:0:
296,152,58395,2,0,B|345:135|416:171|365:186|432:227|480:212,1,182.850003487587,2|8,0:0|0:0,0:0:0:0:
509,90,59356,5,0,3:0:0:0:
509,90,59549,1,2,0:0:0:0:
394,21,59933,2,0,P|338:18|264:66,1,121.900002325058,2|0,0:0|0:0,0:0:0:0:
254,109,60510,1,8,0:0:0:0:
131,53,60895,1,8,0:3:0:0:
31,142,61279,1,4,0:3:0:0:
70,270,61664,2,0,P|116:266|204:289,1,121.900002325058,6|8,3:2|0:0,0:0:0:0:
309,364,62433,5,2,3:2:0:0:
309,364,62626,1,2,0:0:0:0:
309,364,62818,1,8,0:0:0:0:
421,294,63202,2,0,P|423:204|406:151,1,121.900002325058,0|8,3:0|0:0,0:0:0:0:
371,122,63779,1,2,0:0:0:0:
251,183,64164,1,2,0:0:0:0:
129,125,64549,2,0,P|112:85|217:23,1,182.850003487587,2|8,0:0|0:0,0:0:0:0:
257,59,65318,5,2,0:0:0:0:
257,59,65510,2,0,B|296:69|339:50|326:45|391:51,1,121.900002325058,0|8,3:0|0:0,0:0:0:0:
441,29,66087,2,0,P|476:28|507:147,1,182.850003487587,2|8,0:0|0:0,0:0:0:0:
463,193,66856,1,2,0:0:0:0:
505,320,67241,1,2,0:0:0:0:
376,360,67626,2,0,B|317:340|317:340|306:291|269:206,1,182.850003487587,2|8,0:0|0:0,0:0:0:0:
163,155,68587,6,0,P|113:140|46:190,1,121.900002325058,2|8,3:2|0:0,0:0:0:0:
13,300,69356,1,2,3:2:0:0:
135,354,69741,1,8,0:0:0:0:
230,260,70126,1,0,3:0:0:0:
336,341,70510,1,4,0:3:0:0:
470,343,70895,5,6,3:2:0:0:
439,212,71279,1,8,0:0:0:0:
498,91,71664,2,8,P|456:74|423:69,1,60.950001162529
395,117,72049,2,8,P|353:134|320:139,1,60.950001162529
302,92,72433,2,0,B|236:91|141:119|177:143|129:224|7:211,1,318,6|12,3:2|0:0,0:0:0:0:
4,198,73972,6,0,P|-4:155|16:15,2,174.900005337525,6|0|8,3:2|3:0|0:0,0:0:0:0:
81,301,75510,2,0,B|124:318|178:289|155:286|211:252|263:273,2,174.900005337525,0|0|10,3:0|3:0|0:0,0:0:0:0:
4,198,77049,2,0,P|12:138|41:81,1,116.60000355835,2|8,3:2|0:0,0:0:0:0:
65,30,77626,2,0,P|103:66|169:89,1,116.60000355835,0|0,3:0|3:0,0:0:0:0:
224,73,78202,1,8,0:0:0:0:
340,19,78587,5,2,3:2:0:0:
443,95,78972,1,8,0:0:0:0:
402,216,79356,1,2,3:0:0:0:
402,216,79549,1,2,0:0:0:0:
402,216,79741,1,8,0:0:0:0:
465,327,80126,6,0,P|400:328|348:352,1,116.60000355835,6|8,3:2|2:0,0:0:0:0:
293,324,80702,1,0,3:0:0:0:
293,324,80895,2,0,P|228:323|176:299,1,116.60000355835,2|8,0:0|0:0,0:0:0:0:
73,372,81664,2,0,P|58:266|59:247,1,116.60000355835,0|10,3:0|0:2,0:0:0:0:
100,208,82241,2,0,P|105:149|123:85,1,116.60000355835,0|0,3:0|3:0,0:0:0:0:
156,40,82818,1,8,0:0:0:0:
279,74,83202,6,0,B|296:128|295:165|277:143|260:191|288:262,2,174.900005337525,2|2|8,3:2|3:2|0:0,0:0:0:0:
169,7,84741,1,2,3:2:0:0:
57,71,85126,1,8,0:0:0:0:
54,206,85510,1,8,0:3:0:0:
54,206,85702,1,4,0:3:0:0:
54,206,85895,2,0,P|69:257|76:285,2,58.3000017791749,8|8|6,3:0|0:0|3:2,0:0:0:0:
256,192,86472,12,0,92049,0:0:0:0:
