osu file format v14

[General]
AudioFilename: audio.ogg
AudioLeadIn: 0
PreviewTime: 48347
Countdown: 0
SampleSet: Soft
StackLeniency: 0.7
Mode: 0
LetterboxInBreaks: 0
WidescreenStoryboard: 1

[Editor]
Bookmarks: 24741
DistanceSpacing: 0.9
BeatDivisor: 4
GridSize: 32
TimelineZoom: 2.4

[Metadata]
Title:Hana no Youni (TV Size)
TitleUnicode:花のように (TV Size)
Artist:Anna
ArtistUnicode:Anna
Creator:Nao Tomori
Version:Hard
Source:ツンデレ悪役令嬢リーゼロッテと実況の遠藤くんと解説の小林さん
Tags:Endo and Kobayashi Live! The Latest on Tsundere Villainess Lieselotte! Tsundere Akuyaku Reijou Reijo Rizerotte to Jikkyou Jikkyo no Endo-kun Endou-kun to Kaisetsu no Kobayashi-san japanese anime pop ed ending cut short version you ni
BeatmapID:4101563
BeatmapSetID:1975655

[Difficulty]
HPDrainRate:5
CircleSize:3.6
OverallDifficulty:5.5
ApproachRate:7.2
SliderMultiplier:1.26
SliderTickRate:1

[Events]
//Background and Video events
0,0,"lieselotte bg.jpg",0,0
Video,77,"tsunrize_ed.mp4"
//Break Periods
//Storyboard Layer 0 (Background)
//Storyboard Layer 1 (Fail)
//Storyboard Layer 2 (Pass)
//Storyboard Layer 3 (Foreground)
//Storyboard Layer 4 (Overlay)
//Storyboard Sound Samples

[TimingPoints]
126,384.615384615385,4,2,10,47,1,0
126,-100,4,2,10,47,0,0
24741,-100,4,2,10,62,0,0
48972,-66.6666666666667,4,2,10,87,0,0
49356,-86.9565217391304,4,2,10,77,0,1
72433,-181.818181818182,4,2,10,67,0,0
73587,-66.6666666666667,4,2,10,87,0,1
73972,-90.9090909090909,4,2,10,77,0,0
86376,-90.9090909090909,4,2,0,38,0,0

[Colours]
Combo1 : 204,200,240
Combo2 : 164,255,164
Combo3 : 73,239,248
Combo4 : 245,75,75

[HitObjects]
84,64,126,6,0,P|65:102|76:249,2,189,2|2|2,0:0|0:0|0:0,0:0:0:0:
235,80,1664,2,0,P|253:171|224:260,2,189,2|2|2,0:0|0:0|0:0,0:0:0:0:
342,22,3202,2,0,P|386:2|465:29,1,126,2|0,0:0|0:0,0:0:0:0:
441,111,3779,2,0,P|484:150|479:234,1,126,2|0,0:0|0:0,0:0:0:0:
430,283,4356,2,0,L|357:269,1,63,2|0,0:0|0:0,0:0:0:0:
280,321,4741,6,0,B|223:311|184:345|197:346|148:376|78:362,2,189,2|2|0,0:0|0:0|0:0,0:0:0:0:
373,351,6087,1,0,0:0:0:0:
373,351,6279,2,0,B|418:363|458:378|458:378|457:377|466:334|488:275,1,189,2|2,0:0|0:0,0:0:0:0:
508,200,7049,1,2,0:0:0:0:
508,200,7241,2,0,P|494:154|456:78,1,126,0|0,0:0|0:0,0:0:0:0:
443,0,7818,6,0,P|429:88|342:123,2,189,2|2|2,0:0|0:0|0:0,0:0:0:0:
290,57,9356,2,0,P|216:71|104:91,1,189,2|2,0:0|0:0,0:0:0:0:
19,71,10126,1,0,0:0:0:0:
19,71,10318,2,0,P|30:143|30:212,1,126,2|0,0:0|0:0,0:0:0:0:
37,282,10895,6,0,P|85:308|164:281,1,126,2|2,0:0|0:0,0:0:0:0:
247,322,11472,1,0,0:0:0:0:
247,322,11664,2,0,P|295:296|374:323,1,126,2|2,0:0|0:0,0:0:0:0:
489,253,12433,6,0,L|470:122,1,126,0|0,3:3|3:0,0:0:0:0:
484,32,13010,1,2,0:0:0:0:
392,5,13202,1,2,3:2:0:0:
392,5,13395,2,0,P|348:5|315:25,1,63,0|0,0:0|3:0,0:0:0:0:
232,112,13779,2,0,P|174:136|113:128,1,126,2|0,0:0|0:0,0:0:0:0:
56,64,14356,1,0,3:2:0:0:
56,64,14549,2,0,P|79:107|88:150,1,63,2|0,0:0|3:0,0:0:0:0:
37,201,14933,2,0,P|26:230|9:257,1,63,2|0,0:0|3:0,0:0:0:0:
0,353,15318,2,0,B|35:361|105:338|76:333|135:308|199:319,1,189,0|0,0:0|3:0,0:0:0:0:
275,354,16087,5,0,0:0:0:0:
275,354,16279,1,0,3:2:0:0:
353,286,16472,2,0,P|337:235|250:227,1,126,2|2,0:0|0:0,0:0:0:0:
192,171,17049,2,0,P|166:192|60:162,1,126,0|2,3:0|3:2,0:0:0:0:
20,114,17626,2,0,P|17:70|16:37,1,63,2|0,0:0|3:0,0:0:0:0:
109,31,18010,2,0,P|112:75|113:108,2,63,2|0|2,0:0|3:0|0:0,0:0:0:0:
197,9,18587,2,0,P|263:21|349:37,1,126,0|0,3:0|3:0,0:0:0:0:
445,90,19164,5,2,0:0:0:0:
445,90,19356,1,0,3:0:0:0:
391,164,19549,2,0,P|409:224|413:250,1,63,2|0,0:0|3:0,0:0:0:0:
481,277,19933,2,0,P|449:321|311:312,1,189,2|0,0:0|3:0,0:0:0:0:
312,209,20702,1,0,0:0:0:0:
245,156,20895,1,0,3:0:0:0:
245,156,21087,2,0,P|240:97|228:76,1,63,0|0,0:0|3:0,0:0:0:0:
162,27,21472,2,0,B|117:0|34:17|34:17|63:20|95:49,1,189,2|0,0:0|3:0,0:0:0:0:
103,134,22241,5,2,0:0:0:0:
35,199,22433,1,0,3:2:0:0:
72,290,22626,2,0,P|109:289|216:285,1,126,2|0,0:0|0:0,0:0:0:0:
281,332,23202,2,0,P|344:329|407:328,3,126,2|0|0|0,3:2|3:0|3:0|3:0,0:0:0:0:
481,266,24549,1,0,0:0:0:0:
481,266,24645,1,0,0:0:0:0:
481,266,24741,6,0,P|481:216|478:193,1,63,0|0,3:0|0:0,0:0:0:0:
409,139,25126,2,0,P|406:107|407:76,2,63,0|0|0,3:0|0:0|3:0,0:0:0:0:
409,139,25895,1,0,3:0:0:0:
275,245,26279,6,0,P|223:240|197:228,1,63,2|0,3:2|0:0,0:0:0:0:
141,105,26664,2,0,P|162:152|165:181,1,63,2|0,3:2|0:0,0:0:0:0:
86,291,27049,2,0,P|116:248|139:231,1,63,2|0,3:2|0:0,0:0:0:0:
275,245,27433,1,2,3:2:0:0:
275,245,27626,2,0,B|323:243|342:280|412:277,1,126,0|2,0:0|2:0,0:0:0:0:
476,227,28202,2,0,B|492:195|502:184|502:184|477:112,2,126,0|0|0,3:0|3:0|3:0,0:0:0:0:
277,93,29356,6,0,P|274:33|274:18,1,63,2|0,3:2|0:0,0:0:0:0:
187,114,29741,2,0,P|184:54|184:39,1,63,2|0,3:2|0:0,0:0:0:0:
97,135,30126,2,0,P|94:75|94:60,1,63,2|0,3:2|0:0,0:0:0:0:
6,156,30510,2,0,P|3:96|3:81,1,63,2|0,3:2|0:0,0:0:0:0:
97,135,30895,2,0,P|116:176|109:324,2,189,0|2|0,3:0|2:0|3:0,0:0:0:0:
20,81,32241,1,0,0:0:0:0:
20,81,32337,1,0,0:0:0:0:
20,81,32433,6,0,P|23:37|31:1,1,63,2|0,3:2|0:0,0:0:0:0:
97,135,32818,2,0,P|100:91|108:55,1,63,2|0,3:2|0:0,0:0:0:0:
191,105,33202,2,0,P|194:61|202:25,1,63,2|0,3:2|0:0,0:0:0:0:
268,159,33587,2,0,P|271:115|279:79,1,63,2|0,3:2|0:0,0:0:0:0:
338,37,33972,2,0,P|396:23|453:83,1,126,0|0,3:0|3:0,0:0:0:0:
268,159,34741,2,0,P|210:145|153:205,1,126,2|0,3:2|3:0,0:0:0:0:
340,302,35510,6,0,P|390:307|421:303,1,63,2|0,3:2|0:0,0:0:0:0:
372,217,35895,2,0,P|322:212|291:216,1,63,2|0,3:2|0:0,0:0:0:0:
181,287,36279,2,0,P|231:292|262:288,1,63,0|2,3:0|0:0,0:0:0:0:
213,202,36664,2,0,P|163:197|132:201,1,63,2|0,3:2|0:0,0:0:0:0:
150,197,36952,1,0,0:0:0:0:
150,197,37049,2,0,B|96:203|33:195|28:186|28:186|20:148|51:117,2,189,2|2|0,3:2|0:0|3:0,0:0:0:0:
356,61,38587,6,0,P|357:92|354:124,1,63,2|0,3:2|0:0,0:0:0:0:
212,6,38972,2,0,P|243:5|275:9,1,63,2|0,3:2|0:0,0:0:0:0:
157,150,39356,2,0,P|155:118|159:87,1,63,2|0,3:2|0:0,0:0:0:0:
302,205,39741,1,2,3:2:0:0:
302,205,39933,2,0,P|270:206|239:202,1,63,0|2,0:0|3:2,0:0:0:0:
204,282,40318,2,0,P|133:271|84:386,2,189,0|0|2,0:0|3:0|0:0,0:0:0:0:
309,334,41664,6,0,B|335:338|367:348|367:348|439:311,1,126,0|0,3:0|3:0,0:0:0:0:
489,243,42241,2,0,P|483:196|482:165,1,63,2|0,0:0|3:0,0:0:0:0:
401,60,42626,1,2,0:0:0:0:
401,60,42818,2,0,P|407:107|408:138,1,63,0|0,3:0|0:0,0:0:0:0:
336,186,43202,2,0,B|289:187|272:207|285:213|250:233|214:227,3,126,2|0|0|0,3:2|3:0|3:0|3:0,0:0:0:0:
44,271,44741,6,0,P|55:316|60:348,1,63,2|0,3:2|0:0,0:0:0:0:
19,187,45126,2,0,P|25:156|33:126,1,63,2|0,3:2|0:0,0:0:0:0:
10,38,45510,2,0,P|72:10|138:51,1,126,2|2,3:2|3:2,0:0:0:0:
191,90,46087,1,8,0:3:0:0:
191,90,46183,1,12,0:3:0:0:
191,90,46279,2,0,P|253:118|319:77,1,126,0|0,3:2|3:0,0:0:0:0:
350,26,46856,2,0,L|366:162,1,126,0|2,0:0|0:0,0:0:0:0:
442,206,47433,1,0,3:0:0:0:
136,226,47818,5,14,0:0:0:0:
287,369,48395,1,8,0:3:0:0:
287,369,48779,1,8,0:3:0:0:
253,289,48972,2,0,B|232:232|232:232|235:219|235:219|208:141,1,141.750005407334,12|0,0:0|0:0,0:0:0:0:
177,84,49356,6,0,P|230:34|302:51,1,144.900002763748,6|8,3:2|0:0,0:0:0:0:
377,97,49933,1,0,0:0:0:0:
470,43,50126,2,0,B|500:107|500:107|488:141|480:192,1,144.900002763748,2|8,3:2|0:0,0:0:0:0:
506,269,50702,1,8,0:0:0:0:
506,269,50799,1,8,0:0:0:0:
506,269,50895,2,0,P|470:274|434:268,1,72.4500013818741,2|0,3:2|0:0,0:0:0:0:
357,238,51279,1,8,0:0:0:0:
357,238,51472,2,0,P|303:233|269:244,1,72.4500013818741,2|0,0:0|3:0,0:0:0:0:
152,302,51856,2,0,P|206:307|240:296,1,72.4500013818741,2|8,0:0|2:0,0:0:0:0:
95,234,52241,1,8,0:3:0:0:
95,234,52337,1,4,0:3:0:0:
95,234,52433,2,0,P|74:264|90:370,1,144.900002763748,0|8,3:0|0:0,0:0:0:0:
189,201,53010,5,2,0:2:0:0:
140,117,53202,2,0,P|73:112|-10:113,1,144.900002763748,2|8,3:2|0:0,0:0:0:0:
205,38,53779,1,2,0:0:0:0:
205,38,53876,1,8,0:0:0:0:
205,38,53972,2,0,P|272:43|355:42,1,144.900002763748,2|8,3:2|0:0,0:0:0:0:
450,8,54549,2,0,B|439:40|439:40|446:71|460:109,1,72.4500013818741,2|0,0:0|3:0,0:0:0:0:
512,220,54933,2,0,B|516:214|523:183|523:183|512:151,2,72.4500013818741,2|8|8,0:0|0:0|0:3,0:0:0:0:
502,230,55414,1,4,0:3:0:0:
494,241,55510,6,0,P|398:222|350:212,1,144.900002763748,6|8,3:2|0:0,0:0:0:0:
103,276,56279,2,0,P|92:323|102:363,1,72.4500013818741,2|0,3:2|0:0,0:0:0:0:
193,357,56664,2,0,P|204:310|194:270,1,72.4500013818741,8|2,0:0|0:0,0:0:0:0:
200,286,56952,1,2,0:0:0:0:
200,286,57049,2,0,L|230:111,1,144.900002763748,0|8,3:0|0:0,0:0:0:0:
311,188,57626,2,0,L|286:330,1,144.900002763748,2|2,0:0|0:0,0:0:0:0:
372,368,58202,1,8,0:0:0:0:
439,305,58395,1,2,0:0:0:0:
439,305,58491,1,2,0:0:0:0:
439,305,58587,2,0,B|422:269|418:245|418:245|429:210|475:172,1,144.900002763748,0|8,3:0|0:0,0:0:0:0:
483,0,59356,5,2,3:2:0:0:
429,70,59549,2,0,P|380:73|338:51,1,72.4500013818741,2|8,0:0|0:0,0:0:0:0:
275,17,59933,1,8,0:3:0:0:
275,17,60029,1,4,0:3:0:0:
275,17,60126,2,0,P|226:14|184:36,1,72.4500013818741,2|0,3:2|0:0,0:0:0:0:
77,98,60510,2,0,B|112:109|112:109|129:100|163:80,1,72.4500013818741,8|0,0:0|0:0,0:0:0:0:
11,29,60895,1,8,0:3:0:0:
0,156,61087,1,8,0:3:0:0:
75,199,61279,1,8,0:0:0:0:
86,301,61471,1,4,0:3:0:0:
85,308,61568,1,4,0:3:0:0:
84,314,61664,2,0,P|144:301|254:288,1,144.900002763748,6|8,3:2|0:0,0:0:0:0:
334,349,62241,5,2,0:0:0:0:
395,279,62433,1,0,3:3:0:0:
352,198,62626,1,2,0:0:0:0:
352,198,62818,2,0,L|354:110,1,72.4500013818741,8|2,0:0|0:0,0:0:0:0:
353,125,63106,1,2,0:0:0:0:
353,125,63202,2,0,P|316:98|226:130,1,144.900002763748,0|8,3:0|0:0,0:0:0:0:
142,99,63779,2,0,B|129:73|129:73|134:39|144:11,1,72.4500013818741,2|0,0:0|3:0,0:0:0:0:
162,186,64164,2,0,B|175:212|175:212|170:246|160:274,1,72.4500013818741,2|8,0:0|2:0,0:0:0:0:
239,331,64549,1,2,0:0:0:0:
239,331,64645,1,2,0:0:0:0:
239,331,64741,2,0,L|93:354,1,144.900002763748,6|8,3:2|0:0,0:0:0:0:
18,315,65318,5,2,0:0:0:0:
18,208,65510,2,0,L|164:185,1,144.900002763748,2|8,3:2|0:0,0:0:0:0:
217,113,66087,1,2,0:0:0:0:
217,113,66183,1,8,0:0:0:0:
217,113,66279,2,0,L|363:90,1,144.900002763748,0|0,3:0|0:0,0:0:0:0:
429,32,66856,2,0,P|445:79|441:128,1,72.4500013818741,2|0,0:0|3:0,0:0:0:0:
398,189,67241,2,0,P|401:224|414:258,1,72.4500013818741,2|8,0:0|0:0,0:0:0:0:
487,327,67626,1,2,0:0:0:0:
487,327,67722,1,2,0:0:0:0:
487,327,67818,2,0,P|428:309|343:338,1,144.900002763748,6|8,3:2|0:0,0:0:0:0:
109,210,68587,6,0,P|162:223|239:95,1,217.350004145622,2|0,3:2|0:0,0:0:0:0:
234,91,69260,1,8,0:0:0:0:
218,79,69356,2,0,B|183:72|183:72|133:100,1,72.4500013818741,2|0,3:2|0:0,0:0:0:0:
109,210,69741,2,0,B|144:217|144:217|194:189,1,72.4500013818741,8|0,0:0|0:0,0:0:0:0:
262,253,70126,1,2,0:0:0:0:
346,205,70318,1,8,0:3:0:0:
435,257,70510,1,8,0:3:0:0:
427,363,70702,1,4,0:3:0:0:
427,363,70799,1,4,0:3:0:0:
427,363,70895,6,0,P|360:377|322:304,1,144.900002763748,6|10,3:2|0:0,0:0:0:0:
346,205,71472,1,8,0:0:0:0:
259,116,71664,2,0,L|169:128,1,72.4500013818741,10|8,0:0|0:0,0:0:0:0:
346,205,72049,2,0,L|436:193,1,72.4500013818741,10|8,0:0|0:0,0:0:0:0:
484,112,72433,6,0,B|437:108|397:155|421:155|393:198|330:208,1,173.250005287171,6|0,3:2|0:0,0:0:0:0:
240,154,73587,2,0,B|195:103|229:62|229:62|242:87|232:112,1,141.750005407334,8|0,0:0|0:0,0:0:0:0:
235,99,73972,6,0,P|179:83|121:152,1,138.600004229736,6|8,3:2|0:0,0:0:0:0:
65,208,74549,2,0,P|111:255|176:241,1,138.600004229736,0|0,3:2|3:0,0:0:0:0:
278,222,75126,2,0,P|274:282|273:316,1,69.3000021148682,8|2,0:0|0:0,0:0:0:0:
278,303,75414,1,8,0:0:0:0:
284,314,75510,1,0,3:0:0:0:
383,346,75702,2,0,P|433:353|460:355,1,69.3000021148682,0|8,3:0|0:0,0:0:0:0:
512,287,76087,2,0,B|525:249|506:209|490:229|481:193|498:146,1,138.600004229736,2|0,3:2|3:0,0:0:0:0:
511,68,76664,2,0,P|512:24|482:-8,1,69.3000021148682,8|0,0:0|0:0,0:0:0:0:
498,3,76952,1,2,0:0:0:0:
498,3,77049,6,0,L|332:35,1,138.600004229736,0|8,3:0|0:0,0:0:0:0:
301,107,77626,2,0,L|164:132,1,138.600004229736,0|0,3:0|3:0,0:0:0:0:
85,88,78202,1,8,0:0:0:0:
6,134,78395,1,2,0:0:0:0:
6,134,78491,1,10,0:0:0:0:
6,134,78587,6,0,P|8:175|36:218,1,69.3000021148682,2|0,3:2|3:0,0:0:0:0:
88,320,78972,2,0,P|101:288|102:254,1,69.3000021148682,8|0,0:0|3:0,0:0:0:0:
180,200,79356,1,2,0:0:0:0:
268,241,79549,1,2,3:2:0:0:
351,190,79741,6,0,P|355:128|368:51,2,138.600004229736,8|6|8,0:0|3:2|0:0,0:0:0:0:
414,263,80702,1,0,3:0:0:0:
492,197,80895,2,0,P|482:153|468:112,1,69.3000021148682,0|0,0:0|3:0,0:0:0:0:
368,122,81279,2,0,P|358:156|351:190,1,69.3000021148682,8|2,0:0|0:0,0:0:0:0:
341,198,81568,1,8,0:0:0:0:
332,206,81664,1,0,3:0:0:0:
255,151,81856,2,0,P|199:138|168:137,1,69.3000021148682,2|8,3:2|0:0,0:0:0:0:
108,87,82241,2,0,P|96:157|94:251,1,138.600004229736,0|0,3:0|3:0,0:0:0:0:
20,274,82818,2,0,P|10:240|5:206,1,69.3000021148682,8|2,2:2|0:0,0:0:0:0:
186,223,83202,6,0,P|182:292|170:360,1,138.600004229736,0|8,3:0|0:0,0:0:0:0:
277,337,83779,2,0,P|338:305|403:281,1,138.600004229736,0|0,3:0|3:0,0:0:0:0:
317,209,84356,2,0,P|287:190|261:168,1,69.3000021148682,8|0,0:0|0:0,0:0:0:0:
258,155,84645,1,8,0:0:0:0:
256,134,84741,2,0,P|265:86|280:55,1,69.3000021148682,2|0,3:2|3:0,0:0:0:0:
347,0,85126,2,0,B|367:34|376:62|376:62|371:105|379:149,1,138.600004229736,0|2,3:0|0:0,0:0:0:0:
448,189,85702,1,2,0:0:0:0:
358,240,85895,1,8,0:0:0:0:
277,295,86087,1,8,0:0:0:0:
202,382,86279,5,6,3:2:0:0:
256,192,86376,12,0,92049,0:0:0:0:
