osu file format v14

[General]
AudioFilename: audio.mp3
AudioLeadIn: 0
PreviewTime: -1
Countdown: 0
SampleSet: Soft
StackLeniency: 0.7
Mode: 3
LetterboxInBreaks: 0
SpecialStyle: 0
WidescreenStoryboard: 0

[Editor]
Bookmarks: -88
DistanceSpacing: 2.7
BeatDivisor: 4
GridSize: 4
TimelineZoom: 1

[Metadata]
Title:Kara no Kokoro
TitleUnicode:カラノココロ
Artist:Anly
ArtistUnicode:Anly
Creator:EveningBot
Version:Hard
Source:NARUTO-ナルト- 疾風伝
Tags:opening op20 seventh team Uzumaki Shippuden Hurricane Chronicles shini sotarks
BeatmapID:1420798
BeatmapSetID:672071

[Difficulty]
HPDrainRate:8
CircleSize:4
OverallDifficulty:7
ApproachRate:5
SliderMultiplier:1.4
SliderTickRate:1

[Events]
//Background and Video events
0,0,"MinatoxKushinaBG.png",0,0
//Break Periods
//Storyboard Layer 0 (Background)
//Storyboard Layer 1 (Fail)
//Storyboard Layer 2 (Pass)
//Storyboard Layer 3 (Foreground)
//Storyboard Sound Samples

[TimingPoints]
1408,748.129675810474,4,2,1,15,1,0
1408,-100,4,2,1,15,0,0
13378,545.454545454546,4,2,1,15,1,0
13379,-95.2380952380952,4,2,1,15,0,0

[HitObjects]
320,192,1033,5,0,0:0:0:0:
192,192,1408,1,0,0:0:0:0:
64,192,1782,1,0,0:0:0:0:
448,192,1969,1,0,0:0:0:0:
192,192,2156,128,0,2530:0:0:0:0:
320,192,2530,1,0,0:0:0:0:
64,192,2904,1,0,0:0:0:0:
448,192,2904,1,0,0:0:0:0:
192,192,2904,128,0,3278:0:0:0:0:
448,192,3278,128,0,3652:0:0:0:0:
320,192,3278,1,0,0:0:0:0:
64,192,3652,128,0,4026:0:0:0:0:
192,192,3652,1,0,0:0:0:0:
320,192,4026,1,0,0:0:0:0:
192,192,4400,1,0,0:0:0:0:
448,192,4400,1,0,0:0:0:0:
320,192,4774,1,0,0:0:0:0:
192,192,4961,1,0,0:0:0:0:
320,192,5148,1,0,0:0:0:0:
448,192,5148,1,0,0:0:0:0:
64,192,5522,1,0,0:0:0:0:
320,192,5896,1,0,0:0:0:0:
64,192,6270,1,0,0:0:0:0:
448,192,6270,1,0,0:0:0:0:
192,192,6644,1,0,0:0:0:0:
448,192,6644,1,0,0:0:0:0:
320,192,6644,128,0,7018:0:0:0:0:
64,192,7018,1,0,0:0:0:0:
320,192,7393,1,0,0:0:0:0:
448,192,7393,1,0,0:0:0:0:
192,192,7767,1,0,0:0:0:0:
448,192,8141,1,0,0:0:0:0:
192,192,8515,1,0,0:0:0:0:
448,192,8889,1,0,0:0:0:0:
64,192,8889,128,0,9263:0:0:0:0:
192,192,9263,1,0,0:0:0:0:
448,192,9263,128,0,9637:0:0:0:0:
320,192,9450,1,0,0:0:0:0:
192,192,9637,1,0,0:0:0:0:
64,192,9637,128,0,10011:0:0:0:0:
192,192,10011,1,0,0:0:0:0:
64,192,10385,1,0,0:0:0:0:
320,192,10385,1,0,0:0:0:0:
448,192,10385,1,0,0:0:0:0:
192,192,10759,1,0,0:0:0:0:
320,192,10946,1,0,0:0:0:0:
64,192,11133,1,0,0:0:0:0:
192,192,11133,1,0,0:0:0:0:
448,192,11507,1,0,0:0:0:0:
64,192,11507,1,0,0:0:0:0:
320,192,11881,1,0,0:0:0:0:
192,192,11881,128,0,12255:0:0:0:0:
448,192,12255,128,0,12442:0:0:0:0:
64,192,12442,128,0,13378:0:0:0:0:
320,192,12629,1,0,0:0:0:0:
192,192,13004,1,0,0:0:0:0:
192,192,13378,1,8,0:0:0:0:
448,192,13378,1,8,0:0:0:0:
320,192,13514,1,0,0:0:0:0:
192,192,13650,1,0,0:0:0:0:
64,192,13650,1,0,0:0:0:0:
320,192,13787,1,0,0:0:0:0:
192,192,13923,1,8,0:0:0:0:
448,192,13923,1,8,0:0:0:0:
64,192,14196,1,8,0:0:0:0:
320,192,14332,1,0,0:0:0:0:
64,192,14468,1,0,0:0:0:0:
192,192,14468,1,0,0:0:0:0:
448,192,14605,1,0,0:0:0:0:
192,192,14741,1,8,0:0:0:0:
320,192,14741,1,8,0:0:0:0:
64,192,15014,1,0,0:0:0:0:
320,192,15014,1,0,0:0:0:0:
448,192,15014,1,0,0:0:0:0:
192,192,15150,1,0,0:0:0:0:
320,192,15287,1,0,0:0:0:0:
448,192,15287,1,0,0:0:0:0:
192,192,15423,1,0,0:0:0:0:
64,192,15423,1,0,0:0:0:0:
192,192,15559,1,12,0:0:0:0:
320,192,15559,1,12,0:0:0:0:
448,192,15559,1,2,0:0:0:0:
64,192,15696,1,0,0:0:0:0:
192,192,15832,1,0,0:0:0:0:
448,192,15968,1,0,0:0:0:0:
320,192,16105,1,6,0:0:0:0:
64,192,16105,1,6,0:0:0:0:
192,192,16105,1,6,0:0:0:0:
448,192,16241,1,0,0:0:0:0:
320,192,16378,1,0,0:0:0:0:
448,192,16514,1,0,0:0:0:0:
192,192,16650,1,0,0:0:0:0:
320,192,16650,1,0,0:0:0:0:
64,192,16787,1,2,0:0:0:0:
320,192,16923,1,2,0:0:0:0:
448,192,17059,1,0,0:0:0:0:
192,192,17196,1,6,0:0:0:0:
448,192,17196,1,4,0:0:0:0:
320,192,17196,1,4,0:0:0:0:
64,192,17332,1,0,0:0:0:0:
448,192,17468,1,0,0:0:0:0:
192,192,17605,1,0,0:0:0:0:
64,192,17741,1,2,0:0:0:0:
320,192,17741,1,2,0:0:0:0:
448,192,17741,1,2,0:0:0:0:
192,192,17878,1,0,0:0:0:0:
448,192,18014,1,0,0:0:0:0:
64,192,18150,1,0,0:0:0:0:
320,192,18287,1,6,0:0:0:0:
448,192,18287,1,2,0:0:0:0:
64,192,18287,1,4,0:0:0:0:
192,192,18423,1,0,0:0:0:0:
64,192,18559,1,0,0:0:0:0:
448,192,18559,1,0,0:0:0:0:
320,192,18696,1,0,0:0:0:0:
192,192,18832,1,0,0:0:0:0:
448,192,18832,1,0,0:0:0:0:
320,192,18968,1,0,0:0:0:0:
64,192,18968,1,0,0:0:0:0:
192,192,19105,1,10,0:0:0:0:
320,192,19105,1,10,0:0:0:0:
448,192,19105,128,0,19378:0:0:0:0:
64,192,19378,1,8,0:0:0:0:
192,192,19378,1,8,0:0:0:0:
320,192,19514,1,0,0:0:0:0:
448,192,19650,1,0,0:0:0:0:
192,192,19650,1,0,0:0:0:0:
320,192,19787,1,0,0:0:0:0:
448,192,19923,1,4,0:0:0:0:
192,192,19923,1,4,0:0:0:0:
64,192,19923,128,0,20196:0:0:0:0:
320,192,20196,128,0,20332:0:0:0:0:
192,192,20196,1,0,0:0:0:0:
448,192,20332,128,0,20468:0:0:0:0:
64,192,20468,1,8,0:0:0:0:
320,192,20468,1,8,0:0:0:0:
192,192,20605,1,0,0:0:0:0:
320,192,20741,128,0,21014:0:0:0:0:
448,192,20741,1,0,0:0:0:0:
192,192,21014,1,0,0:0:0:0:
64,192,21150,1,8,0:0:0:0:
320,192,21287,1,8,0:0:0:0:
448,192,21287,1,0,0:0:0:0:
192,192,21423,1,0,0:0:0:0:
64,192,21559,1,0,0:0:0:0:
320,192,21559,1,0,0:0:0:0:
192,192,21696,1,0,0:0:0:0:
64,192,21832,1,4,0:0:0:0:
320,192,21832,1,4,0:0:0:0:
448,192,21832,1,0,0:0:0:0:
192,192,21968,1,0,0:0:0:0:
64,192,22105,1,0,0:0:0:0:
320,192,22105,1,0,0:0:0:0:
448,192,22105,1,0,0:0:0:0:
192,192,22241,1,0,0:0:0:0:
448,192,22378,1,0,0:0:0:0:
64,192,22378,128,0,22650:0:0:0:0:
192,192,22514,1,0,0:0:0:0:
320,192,22650,1,0,0:0:0:0:
448,192,22650,1,0,0:0:0:0:
64,192,22923,1,0,0:0:0:0:
192,192,22923,1,0,0:0:0:0:
320,192,22923,1,0,0:0:0:0:
448,192,23059,1,0,0:0:0:0:
192,192,23196,1,0,0:0:0:0:
320,192,23196,1,0,0:0:0:0:
448,192,23332,1,0,0:0:0:0:
320,192,23468,1,0,0:0:0:0:
64,192,23468,1,0,0:0:0:0:
192,192,23605,1,0,0:0:0:0:
320,192,23741,1,8,0:0:0:0:
448,192,23741,1,8,0:0:0:0:
64,192,23741,1,8,0:0:0:0:
192,192,23878,1,0,0:0:0:0:
320,192,24014,1,0,0:0:0:0:
64,192,24150,1,0,0:0:0:0:
192,192,24287,1,4,0:0:0:0:
320,192,24287,1,4,0:0:0:0:
448,192,24287,1,8,0:0:0:0:
64,192,24423,1,0,0:0:0:0:
192,192,24559,1,0,0:0:0:0:
448,192,24559,128,0,24832:0:0:0:0:
320,192,24696,1,0,0:0:0:0:
64,192,24832,128,0,25105:0:0:0:0:
192,192,24832,1,8,0:0:0:0:
320,192,24968,1,0,0:0:0:0:
448,192,25105,1,0,0:0:0:0:
192,192,25105,1,0,0:0:0:0:
192,192,25378,1,0,0:0:0:0:
320,192,25514,1,8,0:0:0:0:
448,192,25514,1,8,0:0:0:0:
64,192,25514,1,8,0:0:0:0:
192,192,25650,1,0,0:0:0:0:
448,192,25787,1,0,0:0:0:0:
64,192,25923,1,8,0:0:0:0:
192,192,25923,1,8,0:0:0:0:
320,192,26196,1,0,0:0:0:0:
64,192,26332,1,0,0:0:0:0:
192,192,26468,1,4,0:0:0:0:
448,192,26468,1,8,0:0:0:0:
64,192,26605,1,0,0:0:0:0:
448,192,26741,128,0,27014:0:0:0:0:
192,192,26741,1,0,0:0:0:0:
320,192,26878,1,0,0:0:0:0:
64,192,27014,128,0,27150:0:0:0:0:
192,192,27014,1,8,0:0:0:0:
320,192,27150,128,0,27287:0:0:0:0:
192,192,27287,128,0,28105:0:0:0:0:
448,192,27287,1,4,0:0:0:0:
64,192,27559,1,0,0:0:0:0:
448,192,27559,1,0,0:0:0:0:
320,192,27696,1,0,0:0:0:0:
448,192,27832,1,0,0:0:0:0:
64,192,27832,1,0,0:0:0:0:
320,192,28105,1,4,0:0:0:0:
448,192,28105,1,4,0:0:0:0:
64,192,28241,1,0,0:0:0:0:
448,192,28378,1,0,0:0:0:0:
192,192,28514,1,0,0:0:0:0:
320,192,28650,1,4,0:0:0:0:
448,192,28650,1,8,0:0:0:0:
64,192,28650,1,4,0:0:0:0:
192,192,28923,1,0,0:0:0:0:
320,192,29059,1,0,0:0:0:0:
64,192,29196,1,8,0:0:0:0:
192,192,29196,1,8,0:0:0:0:
448,192,29196,1,4,0:0:0:0:
320,192,29332,1,0,0:0:0:0:
192,192,29468,1,4,0:0:0:0:
448,192,29468,1,6,0:0:0:0:
64,192,29468,1,4,0:0:0:0:
320,192,29741,1,0,0:0:0:0:
448,192,29741,128,0,29878:0:0:0:0:
64,192,29878,128,0,30014:0:0:0:0:
192,192,29878,1,0,0:0:0:0:
320,192,30014,128,0,30287:0:0:0:0:
192,192,30014,1,0,0:0:0:0:
448,192,30287,1,2,0:0:0:0:
192,192,30287,1,2,0:0:0:0:
64,192,30559,1,2,0:0:0:0:
192,192,30559,1,2,0:0:0:0:
320,192,30696,1,8,0:0:0:0:
192,192,30832,1,8,0:0:0:0:
448,192,30832,1,4,0:0:0:0:
320,192,31105,1,4,0:0:0:0:
448,192,31105,1,4,0:0:0:0:
64,192,31105,1,0,0:0:0:0:
64,192,31378,1,4,0:0:0:0:
192,192,31378,1,4,0:0:0:0:
320,192,31378,1,8,0:0:0:0:
320,192,31514,1,8,0:0:0:0:
448,192,31514,1,8,0:0:0:0:
192,192,31650,1,8,0:0:0:0:
64,192,31650,1,8,0:0:0:0:
320,192,31787,1,0,0:0:0:0:
64,192,31923,1,8,0:0:0:0:
448,192,31923,1,4,0:0:0:0:
192,192,31923,1,8,0:0:0:0:
448,192,32196,1,8,0:0:0:0:
64,192,32196,1,4,0:0:0:0:
320,192,32196,1,4,0:0:0:0:
192,192,32468,1,0,0:0:0:0:
320,192,32468,1,0,0:0:0:0:
448,192,32605,1,0,0:0:0:0:
192,192,32741,1,0,0:0:0:0:
320,192,32878,1,0,0:0:0:0:
64,192,33014,1,8,0:0:0:0:
192,192,33014,1,8,0:0:0:0:
448,192,33014,1,8,0:0:0:0:
320,192,33150,1,0,0:0:0:0:
192,192,33287,1,0,0:0:0:0:
448,192,33423,1,0,0:0:0:0:
64,192,33423,1,0,0:0:0:0:
192,192,33559,1,8,0:0:0:0:
320,192,33559,1,4,0:0:0:0:
448,192,33696,1,0,0:0:0:0:
64,192,33832,1,4,0:0:0:0:
320,192,33832,1,8,0:0:0:0:
192,192,33832,128,0,34378:0:0:0:0:
448,192,34105,1,0,0:0:0:0:
64,192,34378,1,8,0:0:0:0:
448,192,34378,128,0,34650:0:0:0:0:
192,192,34650,1,4,0:0:0:0:
320,192,34650,1,4,0:0:0:0:
64,192,34787,1,0,0:0:0:0:
320,192,34923,1,0,0:0:0:0:
192,192,35059,1,0,0:0:0:0:
320,192,35196,1,8,0:0:0:0:
448,192,35196,1,8,0:0:0:0:
64,192,35196,1,8,0:0:0:0:
448,192,35468,1,0,0:0:0:0:
192,192,35605,1,8,0:0:0:0:
320,192,35605,1,8,0:0:0:0:
64,192,35741,1,0,0:0:0:0:
192,192,35878,1,0,0:0:0:0:
64,192,36014,1,8,0:0:0:0:
320,192,36014,1,8,0:0:0:0:
448,192,36014,128,0,36559:0:0:0:0:
192,192,36287,1,0,0:0:0:0:
64,192,36423,1,4,0:0:0:0:
192,192,36559,128,0,36832:0:0:0:0:
320,192,36559,1,0,0:0:0:0:
448,192,36832,1,4,0:0:0:0:
64,192,36832,1,12,0:0:0:0:
320,192,36968,1,0,0:0:0:0:
64,192,37105,1,0,0:0:0:0:
448,192,37105,1,0,0:0:0:0:
192,192,37241,1,0,0:0:0:0:
64,192,37378,1,8,2:0:0:0:
320,192,37378,128,0,37650:0:0:0:0:
448,192,37378,1,0,0:0:0:0:
448,192,37650,128,0,37787:0:0:0:0:
320,192,37787,128,0,37923:0:0:0:0:
64,192,37787,1,0,0:0:0:0:
448,192,37923,128,0,38059:0:0:0:0:
192,192,37923,1,0,0:0:0:0:
320,192,38059,128,0,38196:0:0:0:0:
448,192,38196,128,0,38332:0:0:0:0:
192,192,38196,1,0,0:0:0:0:
64,192,38196,1,0,0:0:0:0:
320,192,38332,128,0,38468:0:0:0:0:
448,192,38468,128,0,38741:0:0:0:0:
192,192,38468,1,0,0:0:0:0:
64,192,38605,1,0,0:0:0:0:
64,192,38741,128,0,39014:0:0:0:0:
192,192,38741,1,0,0:0:0:0:
320,192,38741,1,0,0:0:0:0:
320,192,39014,1,4,0:0:0:0:
448,192,39014,1,8,0:0:0:0:
192,192,39150,1,0,0:0:0:0:
320,192,39287,1,0,0:0:0:0:
192,192,39423,1,0,0:0:0:0:
448,192,39559,1,8,0:0:0:0:
320,192,39559,1,8,0:0:0:0:
64,192,39559,1,8,0:0:0:0:
192,192,39696,1,0,0:0:0:0:
448,192,39832,1,0,0:0:0:0:
192,192,39968,1,8,0:0:0:0:
64,192,39968,1,4,0:0:0:0:
320,192,39968,1,8,0:0:0:0:
320,192,40105,1,0,0:0:0:0:
448,192,40105,1,0,0:0:0:0:
64,192,40241,1,0,0:0:0:0:
448,192,40378,1,0,0:0:0:0:
192,192,40514,1,0,0:0:0:0:
320,192,40650,1,0,0:0:0:0:
192,192,40787,1,0,0:0:0:0:
64,192,40787,1,0,0:0:0:0:
320,192,40923,1,8,0:0:0:0:
448,192,40923,1,0,0:0:0:0:
192,192,41059,1,0,0:0:0:0:
320,192,41196,1,8,0:0:0:0:
448,192,41196,1,8,0:0:0:0:
192,192,41332,1,0,0:0:0:0:
448,192,41468,1,0,0:0:0:0:
64,192,41468,1,0,0:0:0:0:
192,192,41605,1,0,0:0:0:0:
320,192,41741,1,8,0:0:0:0:
448,192,41741,1,4,0:0:0:0:
64,192,41741,1,8,0:0:0:0:
192,192,41878,1,0,0:0:0:0:
448,192,42014,1,0,0:0:0:0:
192,192,42150,1,0,0:0:0:0:
64,192,42150,1,0,0:0:0:0:
320,192,42287,1,0,0:0:0:0:
192,192,42423,1,0,0:0:0:0:
448,192,42559,1,8,0:0:0:0:
64,192,42559,1,4,0:0:0:0:
320,192,42559,1,4,0:0:0:0:
192,192,42696,1,0,0:0:0:0:
64,192,42832,1,0,0:0:0:0:
448,192,42832,1,0,0:0:0:0:
320,192,42968,1,0,0:0:0:0:
448,192,43105,1,0,0:0:0:0:
64,192,43105,128,0,43378:0:0:0:0:
192,192,43105,1,0,0:0:0:0:
320,192,43241,1,0,0:0:0:0:
192,192,43378,1,8,0:0:0:0:
448,192,43378,1,4,0:0:0:0:
320,192,43514,1,0,0:0:0:0:
448,192,43514,1,0,0:0:0:0:
192,192,43650,1,8,0:0:0:0:
320,192,43650,1,4,0:0:0:0:
64,192,43787,1,0,0:0:0:0:
64,192,43923,1,4,0:0:0:0:
448,192,43923,128,0,44059:0:0:0:0:
192,192,43923,1,8,0:0:0:0:
320,192,44059,128,0,44196:0:0:0:0:
448,192,44196,128,0,44332:0:0:0:0:
192,192,44196,1,0,0:0:0:0:
320,192,44332,128,0,44468:0:0:0:0:
64,192,44332,1,4,0:0:0:0:
448,192,44468,128,0,44605:0:0:0:0:
192,192,44468,1,0,0:0:0:0:
320,192,44605,128,0,44741:0:0:0:0:
64,192,44605,1,0,0:0:0:0:
448,192,44741,128,0,45150:0:0:0:0:
192,192,44741,1,4,0:0:0:0:
64,192,44741,1,8,0:0:0:0:
320,192,45014,1,0,0:0:0:0:
192,192,45150,1,0,0:0:0:0:
64,192,45150,1,0,0:0:0:0:
320,192,45287,1,0,0:0:0:0:
192,192,45423,1,0,0:0:0:0:
320,192,45559,1,8,0:0:0:0:
448,192,45559,1,8,0:0:0:0:
64,192,45559,1,4,0:0:0:0:
192,192,45696,1,0,0:0:0:0:
320,192,45832,1,0,0:0:0:0:
64,192,45832,1,0,0:0:0:0:
448,192,45968,128,0,46105:0:0:0:0:
192,192,45968,1,0,0:0:0:0:
320,192,46105,128,0,46241:0:0:0:0:
64,192,46105,1,8,0:0:0:0:
192,192,46105,1,4,0:0:0:0:
448,192,46241,128,0,46378:0:0:0:0:
64,192,46241,1,0,0:0:0:0:
320,192,46378,128,0,46514:0:0:0:0:
64,192,46514,128,0,46650:0:0:0:0:
448,192,46514,1,0,0:0:0:0:
192,192,46514,1,0,0:0:0:0:
448,192,46650,128,0,46787:0:0:0:0:
320,192,46787,128,0,46923:0:0:0:0:
64,192,46787,1,0,0:0:0:0:
192,192,46923,1,0,0:0:0:0:
448,192,47059,1,0,0:0:0:0:
320,192,47059,1,0,0:0:0:0:
64,192,47196,1,0,0:0:0:0:
192,192,47332,1,0,0:0:0:0:
448,192,47468,1,4,0:0:0:0:
320,192,47468,1,8,0:0:0:0:
192,192,47605,1,0,0:0:0:0:
64,192,47741,1,4,0:0:0:0:
320,192,47741,1,4,0:0:0:0:
448,192,47741,1,8,0:0:0:0:
448,192,47878,1,0,0:0:0:0:
64,192,48014,1,0,0:0:0:0:
192,192,48014,128,0,48150:0:0:0:0:
448,192,48150,128,0,48287:0:0:0:0:
320,192,48150,1,0,0:0:0:0:
320,192,48287,1,8,0:0:0:0:
64,192,48287,1,8,0:0:0:0:
448,192,48423,1,0,0:0:0:0:
192,192,48559,1,0,0:0:0:0:
448,192,48696,1,4,0:0:0:0:
64,192,48696,1,0,0:0:0:0:
192,192,48832,1,0,0:0:0:0:
320,192,48832,1,0,0:0:0:0:
320,192,48968,1,0,0:0:0:0:
448,192,49105,1,8,0:0:0:0:
192,192,49105,1,4,0:0:0:0:
64,192,49241,1,0,0:0:0:0:
320,192,49378,1,8,0:0:0:0:
448,192,49378,1,8,0:0:0:0:
64,192,49650,1,8,0:0:0:0:
320,192,49650,1,0,0:0:0:0:
448,192,49650,1,0,0:0:0:0:
192,192,49787,1,0,0:0:0:0:
320,192,49923,1,8,0:0:0:0:
64,192,49923,1,8,0:0:0:0:
192,192,50059,1,8,0:0:0:0:
448,192,50059,1,8,0:0:0:0:
64,192,50196,1,4,0:0:0:0:
320,192,50196,1,8,0:0:0:0:
192,192,50332,1,8,0:0:0:0:
448,192,50332,1,8,0:0:0:0:
320,192,50468,1,4,0:0:0:0:
64,192,50468,1,4,0:0:0:0:
448,192,50468,1,8,0:0:0:0:
192,192,50468,128,0,50741:0:0:0:0:
448,192,50741,128,0,50878:0:0:0:0:
320,192,50878,128,0,51014:0:0:0:0:
64,192,51014,128,0,51150:0:0:0:0:
448,192,51150,128,0,51559:0:0:0:0:
192,192,51559,128,0,51696:0:0:0:0:
320,192,51696,128,0,51832:0:0:0:0:
64,192,51832,128,0,51968:0:0:0:0:
448,192,52105,1,0,0:0:0:0:
192,192,52241,1,8,0:0:0:0:
320,192,52378,1,8,0:0:0:0:
448,192,52378,1,8,0:0:0:0:
192,192,52514,1,8,0:0:0:0:
64,192,52514,1,8,0:0:0:0:
320,192,52650,1,8,0:0:0:0:
448,192,52650,1,8,0:0:0:0:
192,192,52650,1,8,0:0:0:0:
64,192,52787,1,8,0:0:0:0:
192,192,52787,1,8,0:0:0:0:
320,192,52923,1,8,0:0:0:0:
448,192,52923,1,8,0:0:0:0:
192,192,53059,1,8,0:0:0:0:
64,192,53059,1,8,0:0:0:0:
320,192,53059,128,0,53468:0:0:0:0:
448,192,53059,128,0,53468:0:0:0:0:
64,192,53468,1,8,0:0:0:0:
192,192,53468,1,4,0:0:0:0:
320,192,53605,1,0,0:0:0:0:
448,192,53605,1,0,0:0:0:0:
192,192,53878,128,0,54287:0:0:0:0:
320,192,53878,1,0,0:0:0:0:
448,192,54014,1,0,0:0:0:0:
64,192,54150,1,0,0:0:0:0:
320,192,54287,128,0,54559:0:0:0:0:
448,192,54287,1,0,0:0:0:0:
64,192,54423,1,0,0:0:0:0:
192,192,54559,128,0,54832:0:0:0:0:
448,192,54559,1,0,0:0:0:0:
320,192,54696,1,0,0:0:0:0:
448,192,54832,1,8,0:0:0:0:
64,192,54832,1,4,0:0:0:0:
320,192,54968,1,0,0:0:0:0:
64,192,55105,1,0,0:0:0:0:
192,192,55241,1,4,0:0:0:0:
320,192,55378,1,8,0:0:0:0:
64,192,55378,1,8,0:0:0:0:
448,192,55378,1,8,0:0:0:0:
64,192,55514,1,0,0:0:0:0:
192,192,55650,1,0,0:0:0:0:
448,192,55787,1,0,0:0:0:0:
192,192,55923,1,0,0:0:0:0:
320,192,55923,1,0,0:0:0:0:
448,192,56059,1,8,0:0:0:0:
320,192,56196,1,8,0:0:0:0:
192,192,56196,1,4,0:0:0:0:
64,192,56332,1,8,0:0:0:0:
320,192,56468,1,4,0:0:0:0:
448,192,56468,1,8,0:0:0:0:
64,192,56468,1,4,0:0:0:0:
192,192,56605,1,0,0:0:0:0:
320,192,56741,1,8,0:0:0:0:
448,192,56741,1,4,0:0:0:0:
192,192,56878,1,0,0:0:0:0:
320,192,57014,1,4,0:0:0:0:
64,192,57014,1,0,0:0:0:0:
192,192,57014,1,4,0:0:0:0:
448,192,57150,1,0,0:0:0:0:
320,192,57287,1,0,0:0:0:0:
64,192,57423,1,0,0:0:0:0:
192,192,57559,1,0,0:0:0:0:
320,192,57559,1,0,0:0:0:0:
448,192,57696,1,0,0:0:0:0:
320,192,57832,1,0,0:0:0:0:
64,192,57832,1,0,0:0:0:0:
192,192,57968,1,0,0:0:0:0:
320,192,58105,1,0,0:0:0:0:
448,192,58105,1,0,0:0:0:0:
192,192,58241,1,0,0:0:0:0:
64,192,58241,1,0,0:0:0:0:
192,192,58378,1,0,0:0:0:0:
448,192,58378,128,0,58514:0:0:0:0:
320,192,58514,128,0,58650:0:0:0:0:
192,192,58650,1,0,0:0:0:0:
64,192,58650,1,0,0:0:0:0:
448,192,58650,128,0,58787:0:0:0:0:
320,192,58787,128,0,58923:0:0:0:0:
448,192,58923,128,0,59059:0:0:0:0:
320,192,59059,128,0,59196:0:0:0:0:
192,192,59196,1,8,0:0:0:0:
64,192,59196,1,8,0:0:0:0:
448,192,59332,1,0,0:0:0:0:
320,192,59468,1,0,0:0:0:0:
448,192,59468,1,0,0:0:0:0:
192,192,59605,1,0,0:0:0:0:
320,192,59741,1,8,0:0:0:0:
64,192,59741,1,4,0:0:0:0:
192,192,59741,1,4,0:0:0:0:
448,192,59878,1,0,0:0:0:0:
192,192,60014,1,8,0:0:0:0:
320,192,60014,1,4,0:0:0:0:
64,192,60150,1,0,0:0:0:0:
320,192,60287,1,0,0:0:0:0:
448,192,60287,1,0,0:0:0:0:
192,192,60423,1,0,0:0:0:0:
64,192,60559,1,4,0:0:0:0:
192,192,60559,1,8,0:0:0:0:
320,192,60696,1,0,0:0:0:0:
448,192,60832,1,8,0:0:0:0:
320,192,60832,1,8,0:0:0:0:
192,192,60968,1,0,0:0:0:0:
64,192,61105,1,4,0:0:0:0:
192,192,61105,1,8,0:0:0:0:
320,192,61241,1,0,0:0:0:0:
192,192,61378,1,0,0:0:0:0:
448,192,61378,1,8,0:0:0:0:
320,192,61378,1,0,0:0:0:0:
64,192,61514,1,0,0:0:0:0:
320,192,61650,1,0,0:0:0:0:
448,192,61650,1,0,0:0:0:0:
192,192,61787,1,0,0:0:0:0:
64,192,61923,1,0,0:0:0:0:
320,192,61923,1,0,0:0:0:0:
448,192,61923,1,0,0:0:0:0:
320,192,62059,1,0,0:0:0:0:
192,192,62196,1,8,0:0:0:0:
64,192,62196,1,4,0:0:0:0:
320,192,62332,1,0,0:0:0:0:
192,192,62468,1,0,0:0:0:0:
448,192,62468,1,0,0:0:0:0:
320,192,62605,1,0,0:0:0:0:
64,192,62605,1,8,0:0:0:0:
192,192,62741,1,4,0:0:0:0:
320,192,62741,1,4,0:0:0:0:
448,192,62741,1,8,0:0:0:0:
64,192,62878,1,0,0:0:0:0:
192,192,63014,1,0,0:0:0:0:
320,192,63014,1,0,0:0:0:0:
448,192,63150,1,0,0:0:0:0:
320,192,63287,1,0,0:0:0:0:
64,192,63287,1,0,0:0:0:0:
448,192,63423,1,0,0:0:0:0:
192,192,63559,1,4,0:0:0:0:
320,192,63559,1,0,0:0:0:0:
64,192,63559,1,4,0:0:0:0:
192,192,63696,1,0,0:0:0:0:
448,192,63832,1,0,0:0:0:0:
64,192,63832,1,0,0:0:0:0:
320,192,63968,1,0,0:0:0:0:
64,192,64105,1,8,0:0:0:0:
192,192,64105,1,8,0:0:0:0:
320,192,64241,1,0,0:0:0:0:
64,192,64378,1,0,0:0:0:0:
448,192,64378,1,0,0:0:0:0:
192,192,64514,1,0,0:0:0:0:
320,192,64650,1,8,0:0:0:0:
448,192,64650,1,8,0:0:0:0:
64,192,64650,1,8,0:0:0:0:
192,192,64650,128,0,64923:0:0:0:0:
448,192,64923,128,0,65196:0:0:0:0:
320,192,64923,1,0,0:0:0:0:
64,192,65059,1,0,0:0:0:0:
192,192,65196,1,8,0:0:0:0:
320,192,65196,1,4,0:0:0:0:
64,192,65196,128,0,65468:0:0:0:0:
320,192,65468,128,0,65605:0:0:0:0:
192,192,65468,1,8,0:0:0:0:
448,192,65605,128,0,65741:0:0:0:0:
192,192,65741,128,0,66014:0:0:0:0:
320,192,65741,1,8,0:0:0:0:
64,192,65741,1,4,0:0:0:0:
64,192,66014,128,0,66150:0:0:0:0:
448,192,66014,1,0,0:0:0:0:
192,192,66150,128,0,66287:0:0:0:0:
320,192,66150,1,0,0:0:0:0:
448,192,66287,128,0,66423:0:0:0:0:
64,192,66287,1,0,0:0:0:0:
320,192,66423,128,0,66559:0:0:0:0:
192,192,66423,1,0,0:0:0:0:
64,192,66559,128,0,67378:0:0:0:0:
448,192,66559,1,0,0:0:0:0:
192,192,66696,1,0,0:0:0:0:
320,192,66832,1,0,0:0:0:0:
192,192,66968,1,0,0:0:0:0:
448,192,67105,1,8,0:0:0:0:
320,192,67105,1,8,0:0:0:0:
192,192,67241,1,4,0:0:0:0:
320,192,67378,1,4,0:0:0:0:
448,192,67378,1,4,0:0:0:0:
192,192,67378,1,4,0:0:0:0:
448,192,67514,1,0,0:0:0:0:
320,192,67650,1,0,0:0:0:0:
192,192,67787,1,0,0:0:0:0:
64,192,67923,1,4,0:0:0:0:
320,192,67923,1,8,0:0:0:0:
448,192,67923,128,0,68196:0:0:0:0:
320,192,68196,128,0,68332:0:0:0:0:
64,192,68196,1,0,0:0:0:0:
192,192,68332,128,0,68468:0:0:0:0:
448,192,68332,1,0,0:0:0:0:
320,192,68468,128,0,68741:0:0:0:0:
64,192,68468,1,8,0:0:0:0:
448,192,68605,1,0,0:0:0:0:
64,192,68741,128,0,69014:0:0:0:0:
192,192,68741,1,4,0:0:0:0:
448,192,68878,1,0,0:0:0:0:
192,192,69014,128,0,69150:0:0:0:0:
320,192,69014,1,0,0:0:0:0:
320,192,69150,128,0,69287:0:0:0:0:
64,192,69150,1,0,0:0:0:0:
448,192,69150,1,0,0:0:0:0:
448,192,69287,128,0,69559:0:0:0:0:
192,192,69287,1,8,0:0:0:0:
64,192,69287,1,4,0:0:0:0:
192,192,69559,128,0,69832:0:0:0:0:
320,192,69559,1,8,0:0:0:0:
64,192,69832,128,0,70105:0:0:0:0:
448,192,69832,1,4,0:0:0:0:
192,192,70105,1,4,0:0:0:0:
320,192,70105,1,4,0:0:0:0:
448,192,70378,1,0,0:0:0:0:
64,192,70514,1,8,0:0:0:0:
192,192,70650,1,4,0:0:0:0:
320,192,70650,1,8,0:0:0:0:
448,192,70650,128,0,70923:0:0:0:0:
64,192,70923,1,8,0:0:0:0:
192,192,70923,1,4,0:0:0:0:
320,192,71059,1,0,0:0:0:0:
64,192,71196,1,0,0:0:0:0:
448,192,71196,128,0,71468:0:0:0:0:
320,192,71332,1,0,0:0:0:0:
192,192,71468,128,0,71741:0:0:0:0:
64,192,71468,1,0,0:0:0:0:
320,192,71605,1,4,0:0:0:0:
64,192,71741,1,4,0:0:0:0:
448,192,71741,1,8,0:0:0:0:
320,192,71878,1,0,0:0:0:0:
448,192,72014,1,0,0:0:0:0:
192,192,72150,1,8,0:0:0:0:
64,192,72287,1,8,0:0:0:0:
448,192,72287,128,0,72423:0:0:0:0:
320,192,72287,1,4,0:0:0:0:
320,192,72423,128,0,72559:0:0:0:0:
192,192,72559,128,0,72832:0:0:0:0:
448,192,72559,1,0,0:0:0:0:
64,192,72696,1,0,0:0:0:0:
320,192,72832,1,12,0:0:0:0:
448,192,72832,128,0,73105:0:0:0:0:
320,192,73105,128,0,73378:0:0:0:0:
192,192,73105,1,0,0:0:0:0:
64,192,73378,128,0,73923:0:0:0:0:
192,192,73378,1,12,0:0:0:0:
448,192,73514,1,0,0:0:0:0:
320,192,73650,1,0,0:0:0:0:
192,192,73787,1,0,0:0:0:0:
320,192,73923,1,8,0:0:0:0:
448,192,73923,1,4,0:0:0:0:
192,192,74059,1,0,0:0:0:0:
320,192,74196,1,0,0:0:0:0:
64,192,74332,1,0,0:0:0:0:
320,192,74468,1,4,0:0:0:0:
448,192,74468,1,8,0:0:0:0:
192,192,74605,1,0,0:0:0:0:
320,192,74741,1,0,0:0:0:0:
64,192,74878,1,0,0:0:0:0:
192,192,74878,1,0,0:0:0:0:
448,192,75014,1,4,0:0:0:0:
320,192,75014,1,8,0:0:0:0:
64,192,75287,1,0,0:0:0:0:
448,192,75287,1,0,0:0:0:0:
320,192,75559,1,0,0:0:0:0:
192,192,75696,1,0,0:0:0:0:
448,192,75696,1,0,0:0:0:0:
64,192,75832,1,0,0:0:0:0:
320,192,75832,1,0,0:0:0:0:
448,192,75968,1,0,0:0:0:0:
320,192,76105,1,8,0:0:0:0:
192,192,76105,1,4,0:0:0:0:
64,192,76241,1,0,0:0:0:0:
448,192,76378,1,0,0:0:0:0:
192,192,76378,1,0,0:0:0:0:
320,192,76514,1,4,0:0:0:0:
64,192,76650,1,4,0:0:0:0:
192,192,76650,1,8,0:0:0:0:
320,192,76787,1,0,0:0:0:0:
448,192,76923,1,0,0:0:0:0:
320,192,77059,1,8,0:0:0:0:
192,192,77059,1,8,0:0:0:0:
192,192,77196,1,4,0:0:0:0:
64,192,77196,1,8,0:0:0:0:
320,192,77468,1,4,0:0:0:0:
448,192,77468,1,8,0:0:0:0:
192,192,77468,1,4,0:0:0:0:
64,192,77605,1,8,0:0:0:0:
192,192,77605,1,8,0:0:0:0:
448,192,77741,1,0,0:0:0:0:
320,192,77878,1,8,0:0:0:0:
192,192,77878,1,8,0:0:0:0:
64,192,78014,1,0,0:0:0:0:
448,192,78014,1,0,0:0:0:0:
192,192,78150,1,0,0:0:0:0:
320,192,78287,1,8,0:0:0:0:
448,192,78287,1,4,0:0:0:0:
64,192,78287,128,0,78559:0:0:0:0:
320,192,78559,128,0,78832:0:0:0:0:
448,192,78559,1,0,0:0:0:0:
192,192,78832,128,0,79241:0:0:0:0:
64,192,78832,1,4,0:0:0:0:
448,192,78832,1,12,0:0:0:0:
320,192,79105,1,0,0:0:0:0:
448,192,79241,128,0,79650:0:0:0:0:
64,192,79241,1,4,0:0:0:0:
320,192,79378,1,0,0:0:0:0:
192,192,79650,128,0,80196:0:0:0:0:
64,192,79650,1,8,0:0:0:0:
320,192,79650,1,4,0:0:0:0:
448,192,79923,1,0,0:0:0:0:
320,192,80059,1,0,0:0:0:0:
64,192,80059,1,0,0:0:0:0:
448,192,80196,1,0,0:0:0:0:
320,192,80332,1,0,0:0:0:0:
192,192,80468,1,8,0:0:0:0:
64,192,80468,1,8,0:0:0:0:
320,192,80605,1,0,0:0:0:0:
64,192,80741,1,0,0:0:0:0:
192,192,80741,1,0,0:0:0:0:
448,192,80878,1,4,0:0:0:0:
320,192,80878,1,0,0:0:0:0:
64,192,81014,1,4,0:0:0:0:
192,192,81014,1,0,0:0:0:0:
320,192,81014,1,8,0:0:0:0:
448,192,81150,1,0,0:0:0:0:
320,192,81287,1,0,0:0:0:0:
64,192,81423,1,0,0:0:0:0:
192,192,81559,1,0,0:0:0:0:
320,192,81559,1,4,0:0:0:0:
448,192,81559,128,8,81832:0:0:0:0:
64,192,81832,128,0,82105:0:0:0:0:
192,192,81832,1,0,0:0:0:0:
192,192,82105,128,0,82241:0:0:0:0:
320,192,82105,1,0,0:0:0:0:
448,192,82241,128,0,82378:0:0:0:0:
320,192,82378,128,0,82650:0:0:0:0:
64,192,82378,1,0,0:0:0:0:
192,192,82650,1,4,0:0:0:0:
448,192,82650,1,8,0:0:0:0:
64,192,82787,1,0,0:0:0:0:
192,192,82923,1,0,0:0:0:0:
448,192,83059,1,0,0:0:0:0:
192,192,83196,1,8,0:0:0:0:
320,192,83196,1,8,0:0:0:0:
64,192,83332,1,0,0:0:0:0:
192,192,83468,1,0,0:0:0:0:
320,192,83605,1,0,0:0:0:0:
448,192,83605,1,0,0:0:0:0:
192,192,83741,1,8,0:0:0:0:
64,192,83741,1,8,0:0:0:0:
448,192,83741,128,0,84014:0:0:0:0:
320,192,84014,128,0,84423:0:0:0:0:
192,192,84014,1,0,0:0:0:0:
448,192,84287,1,8,0:0:0:0:
192,192,84423,128,0,84559:0:0:0:0:
64,192,84423,1,8,0:0:0:0:
320,192,84559,128,0,84832:0:0:0:0:
448,192,84559,1,4,0:0:0:0:
192,192,84832,1,4,0:0:0:0:
64,192,84832,1,8,0:0:0:0:
192,192,85105,1,8,0:0:0:0:
320,192,85241,1,4,0:0:0:0:
64,192,85378,1,4,0:0:0:0:
448,192,85378,1,8,0:0:0:0:
192,192,85378,1,4,0:0:0:0:
320,192,85787,1,8,0:0:0:0:
192,192,85923,1,8,0:0:0:0:
64,192,85923,1,8,0:0:0:0:
448,192,86196,1,8,0:0:0:0:
320,192,86332,1,4,0:0:0:0:
192,192,86468,1,4,0:0:0:0:
64,192,86468,1,4,0:0:0:0:
448,192,86468,1,8,0:0:0:0:
192,192,86605,1,8,0:0:0:0:
448,192,86741,1,4,0:0:0:0:
320,192,86741,1,8,0:0:0:0:
64,192,87014,1,8,0:0:0:0:
192,192,87014,1,4,0:0:0:0:
448,192,87014,1,4,0:0:0:0:
320,192,87150,1,8,0:0:0:0:
448,192,87287,1,8,0:0:0:0:
64,192,87287,128,0,87423:0:0:0:0:
320,192,87423,1,4,0:0:0:0:
192,192,87423,128,0,87559:0:0:0:0:
64,192,87559,128,0,89196:0:0:0:0:
