osu file format v14

[General]
AudioFilename: audio.mp3
AudioLeadIn: 0
PreviewTime: 15464
Countdown: 0
SampleSet: Soft
StackLeniency: 0.7
Mode: 0
LetterboxInBreaks: 0
WidescreenStoryboard: 0

[Editor]
DistanceSpacing: 2
BeatDivisor: 4
GridSize: 4
TimelineZoom: 2.3

[Metadata]
Title:Kara no Kokoro
TitleUnicode:カラノココロ
Artist:Anly
ArtistUnicode:Anly
Creator:-Sh1n1-
Version:Sotarks no Jutsu
Source:NARUTO-ナルト- 疾風伝
Tags:opening op20 seventh team Uzumaki Shippuden Hurricane Chronicles shini sotarks
BeatmapID:1284722
BeatmapSetID:607680

[Difficulty]
HPDrainRate:6.2
CircleSize:4
OverallDifficulty:8
ApproachRate:9
SliderMultiplier:1.92
SliderTickRate:2

[Events]
//Background and Video events
0,0,"MinatoxKushinaBG.png",0,0
Video,0,"Naruto Shippuuden OP 20.avi"
//Break Periods
//Storyboard Layer 0 (Background)
//Storyboard Layer 1 (Fail)
//Storyboard Layer 2 (Pass)
//Storyboard Layer 3 (Foreground)
//Storyboard Sound Samples

[TimingPoints]
1449,748.129675810474,4,2,1,40,1,0
11735,-100,4,2,1,20,0,0
11922,-100,4,2,1,5,0,0
13419,545.454545454546,4,2,1,70,1,0
15055,-125,4,2,1,70,0,0
15600,-83.3333333333333,4,2,1,70,0,1
32100,-100,4,2,1,5,0,1
32237,-100,4,2,1,70,0,0
33055,-83.3333333333333,4,2,1,60,0,0
33873,-100,4,2,1,60,0,0
35237,-83.3333333333333,4,2,1,60,0,0
36055,-100,4,2,1,60,0,0
37419,-83.3333333333333,4,2,1,60,0,0
38237,-100,4,2,1,60,0,0
39600,-83.3333333333333,4,2,1,60,0,0
40419,-100,4,2,1,60,0,0
41782,-83.3333333333333,4,2,1,60,0,0
42600,-100,4,2,1,60,0,0
43964,-83.3333333333333,4,2,1,60,0,0
44782,-100,4,2,1,60,0,0
46146,-83.3333333333333,4,2,1,60,0,0
46964,-100,4,2,1,60,0,0
48328,-83.3333333333333,4,2,1,60,0,0
50509,-125,4,2,1,60,0,0
54805,-125,4,2,1,5,0,0
54873,-83.3333333333333,4,2,1,70,0,1
72191,-100,4,2,1,70,0,0
72328,-100,4,2,1,70,0,1
87600,-200,4,2,1,30,0,0
87737,-200,4,2,1,15,0,0
89237,-100,4,2,1,20,0,0

[Colours]
Combo1 : 121,181,240
Combo2 : 255,255,128
Combo3 : 157,239,148
Combo4 : 245,137,140

[HitObjects]
184,144,1449,6,0,P|235:137|308:132,1,96,2|2,0:0|0:0,0:0:0:0:
384,192,2010,2,0,P|336:164|264:224,1,144,2|2,0:0|0:0,0:0:0:0:
128,336,2945,2,0,L|28:324,2,96,2|2|0,0:0|0:0|0:0,0:0:0:0:
344,296,4067,1,2,0:0:0:0:
152,244,4441,6,0,L|148:136,1,96,2|2,0:0|0:0,0:0:0:0:
44,88,5002,2,0,L|208:64,1,144,2|2,0:0|0:0,0:0:0:0:
364,160,5937,2,0,P|304:160|264:128,2,96,2|2|0,0:0|0:0|0:0,0:0:0:0:
504,40,7059,1,2,0:0:0:0:
468,236,7434,5,2,0:0:0:0:
400,64,7808,2,0,L|284:48,1,96,2|0,0:0|0:0,0:0:0:0:
128,132,8556,1,2,0:0:0:0:
280,240,8930,2,0,P|232:216|172:220,1,96,2|2,0:0|0:0,0:0:0:0:
64,344,9678,2,0,P|112:320|172:324,1,96,2|2,0:0|0:0,0:0:0:0:
336,372,10426,5,2,0:0:0:0:
404,188,10800,1,2,0:0:0:0:
444,276,10987,2,0,P|392:283|317:225,1,144,2|2,0:0|0:0,0:0:0:0:
121,90,13419,5,2,0:0:0:0:
197,75,13555,1,2,0:0:0:0:
275,61,13691,1,2,0:0:0:0:
352,108,13828,1,2,0:0:0:0:
352,108,14237,5,2,0:0:0:0:
367,187,14373,1,2,0:0:0:0:
381,263,14509,1,2,0:0:0:0:
330,338,14646,1,2,0:0:0:0:
330,338,15055,6,0,L|296:329,3,19.2,2|0|0|0,0:0|0:0|0:0|0:0,0:0:0:0:
295,289,15328,2,0,L|276:293,3,19.2,2|0|0|0,0:0|0:0|0:0|0:0,0:0:0:0:
262,246,15600,6,0,P|206:253|139:233,1,115.199996484375,6|2,1:2|0:2,0:0:0:0:
94,178,16009,1,0,1:0:0:0:
184,60,16146,2,0,B|216:121|216:121|207:185,1,115.199996484375,10|2,0:2|1:2,0:0:0:0:
209,166,16555,1,0,1:0:0:0:
277,73,16691,2,0,L|339:72,1,57.5999982421876,2|0,3:2|3:0,0:0:0:0:
368,150,16964,2,0,L|306:149,1,57.5999982421876,2|0,1:2|0:0,0:0:0:0:
415,80,17237,6,0,P|453:132|437:205,1,115.199996484375,10|2,0:2|1:2,0:0:0:0:
404,255,17646,1,0,3:0:0:0:
247,237,17782,2,0,L|123:256,1,115.199996484375,2|2,1:2|0:2,0:0:0:0:
60,307,18191,1,2,1:2:0:0:
149,174,18328,2,0,L|212:165,1,57.5999982421876,8|2,0:0|3:2,0:0:0:0:
211,310,18600,2,0,P|177:273|212:161,1,172.799994726563,2|8,1:2|0:0,0:0:0:0:
354,102,19146,1,4,1:0:0:0:
354,102,19419,2,0,L|361:168,1,57.5999982421876,8|0,0:0|3:0,0:0:0:0:
457,166,19691,2,0,L|450:232,1,57.5999982421876,0|0,3:3|3:3,0:3:0:0:
374,332,19964,6,0,L|235:308,1,115.199996484375,2|2,1:2|0:2,0:0:0:0:
202,249,20373,1,2,1:2:0:0:
82,345,20509,2,0,L|12:334,1,57.5999982421876,10|0,0:2|0:0,0:0:0:0:
43,143,20782,2,0,P|64:215|63:277,1,115.199996484375,2|2,1:2|0:2,0:0:0:0:
25,336,21191,1,2,3:2:0:0:
155,251,21328,1,2,1:2:0:0:
155,251,21600,2,0,L|222:246,1,57.5999982421876,10|0,0:2|3:0,0:0:0:0:
348,336,21873,2,0,L|281:331,1,57.5999982421876,2|0,3:2|3:0,0:0:0:0:
269,162,22146,5,0,1:0:0:0:
269,162,22419,2,0,L|268:97,1,57.5999982421876,2|0,3:2|3:0,0:0:0:0:
177,48,22691,2,0,L|176:105,1,57.5999982421876,10|0,0:2|3:0,0:0:0:0:
89,227,22964,2,0,P|147:187|188:197,1,115.199996484375,0|2,1:0|0:2,0:0:0:0:
291,306,23373,1,8,0:0:0:0:
356,231,23509,2,0,P|299:216|275:223,1,57.5999982421876,2|0,1:2|0:0,0:0:0:0:
152,283,23782,2,0,P|209:268|233:275,1,57.5999982421876,10|0,0:2|0:0,0:0:0:0:
291,306,24055,1,2,3:2:0:0:
291,306,24191,1,2,3:2:0:0:
333,107,24328,6,0,P|302:179|304:234,1,115.199996484375,6|2,1:2|0:2,0:0:0:0:
374,271,24737,1,0,1:0:0:0:
471,113,24873,2,0,P|404:116|373:131,1,57.5999982421876,10|0,0:2|3:0,0:0:0:0:
301,214,25146,2,0,P|378:192|425:197,1,115.199996484375,2|2,1:2|0:2,0:0:0:0:
291,295,25555,1,8,0:0:0:0:
374,271,25691,1,2,1:2:0:0:
374,271,25964,2,0,P|392:332|394:344,1,57.5999982421876,10|0,0:2|3:0,0:0:0:0:
483,226,26237,2,0,P|465:287|463:299,1,57.5999982421876,2|0,3:2|3:0,3:0:0:0:
407,152,26509,6,0,B|351:142|352:186|282:164,1,115.199996484375,2|2,1:2|0:2,0:0:0:0:
219,118,26919,1,2,1:2:0:0:
206,279,27055,2,2,P|229:218|230:205,1,57.5999982421876,10|2,0:2|3:2,0:0:0:0:
147,66,27328,2,0,B|107:154|183:152|136:249,1,172.799994726563,2|8,1:2|0:0,0:0:0:0:
219,118,27873,1,4,1:0:0:0:
219,118,28146,2,0,P|284:108|300:106,1,57.5999982421876,8|0,0:0|3:0,0:0:0:0:
269,194,28419,2,0,P|297:198|325:202,1,57.5999982421876,0|0,3:0|3:0,0:0:0:0:
405,82,28691,6,0,B|396:121|396:121|413:158|413:158|399:219,1,115.199996484375,2|2,1:2|0:2,0:0:0:0:
369,273,29100,1,2,1:2:0:0:
316,112,29237,2,0,L|230:100,1,57.5999982421876,10|0,0:2|3:0,0:0:0:0:
168,215,29509,2,0,P|247:216|278:172,1,115.199996484375,2|2,1:2|0:2,0:0:0:0:
137,124,29919,1,10,0:2:0:0:
83,200,30055,1,2,1:2:0:0:
83,200,30328,2,0,P|13:195|4:195,1,57.5999982421876,10|0,0:2|3:0,0:0:0:0:
119,314,30600,2,0,P|189:309|198:309,1,57.5999982421876,2|0,3:2|3:0,0:0:0:0:
137,124,30873,5,0,1:0:0:0:
137,124,31146,2,0,P|201:116|211:114,1,57.5999982421876,10|0,0:2|0:0,0:0:0:0:
316,27,31419,1,10,0:2:0:0:
293,195,31555,1,8,0:0:0:0:
235,45,31691,2,0,P|170:37|157:37,1,57.5999982421876,0|2,1:0|0:2,0:0:0:0:
61,76,31964,1,2,0:0:0:0:
355,113,32237,1,2,1:2:0:0:
355,113,33055,5,2,1:2:0:0:
431,77,33191,1,2,3:2:0:0:
431,77,33464,1,0,1:0:0:0:
468,154,33600,2,0,L|476:212,1,57.5999982421876,2|0,3:2|0:0,3:2:0:0:
328,269,33873,2,0,B|422:235|414:338|521:293,1,192,14|0,0:2|1:0,0:0:0:0:
226,334,34691,1,8,0:0:0:0:
226,334,34828,2,0,L|230:277,2,48,2|2|2,0:2|0:2|0:2,0:0:0:0:
170,222,35237,6,0,P|224:196|284:219,1,115.199996484375,2|2,1:2|0:2,0:0:0:0:
457,117,35646,2,0,P|397:143|394:149,1,57.5999982421876,10|0,0:2|0:0,0:0:0:0:
454,198,35919,1,2,3:2:0:0:
361,66,36055,2,0,L|196:49,1,144,2|8,1:2|0:0,0:0:0:0:
84,143,36600,2,0,P|146:108|195:124,1,96,2|8,3:0|0:0,0:0:0:0:
180,222,37009,2,0,P|149:181|149:178,2,48,2|2|2,0:2|0:2|0:2,0:0:0:0:
366,159,37419,6,0,P|396:222|401:289,1,115.199996484375,0|2,1:2|0:2,0:0:0:0:
462,58,37828,2,0,P|461:124|456:138,1,57.5999982421876,2|2,1:2|0:2,0:0:0:0:
440,196,38100,1,2,0:2:0:0:
380,77,38237,2,0,L|312:68,1,48,10|2,0:2|0:2,0:0:0:0:
247,100,38509,1,2,3:2:0:0:
247,100,38646,1,0,3:0:0:0:
83,44,38782,2,0,P|134:47|169:91,1,96,2|8,3:0|0:0,0:0:0:0:
87,167,39191,2,0,P|104:116|112:112,2,48,2|2|2,0:2|0:2|0:2,0:2:0:0:
201,263,39600,6,0,L|267:250,1,57.5999982421876,2|0,1:2|0:0,0:0:0:0:
300,163,39873,1,2,0:2:0:0:
124,234,40009,2,0,P|123:294|132:315,1,57.5999982421876,10|0,0:2|0:0,0:0:0:0:
191,348,40282,1,2,3:2:0:0:
201,163,40419,2,0,L|140:146,1,48,2|0,1:2|0:0,0:0:0:0:
69,172,40691,1,2,0:2:0:0:
124,234,40828,1,10,0:2:0:0:
131,69,40964,2,0,L|141:136,1,48,0|0,3:2|0:0,0:0:0:0:
200,278,41237,2,0,L|208:231,1,48,8|0,0:0|0:0,0:0:0:0:
276,120,41509,1,2,3:2:0:0:
276,120,41646,1,2,3:2:0:0:
295,300,41782,5,2,1:2:0:0:
267,38,42055,1,2,0:2:0:0:
267,38,42328,5,2,0:2:0:0:
276,120,42464,1,2,0:2:0:0:
285,208,42600,1,10,0:2:0:0:
118,117,42873,2,0,L|152:112,2,32,2|0|0,0:2|0:2|0:2,0:0:0:0:
56,80,43146,2,0,P|47:128|75:176,1,96,2|10,1:2|0:2,0:0:0:0:
150,323,43555,1,2,0:2:0:0:
150,323,43828,1,2,0:2:0:0:
192,252,43964,6,0,L|257:240,1,57.5999982421876,2|0,1:2|0:0,0:0:0:0:
335,284,44237,1,2,0:2:0:0:
440,164,44373,2,0,L|383:153,1,57.5999982421876,10|0,0:2|0:0,0:0:0:0:
320,204,44646,1,2,3:2:0:0:
216,124,44782,2,0,B|148:113|157:178|73:156,1,144,2|8,1:2|0:0,0:0:0:0:
32,32,45328,2,0,P|89:57|101:102,1,96,2|8,3:0|0:0,0:0:0:0:
4,164,45737,2,0,P|8:132|28:104,2,48,0|2|2,0:0|0:2|0:2,0:0:0:0:
55,284,46146,6,0,P|114:270|129:269,1,57.5999982421876,2|0,1:2|0:0,0:0:0:0:
196,303,46419,1,2,0:2:0:0:
342,282,46555,2,0,P|283:268|268:267,1,57.5999982421876,10|0,0:2|3:0,0:0:0:0:
196,303,46828,1,2,3:2:0:0:
112,192,46964,2,0,P|162:215|169:227,1,48,2|0,1:2|3:0,0:0:0:0:
117,338,47237,2,0,P|108:285|111:275,1,48,2|0,0:2|0:0,0:0:0:0:
283,296,47509,2,0,P|281:319|272:342,1,48,2|0,3:0|0:0,0:0:0:0:
196,303,47782,1,10,0:2:0:0:
255,217,47919,2,0,P|309:215|319:222,1,48,2|0,0:2|3:0,0:0:0:0:
362,288,48191,1,2,3:2:0:0:
371,149,48328,6,0,L|305:132,1,57.5999982421876,2|2,1:2|0:2,0:0:0:0:
199,231,48600,2,0,L|265:214,1,57.5999982421876,2|2,0:2|1:2,0:0:0:0:
417,302,48873,2,0,L|351:285,1,57.5999982421876,2|2,0:2|0:2,0:0:0:0:
228,349,49146,1,2,1:2:0:0:
213,78,49419,5,8,0:0:0:0:
228,349,49691,1,8,0:0:0:0:
137,158,49964,1,8,0:0:0:0:
222,162,50100,1,8,3:0:0:0:
304,166,50237,1,4,3:0:0:0:
304,166,50509,6,0,L|395:160,1,76.8,6|2,1:2|0:2,0:0:0:0:
443,75,50919,2,0,P|403:91|353:73,1,76.8,2|0,0:2|0:0,0:0:0:0:
168,24,51328,2,0,P|208:64|214:111,1,76.8,2|2,0:2|0:2,0:0:0:0:
185,160,51737,1,2,0:2:0:0:
145,237,51873,2,0,L|158:331,1,76.8,2|2,0:2|0:2,0:0:0:0:
242,254,52419,2,0,L|274:251,3,19.2,2|0|0|0,1:2|1:0|1:0|1:0,1:0:0:0:
343,241,52691,5,8,0:0:0:0:
144,235,52828,1,8,0:0:0:0:
348,232,52964,1,8,0:0:0:0:
143,245,53100,1,8,0:0:0:0:
252,102,53509,5,8,0:0:0:0:
262,329,53646,1,8,0:0:0:0:
262,329,54055,5,2,0:0:0:0:
262,329,54328,2,2,B|226:264|286:273|252:186,1,134.4,2|0,0:0|0:0,0:0:0:0:
241,154,54873,6,0,P|291:165|357:137,1,115.199996484375,6|2,1:2|0:2,0:0:0:0:
379,231,55282,1,0,1:0:0:0:
333,347,55419,2,0,B|284:278|293:214,1,115.199996484375,10|2,0:2|1:2,0:0:0:0:
291,241,55828,1,0,1:0:0:0:
226,327,55964,2,0,L|164:328,1,57.5999982421876,2|0,3:2|3:0,0:0:0:0:
135,250,56237,2,0,L|197:251,1,57.5999982421876,2|0,1:2|0:0,0:0:0:0:
88,320,56510,6,0,B|59:298|59:298|37:261|66:195,1,115.199996484375,10|2,0:2|1:2,0:0:0:0:
99,145,56919,1,0,3:0:0:0:
256,163,57055,2,0,P|315:151|383:152,1,115.199996484375,2|2,1:2|0:2,0:0:0:0:
443,93,57464,1,2,1:2:0:0:
354,227,57601,2,0,P|319:226|290:235,1,57.5999982421876,8|2,0:0|3:2,0:0:0:0:
297,77,57873,2,0,B|331:114|331:114|295:239,1,172.799994726563,2|8,1:2|0:0,0:0:0:0:
149,298,58419,1,4,1:0:0:0:
149,298,58692,2,0,P|149:269|142:232,1,57.5999982421876,8|0,0:0|3:0,0:0:0:0:
46,234,58964,2,0,P|47:204|53:168,1,57.5999982421876,0|0,3:3|3:3,0:3:0:0:
129,68,59237,6,0,B|185:50|181:117|268:92,1,115.199996484375,2|2,1:2|0:2,0:0:0:0:
301,151,59646,1,2,1:2:0:0:
421,56,59782,2,0,P|452:58|491:67,1,57.5999982421876,10|0,0:2|0:0,0:0:0:0:
459,256,60055,2,0,B|441:221|441:221|432:180|439:122,1,115.199996484375,2|2,1:2|0:2,0:0:0:0:
478,64,60464,1,2,3:2:0:0:
348,149,60601,1,2,1:2:0:0:
348,149,60873,2,0,L|281:154,1,57.5999982421876,10|0,0:2|3:0,0:0:0:0:
155,64,61146,2,0,L|222:69,1,57.5999982421876,2|0,3:2|3:0,0:0:0:0:
234,238,61419,5,0,1:0:0:0:
234,238,61692,2,0,L|235:303,1,57.5999982421876,2|0,3:2|3:0,0:0:0:0:
326,352,61964,2,0,L|327:295,1,57.5999982421876,10|0,0:2|3:0,0:0:0:0:
414,173,62237,2,0,P|356:213|315:203,1,115.199996484375,0|2,1:0|0:2,0:0:0:0:
212,94,62646,1,8,0:0:0:0:
147,169,62782,2,0,P|204:184|228:177,1,57.5999982421876,2|0,1:2|0:0,0:0:0:0:
351,117,63055,2,0,P|294:132|270:125,1,57.5999982421876,10|0,0:2|0:0,0:0:0:0:
212,94,63328,1,2,3:2:0:0:
212,94,63464,1,2,3:2:0:0:
170,293,63601,6,0,P|201:221|199:166,1,115.199996484375,6|2,1:2|0:2,0:0:0:0:
129,129,64010,1,0,1:0:0:0:
32,287,64146,2,0,P|99:284|130:269,1,57.5999982421876,10|0,0:2|3:0,0:0:0:0:
202,186,64419,2,0,P|125:208|78:203,1,115.199996484375,2|2,1:2|0:2,0:0:0:0:
212,105,64828,1,8,0:0:0:0:
129,129,64964,1,2,1:2:0:0:
129,129,65237,2,0,P|111:68|109:56,1,57.5999982421876,10|0,0:2|3:0,0:0:0:0:
20,174,65510,2,0,P|38:113|40:101,1,57.5999982421876,2|0,3:2|3:0,3:0:0:0:
94,253,65782,6,0,B|151:271|151:223|220:247,1,115.199996484375,2|2,1:2|0:2,0:0:0:0:
284,282,66192,1,2,1:2:0:0:
297,121,66328,2,2,P|274:182|273:195,1,57.5999982421876,10|2,0:2|3:2,0:0:0:0:
356,334,66601,2,0,B|396:246|320:248|367:151,1,172.799994726563,2|8,1:2|0:0,0:0:0:0:
284,282,67146,1,4,1:0:0:0:
284,282,67419,2,0,P|219:292|203:294,1,57.5999982421876,8|0,0:0|3:0,0:0:0:0:
234,206,67692,2,0,P|206:202|178:198,1,57.5999982421876,0|0,3:0|3:0,0:0:0:0:
98,318,67964,6,0,B|122:261|59:267|104:181,1,115.199996484375,2|2,1:2|0:2,0:0:0:0:
134,127,68373,1,2,1:2:0:0:
187,288,68510,2,0,L|273:300,1,57.5999982421876,10|0,0:2|3:0,0:0:0:0:
335,185,68782,2,0,P|256:184|225:228,1,115.199996484375,2|2,1:2|0:2,0:0:0:0:
366,276,69192,1,10,0:2:0:0:
420,200,69328,1,2,1:2:0:0:
420,200,69601,2,0,P|490:205|499:205,1,57.5999982421876,10|0,0:2|3:0,0:0:0:0:
384,86,69873,2,0,P|314:91|305:91,1,57.5999982421876,2|0,3:2|3:0,0:0:0:0:
234,206,70146,6,0,P|279:174|335:185,1,115.199996484375,2|2,1:2|0:2,0:0:0:0:
299,255,70555,1,0,1:0:0:0:
176,150,70691,2,0,L|104:141,1,57.5999982421876,10|0,0:2|3:0,0:0:0:0:
72,268,70964,2,0,P|102:215|80:160,1,115.199996484375,0|2,1:0|0:2,0:0:0:0:
170,276,71373,1,8,0:0:0:0:
86,166,71509,2,0,L|5:160,1,57.5999982421876,2|0,1:2|0:0,0:0:0:0:
197,64,71782,1,8,0:0:0:0:
201,101,71919,1,8,3:0:0:0:
205,136,72055,2,0,L|213:222,1,57.5999982421876,4|0,3:0|0:0,0:0:0:0:
320,191,72328,6,0,P|272:167|216:239,1,144,6|0,1:2|1:0,0:0:0:0:
368,260,72873,2,0,P|395:233|400:204,1,48,10|0,0:2|3:0,0:0:0:0:
339,58,73146,2,0,B|307:101|307:101|320:191,1,144,2|0,1:2|3:0,0:0:0:0:
253,42,73691,2,0,P|198:32|152:53,1,96,2|8,1:2|0:0,0:0:0:0:
117,118,74100,1,0,3:0:0:0:
163,192,74237,2,0,P|167:243|163:261,1,48,0|2,3:2|3:2,0:0:0:0:
77,330,74509,6,0,L|180:315,1,96,2|0,1:2|0:0,0:0:0:0:
246,268,74919,1,2,1:2:0:0:
357,342,75055,2,0,P|303:332|296:328,1,48,10|0,0:2|3:0,0:0:0:0:
287,188,75328,2,0,P|329:233|304:330,1,144,2|0,1:2|3:0,0:0:0:0:
201,186,75873,2,0,P|217:134|271:110,1,96,2|8,1:2|0:0,0:0:0:0:
332,102,76282,1,0,3:0:0:0:
333,192,76419,2,0,P|276:181|264:169,1,48,2|2,3:2|3:2,0:0:0:0:
218,39,76691,6,0,B|115:20|115:20|120:74,1,144,2|0,1:2|1:0,0:0:0:0:
114,181,77237,2,0,P|132:126|116:68,1,96,8|0,0:0|1:0,0:0:0:0:
43,123,77646,1,2,3:2:0:0:
70,261,77782,2,0,P|125:267|143:260,1,48,2|0,1:2|0:0,0:0:0:0:
172,96,78055,2,0,P|117:90|99:97,1,48,0|0,1:0|0:0,0:0:0:0:
183,212,78328,2,0,L|246:206,1,48,10|0,0:2|3:0,0:0:0:0:
296,131,78600,2,0,L|233:125,1,48,2|0,1:2|3:0,0:0:0:0:
348,199,78873,6,0,P|383:152|378:105,1,96,2|0,1:2|3:0,0:0:0:0:
296,131,79282,1,2,1:2:0:0:
296,265,79419,2,0,P|346:284|359:282,1,48,8|0,0:0|3:0,0:0:0:0:
472,112,79691,2,0,P|392:110|371:125,1,96,2|0,1:2|0:0,0:0:0:0:
348,199,80100,1,8,0:0:0:0:
420,287,80237,2,0,B|441:225|441:225|425:176,1,96,0|8,1:0|0:0,0:0:0:0:
381,116,80646,1,0,3:0:0:0:
348,199,80782,1,10,0:2:0:0:
298,127,80919,1,10,0:2:0:0:
256,210,81055,6,0,L|192:197,1,48,6|0,1:2|0:0,0:0:0:0:
167,109,81328,2,0,L|214:118,1,48,2|0,0:2|1:0,0:0:0:0:
124,187,81600,2,0,P|92:154|87:140,1,48,10|0,0:2|0:0,0:0:0:0:
153,35,81873,2,0,B|179:5|179:5|166:113,1,144,2|0,1:2|3:0,0:0:0:0:
81,199,82419,2,0,L|94:139,1,48,2|0,1:2|0:0,0:0:0:0:
180,238,82691,2,0,L|167:178,1,48,8|0,0:0|3:0,0:0:0:0:
105,280,82964,1,2,3:2:0:0:
105,280,83100,1,2,3:2:0:0:
263,267,83237,6,0,P|211:234|154:252,1,96,2|0,1:2|0:0,0:0:0:0:
197,319,83646,1,0,1:0:0:0:
342,252,83782,2,0,P|318:200|310:194,1,48,10|0,0:2|3:0,0:0:0:0:
312,337,84055,2,0,P|372:339|415:294,1,96,2|0,1:2|0:0,0:0:0:0:
311,180,84464,1,10,0:2:0:0:
294,262,84600,2,0,L|347:254,1,48,2|0,1:2|0:0,0:0:0:0:
348,104,84873,2,0,P|290:98|238:133,1,96,8|2,0:0|0:2,0:0:0:0:
227,195,85282,1,2,0:2:0:0:
155,84,85419,6,0,B|180:165|115:149|153:249,1,144,2|0,1:2|1:0,0:0:0:0:
201,360,85964,2,0,P|215:315|215:290,1,48,8|0,0:0|0:0,0:0:0:0:
227,195,86237,2,0,P|231:218|241:240,1,48,2|2,1:2|0:2,0:0:0:0:
300,302,86509,1,2,0:2:0:0:
305,77,86646,1,8,0:0:0:0:
219,113,86782,2,0,L|143:102,1,48,0|0,1:0|0:0,0:0:0:0:
31,73,87055,1,8,0:0:0:0:
64,107,87191,1,10,0:2:0:0:
72,151,87328,2,0,P|70:209|62:226,1,48,4|2,3:0|0:2,0:0:0:0:
19,260,87600,6,0,B|155:179|131:357|296:255,1,288,2|0,0:0|0:0,0:0:0:0:
