osu file format v14

[General]
AudioFilename: audio.mp3
AudioLeadIn: 0
PreviewTime: 15464
Countdown: 0
SampleSet: Soft
StackLeniency: 0.7
Mode: 0
LetterboxInBreaks: 0
WidescreenStoryboard: 0

[Editor]
DistanceSpacing: 1.4
BeatDivisor: 4
GridSize: 4
TimelineZoom: 1.1

[Metadata]
Title:Kara no Kokoro
TitleUnicode:カラノココロ
Artist:Anly
ArtistUnicode:Anly
Creator:-Sh1n1-
Version:Normal
Source:NARUTO-ナルト- 疾風伝
Tags:opening op20 seventh team Uzumaki Shippuden Hurricane Chronicles shini sotarks
BeatmapID:1283492
BeatmapSetID:607680

[Difficulty]
HPDrainRate:4
CircleSize:3
OverallDifficulty:4
ApproachRate:5
SliderMultiplier:1.3
SliderTickRate:1

[Events]
//Background and Video events
0,0,"MinatoxKushinaBG.png",0,0
Video,0,"Naruto Shippuuden OP 20.avi"
//Break Periods
//Storyboard Layer 0 (Background)
//Storyboard Layer 1 (Fail)
//Storyboard Layer 2 (Pass)
//Storyboard Layer 3 (Foreground)
//Storyboard Sound Samples

[TimingPoints]
1449,748.129675810474,4,2,1,40,1,0
11735,-100,4,2,1,20,0,0
11922,-100,4,2,1,5,0,0
13419,545.454545454546,4,2,1,70,1,0
15055,-111.111111111111,4,2,1,70,0,0
15600,-100,4,2,1,70,0,1
32100,-100,4,2,1,5,0,1
32237,-100,4,2,1,70,0,0
54873,-100,4,2,1,70,0,1
72191,-100,4,2,1,70,0,0
72328,-100,4,2,1,70,0,1
87600,-100,4,2,1,20,0,0
88146,-100,4,2,1,15,0,0
88691,-100,4,2,1,10,0,0
89237,-100,4,2,1,5,0,0

[Colours]
Combo1 : 121,181,240
Combo2 : 255,255,128
Combo3 : 157,239,148
Combo4 : 245,137,140

[HitObjects]
88,216,1449,6,0,P|148:228|216:216,1,130,2|0,0:0|0:0,0:0:0:0:
356,100,2945,2,0,L|344:24,2,65,2|2|0,0:0|0:0|0:0,0:0:0:0:
376,188,4067,1,2,0:0:0:0:
392,276,4441,6,0,B|348:268|348:268|263:275,1,130,2|0,0:0|0:0,0:0:0:0:
88,324,5937,2,0,P|85:292|88:260,1,65,2|2,0:0|0:0,0:0:0:0:
149,192,6685,2,0,P|154:159|149:128,1,65,0|2,0:0|0:0,0:0:0:0:
92,56,7434,6,0,L|20:48,2,65,2|2|0,0:0|0:0|0:0,0:0:0:0:
256,136,8930,2,0,L|320:128,1,65,2|2,0:0|0:0,0:0:0:0:
404,91,9678,2,0,P|412:123|407:157,1,65,2|2,0:0|0:0,0:0:0:0:
342,218,10426,6,0,P|326:282|342:350,2,130,2|0|0,0:0|0:0|0:0,0:0:0:0:
216,84,13419,6,0,P|224:132|216:184,1,97.5,2|2,0:0|0:0,0:0:0:0:
163,305,14237,2,0,L|266:313,1,97.5,2|2,0:0|0:0,0:0:0:0:
351,229,15055,2,0,L|409:224,1,58.4999982147217,2|2,0:0|0:0,0:0:0:0:
496,254,15600,6,0,B|501:224|501:224|484:122,1,130,6|10,1:2|0:2,0:0:0:0:
468,36,16419,1,2,1:2:0:0:
380,56,16691,2,0,P|347:59|315:55,1,65,2|2,3:2|1:2,0:0:0:0:
227,28,17237,2,0,P|195:24|163:28,1,65,10|2,0:2|1:2,0:0:0:0:
75,56,17782,6,0,B|67:152|67:152|75:188,1,130,2|8,1:2|0:0,0:0:0:0:
148,240,18600,1,2,1:2:0:0:
228,196,18873,2,0,B|260:192|260:192|300:196,2,65,0|4|8,0:0|1:0|0:0,0:0:0:0:
148,240,19691,1,0,3:3:0:0:
196,319,19964,6,0,B|260:331|260:331|328:319,1,130,2|10,1:2|0:2,0:0:0:0:
400,272,20782,2,0,B|412:240|412:240|400:140,1,130,2|2,1:2|1:2,0:0:0:0:
372,60,21600,2,0,L|292:44,1,65,10|2,0:2|3:2,0:0:0:0:
232,100,22146,6,0,L|100:72,1,130,0|10,1:0|0:2,0:0:0:0:
32,128,22964,1,0,1:0:0:0:
8,216,23237,2,0,P|4:252|8:280,1,65,2|2,0:2|1:2,0:0:0:0:
32,368,23782,2,0,L|112:352,1,65,10|2,0:2|3:2,0:0:0:0:
168,296,24328,6,0,L|300:324,1,130,6|10,1:2|0:2,0:0:0:0:
384,340,25147,1,2,1:2:0:0:
444,272,25419,2,0,L|515:258,2,65,2|2|10,0:2|1:2|0:2,0:0:0:0:
372,216,26237,1,2,3:2:0:0:
329,135,26510,6,0,P|305:71|329:15,1,130,2|10,1:2|0:2,0:0:0:0:
417,19,27328,2,0,P|439:78|415:137,1,130,2|4,1:2|1:0,0:0:0:0:
372,216,28146,2,0,L|444:240,1,65,8|0,0:0|3:0,0:0:0:0:
400,320,28692,6,0,L|267:272,1,130,2|10,1:2|0:2,0:0:0:0:
196,312,29509,2,0,L|63:264,1,130,2|2,1:2|1:2,0:0:0:0:
11,198,30328,2,0,P|3:167|12:137,1,65,10|2,0:2|3:2,0:0:0:0:
97,103,30873,5,0,1:0:0:0:
188,98,31146,2,0,P|196:67|187:37,2,65,10|10|0,0:2|0:2|1:0,0:0:0:0:
183,189,31964,2,0,P|215:188|253:163,1,65,2|2,0:0|1:2,0:0:0:0:
448,104,33055,6,0,P|460:152|448:200,1,97.5,2|0,1:2|1:0,0:0:0:0:
420,332,33873,2,0,B|380:320|380:320|288:332,1,130,14|0,0:2|1:0,0:0:0:0:
208,364,34691,2,0,L|140:357,1,65,8|2,0:0|0:2,0:0:0:0:
58,324,35237,6,0,P|46:280|62:232,1,97.5,2|10,1:2|0:2,0:0:0:0:
148,128,36055,2,0,B|20:100,1,130,2|2,1:2|3:0,0:0:0:0:
60,16,36873,2,0,L|132:32,1,65,8|2,0:0|0:2,0:0:0:0:
212,52,37419,6,0,P|243:94|244:149,1,97.5,0|2,1:2|1:2,0:0:0:0:
224,272,38237,2,0,B|288:288|288:256|352:272,1,130,10|2,0:2|3:0,0:0:0:0:
432,316,39055,1,8,0:0:0:0:
500,256,39328,1,2,0:2:0:0:
460,176,39600,6,0,P|448:128|460:80,1,97.5,2|10,1:2|0:2,0:0:0:0:
324,68,40418,2,0,P|309:130|325:193,1,130,2|0,1:2|3:2,0:0:0:0:
372,272,41237,2,0,L|300:292,1,65,8|2,0:0|3:2,0:0:0:0:
244,356,41782,6,0,L|140:328,1,97.5,2|10,1:2|0:2,0:0:0:0:
28,268,42600,2,0,P|12:205|26:142,1,130,10|2,0:2|1:2,0:0:0:0:
84,72,43419,2,0,L|148:80,1,65,10|0,0:2|0:0,0:0:0:0:
228,125,43964,6,0,P|238:78|219:18,1,97.5,2|10,1:2|0:2,0:0:0:0:
364,20,44782,2,0,P|352:84|364:152,1,130,2|2,1:2|3:0,0:0:0:0:
416,220,45600,1,8,0:0:0:0:
360,292,45873,1,2,0:2:0:0:
272,264,46146,6,0,B|236:256|236:256|168:264,1,97.5,2|10,1:2|0:2,0:0:0:0:
48,312,46964,2,0,B|40:276|40:276|48:180,1,130,2|2,1:2|3:0,0:0:0:0:
76,96,47782,2,0,L|156:80,1,65,10|0,0:2|3:0,0:0:0:0:
220,128,48328,6,0,L|317:124,1,97.5,2|2,1:2|1:2,0:0:0:0:
452,145,49146,2,0,P|454:112|444:74,2,65,2|8|8,1:2|0:0|0:0,0:0:0:0:
396,216,49964,2,0,P|393:248|403:286,1,65,8|4,0:0|3:0,0:0:0:0:
432,364,50509,6,0,B|344:372|344:372|300:364,1,130,6|0,1:2|0:0,0:0:0:0:
220,328,51328,2,0,B|179:320|179:320|91:328,1,130,2|2,0:2|0:2,0:0:0:0:
0,340,52146,2,0,L|8:256,1,65,2|2,0:2|1:2,0:0:0:0:
72,212,52691,6,0,L|60:108,1,97.5,8|8,0:0|0:0,0:0:0:0:
184,56,53509,2,0,L|180:93,1,32.5,8|8,0:0|0:0,0:0:0:0:
168,252,54873,6,0,B|207:262|207:262|304:244,1,130,6|10,1:2|0:2,0:0:0:0:
384,228,55692,1,2,1:2:0:0:
472,208,55964,2,0,L|480:136,1,65,2|2,3:2|1:2,0:0:0:0:
488,52,56509,2,0,L|423:59,1,65,10|2,0:2|1:2,0:0:0:0:
336,88,57055,6,0,L|200:72,1,130,2|8,1:2|0:0,0:0:0:0:
116,60,57873,2,0,P|108:140|120:196,1,130,2|4,1:2|1:0,0:0:0:0:
164,268,58691,2,0,L|230:260,1,65,8|0,0:0|3:3,0:0:0:0:
309,216,59237,6,0,B|317:252|317:252|309:348,1,130,2|10,1:2|0:2,0:0:0:0:
220,368,60055,2,0,B|124:363|124:363|90:370,1,130,2|2,1:2|1:2,0:0:0:0:
16,316,60873,2,0,L|24:244,1,65,10|2,0:2|3:2,0:0:0:0:
108,216,61419,6,0,L|92:80,1,130,0|10,1:0|0:2,0:0:0:0:
164,32,62237,1,0,1:0:0:0:
244,76,62510,2,0,P|276:80|312:76,1,65,2|2,0:2|1:2,0:0:0:0:
398,60,63055,2,0,L|394:128,1,65,10|2,0:2|3:2,0:0:0:0:
468,180,63601,6,0,L|460:324,1,130,6|10,1:2|0:2,0:0:0:0:
384,360,64420,1,2,1:2:0:0:
296,340,64692,2,0,L|224:352,2,65,2|2|10,0:2|1:2|0:2,0:0:0:0:
312,252,65509,1,2,3:2:0:0:
296,164,65782,6,0,B|152:140,1,130,2|10,1:2|0:2,0:0:0:0:
76,128,66601,2,0,P|60:196|76:268,1,130,2|4,1:2|1:0,0:0:0:0:
116,332,67419,2,0,L|180:312,1,65,8|0,0:0|3:0,0:0:0:0:
252,364,67964,6,0,L|393:344,1,130,2|10,1:2|0:2,0:0:0:0:
470,328,68782,2,0,P|486:264|470:204,1,130,2|2,1:2|1:2,0:0:0:0:
420,128,69601,2,0,L|496:116,1,65,10|2,0:2|3:2,0:0:0:0:
460,32,70146,6,0,L|395:42,1,65,2|2,1:2|0:2,0:0:0:0:
304,40,70691,2,0,L|239:29,1,65,10|0,0:2|1:0,0:0:0:0:
176,96,71237,2,0,L|111:85,2,65,2|2|8,0:2|1:2|0:0,0:0:0:0:
256,140,72055,1,4,3:0:0:0:
312,212,72328,6,0,P|328:276|312:344,1,130,6|10,1:2|0:2,0:0:0:0:
224,356,73146,2,0,P|160:344|96:356,1,130,2|2,1:2|1:2,0:0:0:0:
32,292,73964,2,0,L|36:220,1,65,8|0,0:0|3:2,0:0:0:0:
4,140,74509,6,0,B|68:120|68:160|131:141,1,130,2|10,1:2|0:2,0:0:0:0:
216,112,75328,2,0,B|279:93|279:133|343:113,1,130,2|2,1:2|1:2,0:0:0:0:
428,84,76146,2,0,L|448:168,1,65,8|2,0:0|3:2,0:0:0:0:
443,237,76691,6,0,L|427:300,2,65,2|0|8,1:2|0:0|0:0,0:0:0:0:
364,192,77509,1,0,1:0:0:0:
300,256,77782,2,0,L|284:319,2,65,2|0|10,1:2|1:0|0:2,0:0:0:0:
221,211,78600,1,2,1:2:0:0:
152,272,78873,6,0,L|128:368,2,97.5,2|2|2,1:2|1:2|1:2,0:0:0:0:
72,224,79964,2,0,L|-4:236,1,65,0|0,0:0|1:0,0:0:0:0:
4,144,80509,2,0,L|68:133,1,65,8|10,0:0|0:2,0:0:0:0:
156,164,81055,6,0,B|163:125|163:125|147:70|147:70|155:37,1,130,6|10,1:2|0:2,0:0:0:0:
240,72,81873,2,0,B|280:84|280:84|368:68,1,130,2|2,1:2|1:2,0:0:0:0:
456,56,82691,2,0,L|464:124,1,65,8|2,0:0|3:2,0:0:0:0:
380,156,83237,6,0,B|368:252|368:252|380:300,1,130,2|10,1:2|0:2,0:0:0:0:
404,372,84055,2,0,L|260:356,1,130,2|2,1:2|1:2,0:0:0:0:
208,296,84873,2,0,L|138:307,1,65,8|2,0:0|0:2,0:0:0:0:
52,316,85419,6,0,P|32:264|40:188,1,130,2|8,1:2|0:0,0:0:0:0:
92,116,86237,1,2,1:2:0:0:
180,136,86510,2,0,P|212:140|248:136,1,65,2|0,0:2|1:0,0:0:0:0:
332,116,87055,2,0,P|364:112|400:116,1,65,8|4,0:0|3:0,0:0:0:0:
256,192,87600,12,0,89237,0:0:0:0:
