osu file format v14

[General]
AudioFilename: audio.mp3
AudioLeadIn: 0
PreviewTime: 15464
Countdown: 0
SampleSet: Soft
StackLeniency: 0.7
Mode: 0
LetterboxInBreaks: 0
WidescreenStoryboard: 0

[Editor]
DistanceSpacing: 2.7
BeatDivisor: 6
GridSize: 4
TimelineZoom: 2.3

[Metadata]
Title:Kara no Kokoro
TitleUnicode:カラノココロ
Artist:Anly
ArtistUnicode:Anly
Creator:-Sh1n1-
Version:Insane
Source:NARUTO-ナルト- 疾風伝
Tags:opening op20 seventh team Uzumaki Shippuden Hurricane Chronicles shini sotarks
BeatmapID:1283491
BeatmapSetID:607680

[Difficulty]
HPDrainRate:6
CircleSize:5
OverallDifficulty:7.5
ApproachRate:8.5
SliderMultiplier:1.7
SliderTickRate:2

[Events]
//Background and Video events
0,0,"MinatoxKushinaBG.png",0,0
Video,0,"Naruto Shippuuden OP 20.avi"
//Break Periods
//Storyboard Layer 0 (Background)
//Storyboard Layer 1 (Fail)
//Storyboard Layer 2 (Pass)
//Storyboard Layer 3 (Foreground)
//Storyboard Sound Samples

[TimingPoints]
1449,748.129675810474,4,2,1,40,1,0
11735,-100,4,2,1,20,0,0
11922,-100,4,2,1,5,0,0
13419,545.454545454546,4,2,1,70,1,0
15055,-125,4,2,1,70,0,0
15600,-100,4,2,1,70,0,1
32100,-100,4,2,1,5,0,1
32237,-100,4,2,1,70,0,0
33055,-83.3333333333333,4,2,1,60,0,0
33873,-100,4,2,1,60,0,0
35237,-83.3333333333333,4,2,1,60,0,0
36055,-100,4,2,1,60,0,0
37419,-83.3333333333333,4,2,1,60,0,0
38237,-100,4,2,1,60,0,0
39600,-83.3333333333333,4,2,1,60,0,0
40419,-100,4,2,1,60,0,0
41782,-83.3333333333333,4,2,1,60,0,0
42600,-100,4,2,1,60,0,0
43964,-83.3333333333333,4,2,1,60,0,0
44782,-100,4,2,1,60,0,0
46146,-83.3333333333333,4,2,1,60,0,0
46964,-100,4,2,1,60,0,0
48328,-83.3333333333333,4,2,1,60,0,0
49146,-100,4,2,1,60,0,0
54873,-100,4,2,1,70,0,1
72191,-100,4,2,1,70,0,0
72328,-100,4,2,1,70,0,1
87600,-100,4,2,1,20,0,0
88146,-100,4,2,1,15,0,0
88691,-100,4,2,1,10,0,0
89237,-100,4,2,1,5,0,0

[Colours]
Combo1 : 121,181,240
Combo2 : 255,255,128
Combo3 : 157,239,148
Combo4 : 245,137,140

[HitObjects]
337,69,1449,6,0,P|295:76|254:69,1,85,2|2,0:0|0:0,0:0:0:0:
416,39,2197,2,0,L|408:123,1,85,0|2,0:0|0:0,0:0:0:0:
384,280,2945,1,2,0:0:0:0:
330,159,3319,1,2,0:0:0:0:
389,293,3693,2,0,B|421:301|421:301|473:293,1,85,0|2,0:0|0:0,0:0:0:0:
313,251,4441,6,0,P|302:291|311:332,1,85,2|2,0:0|0:0,0:0:0:0:
387,210,5189,2,0,P|397:169|388:128,1,85,0|2,0:0|0:0,0:0:0:0:
230,167,5937,2,0,B|255:172|255:172|314:166,2,85,2|2|0,0:0|0:0|0:0,0:0:0:0:
259,87,7059,1,2,0:0:0:0:
278,256,7434,6,0,L|362:249,1,85,2|2,0:0|0:0,0:0:0:0:
275,340,8182,2,0,P|232:328|203:288,1,85,0|2,0:0|0:0,0:0:0:0:
200,128,8930,1,2,0:0:0:0:
278,256,9304,1,2,0:0:0:0:
125,318,9678,2,0,B|84:326|84:309|40:317,1,85,2|2,0:0|0:0,0:0:0:0:
103,183,10426,6,0,P|130:208|102:234,1,85,2|2,0:0|0:0,0:0:0:0:
32,136,11174,2,0,B|23:7|23:7|42:50,1,170,0|0,0:0|0:0,0:0:0:0:
40,45,13419,5,2,0:0:0:0:
79,62,13555,1,2,0:0:0:0:
121,61,13691,1,2,0:0:0:0:
159,44,13828,1,2,0:0:0:0:
341,183,14237,5,2,0:0:0:0:
302,166,14373,1,2,0:0:0:0:
259,166,14509,1,2,0:0:0:0:
221,184,14646,1,2,0:0:0:0:
472,227,15055,6,0,L|495:126,1,102,2|0,0:0|0:0,0:0:0:0:
509,44,15600,6,0,P|469:27|419:31,1,85,6|2,1:2|0:2,0:0:0:0:
360,64,16009,1,0,1:0:0:0:
298,110,16146,2,0,L|214:107,1,85,10|2,0:2|1:2,0:0:0:0:
52,51,16691,1,2,3:2:0:0:
52,51,16828,1,0,3:0:0:0:
52,51,16964,1,2,1:2:0:0:
128,203,17237,6,0,B|133:172|133:172|127:118,1,85,10|2,0:2|1:2,0:0:0:0:
112,288,17782,2,0,L|200:280,1,85,2|2,1:2|0:2,0:0:0:0:
280,268,18191,1,2,1:2:0:0:
280,268,18328,1,8,0:0:0:0:
344,362,18600,6,0,P|348:340|347:319,1,42.5,2|0,1:2|0:0,0:0:0:0:
360,236,18873,2,0,L|402:239,1,42.5,0|8,0:0|0:0,0:0:0:0:
292,180,19146,2,0,L|249:183,1,42.5,4|0,1:0|0:0,0:0:0:0:
382,138,19419,2,0,P|371:118|349:101,1,42.5,8|0,0:0|3:0,0:0:0:0:
401,239,19691,2,0,P|422:234|440:223,1,42.5,0|0,3:3|3:3,0:0:0:0:
308,274,19964,6,0,L|224:282,1,85,2|2,1:2|0:2,0:0:0:0:
202,285,20373,1,2,1:2:0:0:
181,288,20509,1,10,0:2:0:0:
43,187,20782,2,0,P|31:147|47:99,1,85,2|2,1:2|0:2,0:0:0:0:
54,88,21191,1,2,3:2:0:0:
67,71,21328,1,2,1:2:0:0:
229,124,21600,6,0,L|288:108,1,42.5,10|0,0:2|3:0,0:0:0:0:
375,156,21873,2,0,L|334:168,1,42.5,2|0,3:2|3:0,0:0:0:0:
179,182,22146,2,0,P|153:127|157:100,1,85,0|2,1:0|3:2,0:0:0:0:
211,52,22555,1,0,3:0:0:0:
287,48,22691,6,0,L|384:21,1,85,10|0,0:2|1:0,0:0:0:0:
508,89,23237,1,2,0:2:0:0:
508,89,23373,1,8,0:0:0:0:
508,89,23509,1,2,1:2:0:0:
461,252,23782,2,0,P|450:293|466:333,1,85,10|2,0:2|3:2,0:0:0:0:
479,346,24191,1,2,3:2:0:0:
495,360,24328,6,0,L|407:344,1,85,6|2,1:2|0:2,0:0:0:0:
335,354,24737,1,0,1:0:0:0:
261,372,24873,2,0,L|168:353,1,85,10|2,0:2|1:2,0:0:0:0:
12,310,25419,1,2,0:2:0:0:
12,310,25555,1,8,0:0:0:0:
12,310,25691,1,2,1:2:0:0:
124,182,25964,6,0,P|137:222|121:266,1,85,10|2,0:2|3:2,0:0:0:0:
87,96,26509,2,0,L|180:90,1,85,2|2,1:2|0:2,0:0:0:0:
245,161,26918,1,2,1:2:0:0:
245,161,27055,6,0,L|202:161,1,42.5,10|2,0:2|3:2,0:0:0:0:
330,223,27328,2,0,P|353:165|333:106,1,127.5,2|8,1:2|0:0,0:0:0:0:
245,161,27873,6,0,L|202:161,1,42.5,4|0,1:0|0:0,0:0:0:0:
54,97,28146,2,0,L|50:54,1,42.5,8|0,0:0|3:0,0:0:0:0:
117,157,28419,2,0,L|113:199,1,42.5,0|0,3:0|3:0,0:0:0:0:
107,305,28691,6,0,B|33:307|33:307|50:286,1,85,2|2,1:2|0:2,0:0:0:0:
54,282,29100,1,2,1:2:0:0:
70,268,29236,1,10,0:2:0:0:
202,357,29509,2,0,P|217:310|205:266,1,85,2|2,1:2|0:2,0:0:0:0:
203,256,29918,1,10,0:2:0:0:
195,236,30055,1,2,1:2:0:0:
350,329,30327,6,0,L|400:319,1,42.5,10|0,0:2|3:0,0:0:0:0:
496,271,30600,2,0,L|455:263,1,42.5,2|0,3:2|3:0,0:0:0:0:
372,240,30873,1,0,1:0:0:0:
372,240,31146,2,0,P|366:213|366:188,1,42.5,10|0,0:2|0:0,0:0:0:0:
391,117,31418,1,10,0:2:0:0:
449,179,31555,1,8,0:0:0:0:
365,198,31691,1,0,1:0:0:0:
365,198,31964,6,0,B|318:195,1,42.5,2|0,0:0|0:0,0:0:0:0:
449,179,32237,1,2,1:2:0:0:
169,303,33055,6,0,B|145:290|120:288|120:288|150:286|175:267,1,101.999996887207,2|0,1:2|0:0,0:0:0:0:
256,222,33464,2,0,P|278:171|248:133,1,101.999996887207,0|0,1:0|0:0,0:0:0:0:
156,104,33873,2,0,B|203:113|203:113|218:102|218:102|265:124|320:108,1,170,14|0,0:2|1:0,0:0:0:0:
188,16,34691,1,8,0:0:0:0:
111,186,34964,1,2,0:2:0:0:
312,220,35237,6,0,P|346:194|306:190,1,101.999996887207,2|2,1:2|0:2,0:0:0:0:
216,231,35646,2,0,B|198:244|168:246|168:246|193:248|217:261,1,101.999996887207,10|2,0:2|3:2,0:0:0:0:
251,338,36055,2,0,B|254:360|254:360|214:352|174:360|174:360|179:336,1,127.5,2|8,1:2|0:0,0:0:0:0:
216,260,36600,1,2,3:0:0:0:
334,356,36873,1,8,0:0:0:0:
199,251,37146,1,2,0:2:0:0:
352,364,37419,6,0,B|396:378|431:358|431:358|418:343,1,101.999996887207,0|2,1:2|0:2,0:0:0:0:
340,275,37828,2,0,B|316:262|292:256|292:256|312:239|339:242,1,101.999996887207,2|2,1:2|0:2,0:0:0:0:
432,251,38237,2,0,P|470:203|456:138,1,127.5,10|0,0:2|3:0,0:0:0:0:
390,91,38782,1,2,3:0:0:0:
341,226,39055,1,8,0:0:0:0:
316,42,39328,1,2,0:2:0:0:
336,245,39600,6,0,B|283:257|284:229|232:245,1,101.999996887207,2|2,1:2|0:2,0:0:0:0:
136,271,40009,2,0,P|104:264|137:229,1,101.999996887207,10|2,0:2|3:2,0:0:0:0:
198,306,40419,2,0,B|209:334|203:373|203:373|180:351|141:340,1,127.5,2|10,1:2|0:2,0:0:0:0:
66,333,40964,2,0,P|50:346|40:364,1,42.5,0|0,3:2|0:0,0:0:0:0:
118,264,41237,2,0,L|113:216,1,42.5,8|0,0:0|0:0,0:0:0:0:
63,153,41509,2,0,L|58:105,1,42.5,2|2,3:2|3:2,0:0:0:0:
151,151,41782,6,0,L|144:46,1,101.999996887207,2|2,1:2|0:2,0:0:0:0:
239,10,42191,2,0,B|310:16|310:16|287:37,1,101.999996887207,0|2,0:0|0:2,0:0:0:0:
230,100,42600,1,10,0:2:0:0:
230,100,42873,6,0,L|195:103,2,28.3333333333333,2|0|0,0:2|0:2|0:2,0:0:0:0:
252,170,43146,2,0,L|301:164,1,42.5,2|0,1:2|0:0,0:0:0:0:
441,214,43419,2,0,L|357:224,1,85,10|0,0:2|0:0,0:0:0:0:
336,228,43828,1,2,0:2:0:0:
315,231,43964,6,0,B|294:270|321:306|321:306|346:302,1,101.999996887207,2|2,1:2|0:2,0:0:0:0:
444,292,44373,2,0,B|515:287|515:287|498:318,1,101.999996887207,10|2,0:2|3:2,0:0:0:0:
412,357,44782,2,0,L|409:225,1,127.5,2|8,1:2|0:0,0:0:0:0:
362,114,45328,2,0,P|355:137|347:154,1,42.5,2|0,3:0|0:0,0:0:0:0:
276,200,45600,2,0,P|253:207|235:210,1,42.5,8|0,0:0|0:0,0:0:0:0:
151,193,45873,2,0,P|126:182|107:164,1,42.5,2|2,0:2|0:2,0:0:0:0:
113,33,46146,6,0,L|218:31,1,101.999996887207,2|2,1:2|0:2,0:0:0:0:
317,25,46555,2,0,B|318:58|310:74|310:74|334:67|356:41,1,101.999996887207,10|2,0:2|3:2,0:0:0:0:
443,8,46964,2,0,P|460:69|463:145,1,127.5,2|0,1:2|0:0,0:0:0:0:
383,159,47509,2,0,L|334:153,1,42.5,2|0,3:0|0:0,0:0:0:0:
196,203,47782,2,0,L|280:213,1,85,10|0,0:2|3:0,0:0:0:0:
364,225,48191,1,2,3:2:0:0:
364,225,48328,6,0,P|390:267|347:290,1,101.999996887207,2|2,1:2|0:2,0:0:0:0:
281,363,48737,2,0,B|327:347|327:371|381:362,1,101.999996887207,2|2,1:2|0:2,0:0:0:0:
480,353,49146,1,2,1:2:0:0:
364,225,49419,5,8,0:0:0:0:
247,382,49691,1,8,0:0:0:0:
254,156,49964,1,8,0:0:0:0:
297,210,50101,1,8,3:0:0:0:
364,225,50237,1,4,3:0:0:0:
364,225,50509,6,0,L|356:309,1,85,6|2,1:2|0:2,0:0:0:0:
355,331,50918,1,2,0:2:0:0:
353,352,51054,1,0,0:0:0:0:
159,242,51327,2,0,P|200:236|242:243,1,85,2|2,0:2|0:2,0:0:0:0:
264,248,51736,1,2,0:2:0:0:
284,255,51873,1,2,0:2:0:0:
127,321,52146,1,2,0:2:0:0:
184,142,52419,2,0,P|207:133|243:130,1,42.5,2|0,1:2|1:0,0:0:0:0:
309,132,52691,5,8,0:0:0:0:
351,205,52827,1,8,0:0:0:0:
266,204,52963,1,8,0:0:0:0:
394,131,53100,1,0,0:0:0:0:
437,205,53509,5,8,0:0:0:0:
352,56,53646,1,8,0:0:0:0:
439,288,54873,6,0,L|356:271,1,85,6|2,1:2|0:2,0:0:0:0:
272,253,55282,1,0,1:0:0:0:
190,235,55418,2,0,P|192:280|215:316,1,85,10|2,0:2|1:2,0:0:0:0:
309,172,55964,1,2,3:2:0:0:
309,172,56100,1,0,3:0:0:0:
309,172,56236,1,2,1:2:0:0:
139,174,56509,6,0,L|222:157,1,85,10|2,0:2|1:2,0:0:0:0:
388,115,57055,2,0,L|305:98,1,85,2|2,1:2|0:2,0:0:0:0:
224,73,57464,1,2,1:2:0:0:
224,73,57601,1,8,0:0:0:0:
137,216,57873,2,0,P|119:156|138:96,1,127.5,2|8,1:2|0:0,0:0:0:0:
223,156,58418,6,0,L|266:158,1,42.5,4|0,1:0|0:0,0:0:0:0:
420,108,58691,2,0,P|425:87|427:66,1,42.5,8|0,0:0|3:0,0:0:0:0:
351,159,58964,2,0,P|347:179|346:201,1,42.5,0|0,3:3|3:3,0:0:0:0:
431,273,59237,6,0,P|444:312|427:356,1,85,2|2,1:2|0:2,0:0:0:0:
417,368,59645,1,2,1:2:0:0:
400,379,59781,1,10,0:2:0:0:
216,330,60055,2,0,L|128:322,1,85,2|2,1:2|0:2,0:0:0:0:
110,320,60464,1,2,3:2:0:0:
89,317,60600,1,2,1:2:0:0:
245,248,60872,6,0,L|251:197,1,42.5,10|0,0:2|3:0,0:0:0:0:
262,120,61145,1,2,3:2:0:0:
412,174,61419,2,0,P|370:182|329:173,1,85,0|2,1:0|3:2,0:0:0:0:
262,120,61827,1,0,0:0:0:0:
190,73,61964,2,0,P|148:64|107:74,1,85,10|0,0:2|1:0,0:0:0:0:
266,36,62509,5,2,0:2:0:0:
266,36,62645,1,8,0:0:0:0:
266,36,62781,1,2,1:2:0:0:
229,199,63055,2,0,L|213:282,1,85,10|2,0:2|3:2,0:0:0:0:
210,303,63464,1,2,3:2:0:0:
208,324,63600,6,0,P|252:314|292:325,1,85,6|2,1:2|0:2,0:0:0:0:
368,357,64009,1,0,1:0:0:0:
449,332,64146,2,0,P|462:291|459:247,1,85,10|2,0:2|1:2,0:0:0:0:
401,90,64691,1,2,0:2:0:0:
401,90,64827,1,8,0:0:0:0:
401,90,64963,1,2,1:2:0:0:
239,138,65236,6,0,P|280:150|320:137,1,85,10|2,0:2|3:2,0:0:0:0:
154,99,65782,2,0,L|155:200,1,85,2|2,1:2|0:2,0:0:0:0:
156,269,66190,1,0,0:0:0:0:
156,269,66327,1,10,0:2:0:0:
250,346,66600,2,0,B|188:331|184:367|124:347,1,127.5,2|8,1:2|0:0,0:0:0:0:
18,295,67145,6,0,L|60:291,1,42.5,4|0,1:0|0:0,0:0:0:0:
47,198,67419,2,0,L|88:209,1,42.5,8|0,0:0|3:0,0:0:0:0:
105,117,67691,2,0,L|140:141,1,42.5,0|0,3:0|3:0,0:0:0:0:
165,31,67964,6,0,L|215:100,1,85,2|2,1:2|0:2,0:0:0:0:
237,97,68372,1,2,1:2:0:0:
258,94,68508,1,10,0:2:0:0:
415,160,68782,2,0,L|331:169,1,85,2|2,1:2|0:2,0:0:0:0:
308,173,69191,1,10,0:2:0:0:
287,176,69327,1,2,1:2:0:0:
126,227,69600,6,0,L|169:232,1,42.5,10|0,0:2|3:0,0:0:0:0:
247,304,69873,2,0,L|204:309,1,42.5,2|0,3:2|3:0,0:0:0:0:
53,268,70146,2,0,P|40:227|52:187,1,85,2|2,1:2|0:2,0:0:0:0:
116,133,70554,1,0,1:0:0:0:
193,97,70691,2,0,P|206:56|194:16,1,85,10|0,0:2|1:0,0:0:0:0:
160,193,71237,6,0,L|203:184,1,42.5,2|8,0:2|0:0,0:0:0:0:
317,149,71509,2,0,L|275:141,1,42.5,2|0,1:2|0:0,0:0:0:0:
367,218,71782,1,8,0:0:0:0:
396,187,71918,1,8,3:0:0:0:
407,146,72054,1,4,3:0:0:0:
396,105,72191,1,0,0:0:0:0:
367,75,72328,6,0,L|278:56,1,85,6|0,1:2|0:0,0:0:0:0:
201,40,72737,1,0,1:0:0:0:
201,40,72873,1,10,0:2:0:0:
141,199,73146,2,0,P|118:141|138:82,1,127.5,2|0,1:2|3:0,0:0:0:0:
204,139,73691,1,2,1:2:0:0:
204,139,73964,6,0,P|219:123|225:103,1,42.5,8|0,0:0|3:0,0:0:0:0:
266,209,74237,2,0,P|251:223|230:230,1,42.5,0|2,3:2|3:2,0:0:0:0:
165,311,74509,2,0,P|206:311|251:309,1,85,2|0,1:2|0:0,0:0:0:0:
272,309,74919,1,2,1:2:0:0:
294,308,75055,1,10,0:2:0:0:
457,353,75328,6,0,P|471:315|456:273,1,85,2|0,1:2|0:0,0:0:0:0:
402,209,75737,1,0,3:0:0:0:
402,209,75873,1,2,1:2:0:0:
242,264,76146,2,0,L|329:264,1,85,8|2,0:0|3:2,0:0:0:0:
159,242,76555,1,2,3:2:0:0:
159,242,76691,6,0,P|157:262|159:284,1,42.5,2|0,1:2|0:0,0:0:0:0:
218,180,76964,2,0,P|221:158|218:137,1,42.5,0|0,0:0|1:0,0:0:0:0:
144,44,77237,2,0,L|228:52,1,85,8|0,0:0|1:0,0:0:0:0:
372,84,77646,1,2,3:2:0:0:
373,83,77782,6,0,P|376:62|374:40,1,42.5,2|0,1:2|0:0,0:0:0:0:
292,112,78055,2,0,P|289:134|292:155,1,42.5,0|0,1:0|0:0,0:0:0:0:
224,310,78328,2,0,P|232:268|226:226,1,85,10|2,0:2|1:2,0:0:0:0:
214,208,78737,1,0,3:0:0:0:
204,189,78873,6,0,L|120:189,1,85,2|0,1:2|3:0,0:0:0:0:
35,263,79282,2,0,L|120:263,1,85,2|0,1:2|3:0,0:0:0:0:
238,161,79691,2,0,L|151:161,1,85,2|0,1:2|0:0,0:0:0:0:
85,109,80100,1,8,0:0:0:0:
85,109,80237,2,0,P|73:65|85:26,2,85,0|8|10,1:0|0:0|0:2,0:0:0:0:
153,161,80919,1,10,0:2:0:0:
238,161,81055,6,0,L|323:161,1,85,6|2,1:2|0:2,0:0:0:0:
409,160,81464,1,0,1:0:0:0:
409,160,81600,1,10,0:2:0:0:
354,352,81873,2,0,P|340:313|351:273,1,85,2|0,1:2|0:0,0:0:0:0:
360,254,82282,1,0,3:0:0:0:
371,235,82419,1,2,1:2:0:0:
253,315,82691,6,0,P|233:315|211:309,1,42.5,8|0,0:0|3:0,0:0:0:0:
138,230,82964,2,0,L|134:273,1,42.5,2|2,3:2|3:2,0:0:0:0:
214,183,83237,2,0,B|205:98,1,85,2|0,1:2|0:0,0:0:0:0:
193,10,83646,1,0,1:0:0:0:
193,10,83782,5,10,0:2:0:0:
310,133,84055,2,0,L|398:123,1,85,2|0,1:2|0:0,0:0:0:0:
416,120,84464,1,10,0:2:0:0:
436,116,84600,1,2,1:2:0:0:
334,251,84873,1,8,0:0:0:0:
229,75,85146,5,2,0:2:0:0:
229,75,85282,1,2,0:2:0:0:
229,75,85419,2,0,P|221:138|235:200,1,127.5,2|0,1:2|1:0,0:0:0:0:
245,218,85964,1,8,0:0:0:0:
402,153,86237,1,2,1:2:0:0:
402,153,86373,1,2,0:2:0:0:
402,153,86509,6,0,P|407:174|403:195,1,42.5,2|8,0:2|0:0,0:0:0:0:
317,261,86782,2,0,L|359:266,1,42.5,0|0,1:0|0:0,0:0:0:0:
444,268,87055,1,8,0:0:0:0:
403,194,87191,1,10,0:2:0:0:
359,266,87328,2,0,P|358:287|366:306,1,42.5,4|2,3:0|0:2,0:0:0:0:
256,192,87600,12,0,89237,0:0:0:0:
