osu file format v14

[General]
AudioFilename: audio.mp3
AudioLeadIn: 0
PreviewTime: 15464
Countdown: 0
SampleSet: Soft
StackLeniency: 0.7
Mode: 0
LetterboxInBreaks: 0
WidescreenStoryboard: 0

[Editor]
DistanceSpacing: 1
BeatDivisor: 4
GridSize: 16
TimelineZoom: 1.4

[Metadata]
Title:Kara no Kokoro
TitleUnicode:カラノココロ
Artist:Anly
ArtistUnicode:Anly
Creator:-Sh1n1-
Version:Hard
Source:NARUTO-ナルト- 疾風伝
Tags:opening op20 seventh team Uzumaki Shippuden Hurricane Chronicles shini sotarks
BeatmapID:1283490
BeatmapSetID:607680

[Difficulty]
HPDrainRate:5
CircleSize:4
OverallDifficulty:6
ApproachRate:7
SliderMultiplier:1.5
SliderTickRate:2

[Events]
//Background and Video events
0,0,"MinatoxKushinaBG.png",0,0
Video,0,"Naruto Shippuuden OP 20.avi"
//Break Periods
//Storyboard Layer 0 (Background)
//Storyboard Layer 1 (Fail)
//Storyboard Layer 2 (Pass)
//Storyboard Layer 3 (Foreground)
//Storyboard Sound Samples

[TimingPoints]
1449,748.129675810474,4,2,1,40,1,0
11735,-100,4,2,1,20,0,0
11922,-100,4,2,1,5,0,0
13419,545.454545454546,4,2,1,70,1,0
15055,-111.111111111111,4,2,1,70,0,0
15600,-100,4,2,1,70,0,1
32100,-100,4,2,1,5,0,1
32237,-100,4,2,1,70,0,0
54873,-100,4,2,1,70,0,1
72191,-100,4,2,1,70,0,0
72328,-100,4,2,1,70,0,1
87600,-100,4,2,1,20,0,0
88146,-100,4,2,1,15,0,0
88691,-100,4,2,1,10,0,0
89237,-100,4,2,1,5,0,0

[Colours]
Combo1 : 121,181,240
Combo2 : 255,255,128
Combo3 : 157,239,148
Combo4 : 245,137,140

[HitObjects]
72,160,1449,6,0,P|108:164|148:160,1,75,2|2,0:0|0:0,0:0:0:0:
256,108,2197,2,0,P|292:104|332:108,1,75,0|2,0:0|0:0,0:0:0:0:
448,124,2945,2,0,L|455:48,2,75,2|2|0,0:0|0:0|0:0,0:0:0:0:
436,244,4067,1,2,0:0:0:0:
360,336,4441,6,0,P|324:328|284:336,1,75,2|2,0:0|0:0,0:0:0:0:
168,352,5189,2,0,L|154:272,1,75,0|2,0:0|0:0,0:0:0:0:
212,172,5937,2,0,L|198:92,2,75,2|2|0,0:0|0:0|0:0,0:0:0:0:
324,212,7059,1,2,0:0:0:0:
438,172,7434,6,0,L|452:92,1,75,2|2,0:0|0:0,0:0:0:0:
315,18,8182,2,0,L|327:91,1,75,0|2,0:0|0:0,0:0:0:0:
324,212,8930,1,2,0:0:0:0:
238,296,9304,2,0,P|194:300|156:298,1,75,2|2,0:0|0:0,0:0:0:0:
44,283,10052,1,2,0:0:0:0:
25,164,10426,6,0,P|69:160|107:162,1,75,2|2,0:0|0:0,0:0:0:0:
219,171,11174,2,0,P|219:133|223:96,2,75,0|2|0,0:0|0:0|0:0,0:0:0:0:
219,171,13419,6,0,L|255:161,3,37.5,2|2|2|2,0:0|0:0|0:0|0:0,0:0:0:0:
326,193,14237,2,0,L|362:183,3,37.5,2|2|2|2,0:0|0:0|0:0|0:0,0:0:0:0:
438,200,15055,2,0,P|453:254|438:298,1,101.249996910095,2|0,0:0|0:0,0:0:0:0:
406,312,15600,6,0,B|367:302|367:302|294:312,1,112.5,6|0,1:2|1:0,0:0:0:0:
258,320,16146,1,10,0:2:0:0:
157,350,16419,1,2,1:2:0:0:
61,310,16691,2,0,L|11:322,2,37.5,2|0|2,3:2|3:0|1:2,0:0:0:0:
97,210,17237,2,0,P|107:172|97:137,1,75,10|2,0:2|1:2,0:0:0:0:
4,19,17782,6,0,L|123:21,1,112.5,2|2,1:2|1:2,0:0:0:0:
154,20,18328,1,8,0:0:0:0:
257,34,18600,1,2,1:2:0:0:
252,140,18873,2,0,L|177:138,2,75,0|4|8,0:0|1:0|0:0,0:0:0:0:
356,120,19691,1,0,3:3:0:0:
446,172,19964,6,0,P|453:207|446:247,1,75,2|2,1:2|0:2,0:0:0:0:
430,279,20373,1,2,1:2:0:0:
410,310,20509,1,10,0:2:0:0:
305,298,20782,2,0,B|271:291|271:291|227:297,1,75,2|2,1:2|0:2,0:0:0:0:
194,302,21191,1,2,3:2:0:0:
157,310,21328,1,2,1:2:0:0:
55,282,21600,2,0,P|46:247|54:204,1,75,10|2,0:2|3:2,0:0:0:0:
97,114,22146,6,0,L|213:137,1,112.5,0|0,1:0|3:0,0:0:0:0:
243,144,22691,1,10,0:2:0:0:
346,162,22964,1,0,1:0:0:0:
438,114,23237,2,0,L|426:33,2,75,2|2|10,0:2|1:2|0:2,0:0:0:0:
455,218,24055,2,0,L|410:212,1,37.5,2|2,3:2|3:2,0:0:0:0:
387,234,24328,6,0,P|329:243|279:212,1,112.5,6|0,1:2|1:0,0:0:0:0:
259,189,24874,1,10,0:2:0:0:
225,89,25147,1,2,1:2:0:0:
135,141,25419,2,0,L|84:141,2,37.5,2|8|2,0:2|0:0|1:2,0:0:0:0:
124,244,25964,2,0,L|49:244,1,75,10|2,0:2|3:2,0:0:0:0:
172,332,26510,6,0,B|204:336|204:336|291:331,1,112.5,2|2,1:2|1:2,0:0:0:0:
321,323,27056,1,10,0:2:0:0:
403,258,27328,2,0,L|415:210,1,37.5,2|0,1:2|0:0,0:0:0:0:
401,185,27601,2,0,L|420:102,2,75,0|4|8,0:0|1:0|0:0,0:0:0:0:
324,257,28419,1,0,3:0:0:0:
219,267,28692,6,0,P|182:262|145:268,1,75,2|2,1:2|0:2,0:0:0:0:
109,279,29101,1,2,1:2:0:0:
73,291,29237,1,10,0:2:0:0:
30,194,29510,2,0,L|24:112,1,75,2|2,1:2|0:2,0:0:0:0:
22,81,29919,1,10,0:2:0:0:
18,43,30056,1,2,1:2:0:0:
116,77,30328,2,0,L|122:151,1,75,10|2,0:2|3:2,0:0:0:0:
190,231,30873,5,0,1:0:0:0:
286,187,31146,2,0,P|304:184|323:184,1,37.5,10|0,0:2|0:0,0:0:0:0:
360,180,31419,2,0,L|367:134,2,37.5,10|8|0,0:2|0:0|1:0,0:0:0:0:
463,197,31964,2,0,L|472:149,1,37.5,2|0,0:0|0:0,0:0:0:0:
479,123,32237,1,2,1:2:0:0:
479,123,33055,6,0,P|440:113|407:122,1,75,2|0,1:2|0:0,0:0:0:0:
375,142,33464,2,0,P|336:152|303:143,1,75,0|0,1:0|0:0,0:0:0:0:
269,127,33873,2,0,L|256:279,1,150,14|0,0:2|1:0,0:0:0:0:
319,359,34691,1,8,0:0:0:0:
424,359,34964,1,2,0:2:0:0:
489,276,35237,6,0,L|482:201,1,75,2|2,1:2|0:2,0:0:0:0:
457,172,35646,2,0,L|464:97,1,75,10|2,0:2|3:2,0:0:0:0:
468,59,36055,2,0,B|413:67|413:67|318:55,1,150,2|2,1:2|3:0,0:0:0:0:
216,29,36873,1,8,0:0:0:0:
124,81,37146,1,2,0:2:0:0:
134,185,37419,6,0,P|139:220|133:263,1,75,0|2,1:2|0:2,0:0:0:0:
130,296,37828,2,0,L|223:283,1,75,2|2,1:2|0:2,0:0:0:0:
235,306,38237,2,0,L|385:285,1,150,10|2,0:2|3:0,0:0:0:0:
462,215,39055,1,8,0:0:0:0:
419,118,39328,1,2,0:2:0:0:
318,147,39600,6,0,P|282:155|246:149,1,75,2|2,1:2|0:2,0:0:0:0:
208,140,40009,2,0,P|196:176|202:220,1,75,10|2,0:2|3:2,0:0:0:0:
208,249,40418,2,0,L|92:231,1,112.5,2|10,1:2|0:2,0:0:0:0:
59,225,40964,2,0,L|55:172,3,37.5,0|0|8|0,3:2|0:0|0:0|0:0,0:0:0:0:
54,150,41509,1,2,3:2:0:0:
50,44,41782,6,0,P|86:49|123:41,1,75,2|2,1:2|0:2,0:0:0:0:
159,28,42191,2,0,L|168:111,1,75,0|2,0:0|0:2,0:0:0:0:
172,139,42600,1,10,0:2:0:0:
269,179,42873,2,0,L|266:123,2,37.5,2|8|2,0:2|0:2|1:2,0:0:0:0:
358,233,43418,1,10,0:2:0:0:
280,304,43691,1,0,0:0:0:0:
183,263,43964,6,0,P|146:258|108:265,1,75,2|2,1:2|0:2,0:0:0:0:
72,272,44373,2,0,L|72:193,1,75,10|2,0:2|3:2,0:0:0:0:
75,159,44782,2,0,P|131:174|183:156,1,112.5,2|8,1:2|0:0,0:0:0:0:
199,124,45328,2,0,L|184:76,3,37.5,2|0|8|0,3:0|0:0|0:0|0:0,0:0:0:0:
176,52,45873,1,2,0:2:0:0:
280,41,46146,6,0,P|316:49|357:38,1,75,2|2,1:2|0:2,0:0:0:0:
388,28,46555,2,0,L|390:126,1,75,10|2,0:2|3:2,0:0:0:0:
394,140,46964,2,0,B|282:154|282:154|245:146,1,150,2|2,1:2|3:0,0:0:0:0:
154,93,47782,1,10,0:2:0:0:
96,181,48055,1,0,3:0:0:0:
171,253,48328,6,0,P|178:290|172:327,1,75,2|2,1:2|0:2,0:0:0:0:
163,363,48737,2,0,L|240:363,1,75,2|2,1:2|0:2,0:0:0:0:
275,366,49146,1,2,1:2:0:0:
361,306,49419,1,8,0:0:0:0:
327,206,49691,1,8,0:0:0:0:
221,209,49964,2,0,L|186:222,2,37.5,8|8|4,0:0|3:0|3:0,0:0:0:0:
271,117,50509,6,0,P|280:82|267:43,1,75,6|2,1:2|0:2,0:0:0:0:
170,6,51055,1,0,0:0:0:0:
72,45,51328,2,0,P|60:80|69:116,1,75,2|2,0:2|0:2,0:0:0:0:
125,205,51874,1,2,0:2:0:0:
229,205,52146,5,2,0:2:0:0:
334,205,52419,1,2,1:2:0:0:
396,289,52691,2,0,P|399:309|395:331,1,37.5,8|8,0:0|0:0,0:0:0:0:
370,352,52964,2,0,L|325:351,1,37.5,8|8,0:0|0:0,0:0:0:0:
246,233,53509,5,8,0:0:0:0:
246,233,53645,1,8,0:0:0:0:
246,233,54873,6,0,B|255:304|255:304|245:343,1,112.5,6|0,1:2|1:0,0:0:0:0:
224,375,55419,1,10,0:2:0:0:
135,318,55692,1,2,1:2:0:0:
51,254,55964,2,0,P|26:258|-3:255,2,37.5,2|0|2,3:2|3:0|1:2,0:0:0:0:
103,162,56510,2,0,L|19:150,1,75,10|2,0:2|1:2,0:0:0:0:
163,82,57055,6,0,L|280:65,1,112.5,2|2,1:2|1:2,0:0:0:0:
311,59,57601,1,8,0:0:0:0:
379,137,57873,2,0,P|383:170|377:211,1,75,2|0,1:2|0:0,0:0:0:0:
313,295,58419,2,0,L|268:303,1,37.5,4|0,1:0|0:0,0:0:0:0:
233,286,58691,2,0,L|187:286,1,37.5,8|0,0:0|3:0,0:0:0:0:
161,256,58964,1,0,3:3:0:0:
161,256,59237,6,0,P|168:221|161:181,1,75,2|2,1:2|0:2,0:0:0:0:
140,151,59646,1,2,1:2:0:0:
119,119,59782,1,10,0:2:0:0:
213,71,60055,2,0,B|247:78|247:78|291:72,1,75,2|2,1:2|0:2,0:0:0:0:
324,68,60464,1,2,3:2:0:0:
361,62,60601,1,2,1:2:0:0:
417,151,60873,2,0,L|460:144,2,37.5,10|0|2,0:2|3:0|3:2,0:0:0:0:
376,248,61419,6,0,L|260:225,1,112.5,0|0,1:0|3:0,0:0:0:0:
229,216,61964,1,10,0:2:0:0:
127,188,62237,1,0,1:0:0:0:
204,116,62510,2,0,P|208:93|206:34,2,75,2|2|10,0:2|1:2|0:2,0:0:0:0:
127,188,63328,2,0,L|81:185,1,37.5,2|2,3:2|3:2,0:0:0:0:
51,184,63601,6,0,P|27:240|42:295,1,112.5,6|0,1:2|1:0,0:0:0:0:
66,313,64147,1,10,0:2:0:0:
164,349,64420,1,2,1:2:0:0:
256,297,64692,2,0,L|293:293,2,37.5,2|8|2,0:2|0:0|1:2,0:0:0:0:
372,325,65237,2,0,P|377:284|367:252,1,75,10|2,0:2|3:2,0:0:0:0:
284,129,65782,6,0,B|317:138|317:138|394:127,1,112.5,2|2,1:2|1:2,0:0:0:0:
431,120,66329,1,10,0:2:0:0:
484,209,66601,2,0,L|403:221,1,75,2|0,1:2|0:0,0:0:0:0:
337,296,67146,2,0,L|299:291,1,37.5,4|0,1:0|0:0,0:0:0:0:
254,291,67419,2,0,L|216:295,1,37.5,8|0,0:0|3:0,0:0:0:0:
172,298,67691,1,0,3:0:0:0:
172,298,67964,6,0,L|143:220,1,75,2|2,1:2|0:2,0:0:0:0:
132,191,68373,1,2,1:2:0:0:
119,155,68510,1,10,0:2:0:0:
85,55,68782,2,0,P|119:68|157:70,1,75,2|2,1:2|0:2,0:0:0:0:
194,71,69191,1,10,0:2:0:0:
231,68,69327,1,2,1:2:0:0:
336,61,69601,2,0,L|332:10,2,37.5,10|0|2,0:2|3:0|3:2,0:0:0:0:
347,165,70146,1,2,1:2:0:0:
358,269,70419,2,0,P|375:263|420:254,1,37.5,2|0,0:2|1:0,0:0:0:0:
428,243,70691,5,10,0:2:0:0:
428,243,70964,1,0,1:0:0:0:
490,158,71237,2,0,L|496:118,1,37.5,2|8,0:2|0:0,0:0:0:0:
479,78,71509,2,0,L|423:83,1,37.5,2|0,1:2|0:0,0:0:0:0:
396,81,71782,2,0,L|358:77,2,37.5,8|8|4,0:0|3:0|3:0,0:0:0:0:
292,19,72328,6,0,L|169:35,1,112.5,6|0,1:2|1:0,0:0:0:0:
144,43,72873,1,10,0:2:0:0:
47,81,73146,2,0,P|27:160|67:209,1,150,2|2,1:2|1:2,0:0:0:0:
171,220,73964,1,8,0:0:0:0:
268,178,74237,2,0,L|312:175,1,37.5,0|2,3:2|3:2,0:0:0:0:
339,190,74509,6,0,B|349:218|349:218|339:304,1,112.5,2|2,1:2|1:2,0:0:0:0:
335,337,75055,1,10,0:2:0:0:
238,296,75328,2,0,P|203:287|161:298,1,75,2|0,1:2|0:0,0:0:0:0:
132,312,75737,1,0,3:0:0:0:
98,329,75873,1,2,1:2:0:0:
24,253,76146,2,0,L|19:171,1,75,8|2,0:0|3:2,0:0:0:0:
90,100,76691,6,0,L|120:56,1,37.5,2|0,1:2|0:0,0:0:0:0:
153,84,76964,2,0,L|198:56,1,37.5,0|0,0:0|1:0,0:0:0:0:
224,84,77237,2,0,L|303:76,1,75,8|0,0:0|1:0,0:0:0:0:
311,180,77782,2,0,L|281:224,1,37.5,2|0,1:2|0:0,0:0:0:0:
248,196,78055,2,0,L|202:223,1,37.5,0|0,1:0|0:0,0:0:0:0:
177,196,78328,2,0,L|97:203,1,75,10|2,0:2|1:2,0:0:0:0:
125,305,78873,6,0,L|13:296,2,112.5,2|2|2,1:2|1:2|1:2,0:0:0:0:
177,196,79964,2,0,L|97:203,2,75,0|0|8,0:0|1:0|0:0,0:0:0:0:
280,172,80782,2,0,P|279:149|274:120,1,37.5,10|10,0:2|0:2,0:0:0:0:
269,97,81055,6,0,L|386:89,1,112.5,6|0,1:2|1:0,0:0:0:0:
418,86,81600,1,10,0:2:0:0:
473,175,81873,2,0,P|485:263|481:335,1,150,2|2,1:2|1:2,0:0:0:0:
379,344,82691,1,8,0:0:0:0:
296,278,82964,2,0,L|246:272,1,37.5,2|2,3:2|3:2,0:0:0:0:
228,296,83237,6,0,L|111:274,1,112.5,2|0,1:2|1:0,0:0:0:0:
80,267,83782,1,10,0:2:0:0:
60,163,84055,2,0,L|53:84,1,75,2|0,1:2|0:0,0:0:0:0:
50,50,84464,1,10,0:2:0:0:
46,12,84600,1,2,1:2:0:0:
139,65,84873,2,0,L|213:58,1,75,8|2,0:0|0:2,0:0:0:0:
250,65,85282,1,2,0:2:0:0:
278,90,85419,6,0,L|287:178,1,75,2|0,1:2|0:0,0:0:0:0:
341,253,85964,2,0,L|415:259,1,75,8|2,0:0|1:2,0:0:0:0:
453,259,86373,1,2,0:2:0:0:
483,236,86510,2,0,L|493:178,2,37.5,2|8|0,0:2|0:0|1:0,0:0:0:0:
414,156,87055,2,0,L|419:111,2,37.5,8|10|4,0:0|0:2|3:0,0:0:0:0:
256,192,87600,12,0,89237,0:0:0:0:
