osu file format v14

[General]
AudioFilename: audio.mp3
AudioLeadIn: 1825
PreviewTime: 58948
Countdown: 0
SampleSet: Soft
StackLeniency: 0.7
Mode: 0
LetterboxInBreaks: 0
WidescreenStoryboard: 0

[Editor]
Bookmarks: 3194,18288,30363,42439,59043,71118,86212
DistanceSpacing: 1
BeatDivisor: 2
GridSize: 32
TimelineZoom: 1

[Metadata]
Title:Enter Enter MISSION! (TV size)
TitleUnicode:Enter Enter MISSION! (TV size)
Artist:Ankou Team
ArtistUnicode:あんこうチーム
Creator:Pata-Mon
Version:Normal
Source:ガールズ&パンツァー
Tags:Dored GIRLS und PANZER 西住みほ Nishizumi Miho 武部沙織 Takebe Saori 五十鈴華 Isuzu Hana 秋山優花里 Akiyama Yukari 冷泉麻子 Reizei Mako 渕上舞 Fuchigami Mai 茅野愛衣 Kayano Ai 尾崎真実 Ozaki Mami 中上育実 Nakagami Ikumi 井口裕香 Iguchi Yuka Anime OP opening tv size
BeatmapID:1465466
BeatmapSetID:692559

[Difficulty]
HPDrainRate:4
CircleSize:3
OverallDifficulty:4
ApproachRate:5
SliderMultiplier:1.1
SliderTickRate:1

[Events]
//Background and Video events
0,0,"BG.jpg",0,0
Video,-1100,"video.flv"
//Break Periods
//Storyboard Layer 0 (Background)
//Storyboard Layer 1 (Fail)
//Storyboard Layer 2 (Pass)
//Storyboard Layer 3 (Foreground)
//Storyboard Sound Samples

[TimingPoints]
175.234126709115,377.358490566038,4,2,1,50,1,0
3194,-100,4,2,1,70,0,0
13760,-100,4,2,1,50,0,0
16779,-100,4,2,1,70,0,0
42439,-100,4,2,1,60,0,0
54514,-100,4,2,1,70,0,0
59043,-100,4,2,1,80,0,1
69420,-100,4,2,1,50,0,1
69797,-100,4,2,1,80,0,1
86212,-100,4,2,1,80,0,0

[Colours]
Combo1 : 127,255,127
Combo2 : 255,191,96
Combo3 : 127,127,255
Combo4 : 255,127,127

[HitObjects]
181,170,175,6,0,P|185:112|201:63,1,110,2|0,0:0|0:0,0:0:0:0:
311,63,929,2,0,P|327:112|331:170,1,110,2|0,0:0|0:0,0:0:0:0:
406,250,1684,2,0,B|360:290|302:290|256:250|256:250|210:290|152:290|106:250,1,330,2|0,0:0|0:0,0:0:0:0:
181,170,3194,6,0,P|256:140|331:170,2,165,6|2|2,0:0|0:0|0:0,0:0:0:0:
147,274,4703,1,6,0:0:0:0:
147,274,4892,2,0,P|100:245|74:198,1,110,2|2,0:0|0:0,0:0:0:0:
74,143,5458,2,0,P|100:95|147:66,1,110,10|2,0:0|0:0,0:0:0:0:
181,170,6212,6,0,P|256:200|331:170,1,165,6|2,0:0|0:0,0:0:0:0:
365,127,6967,1,10,0:0:0:0:
365,127,7156,2,0,L|361:57,2,55,10|0|0,0:0|0:0|0:0,0:0:0:0:
417,144,7722,2,0,P|428:177|430:273,1,110,6|0,0:0|0:0,0:0:0:0:
397,356,8477,1,6,0:0:0:0:
293,320,8854,1,2,0:0:0:0:
189,356,9231,6,0,P|135:358|68:336,1,110,2|0,0:0|0:0,0:0:0:0:
33,315,9797,2,0,L|37:245,1,55,2|2,0:0|0:0,0:0:0:0:
101,171,10363,2,0,P|155:169|222:191,1,110,2|2,0:0|0:0,0:0:0:0:
257,212,10929,2,0,L|253:282,1,55,2|2,0:0|0:0,0:0:0:0:
360,241,11495,2,0,L|356:171,1,55,2|0,0:0|0:0,0:0:0:0:
331,137,11873,2,0,L|335:67,1,55,2|0,0:0|0:0,0:0:0:0:
298,40,12250,6,0,P|247:30|167:51,1,110,6|2,0:0|0:0,0:0:0:0:
83,65,13005,1,10,0:0:0:0:
83,65,13194,2,0,L|79:-5,2,55,2|2|2,0:0|0:0|0:0,0:0:0:0:
109,114,13760,2,0,L|105:184,1,55,10|8,0:0|0:0,0:0:0:0:
106,169,15269,6,0,B|152:129|210:129|256:169|256:169|302:129|360:129|406:169,1,330,2|0,0:0|0:0,0:0:0:0:
331,249,16779,2,0,P|327:306|311:355,1,110,2|0,0:0|0:0,0:0:0:0:
201,356,17533,2,0,P|185:307|181:249,1,55,2|2,0:0|0:0,0:0:0:0:
181,249,17911,1,10,0:0:0:0:
229,150,18288,6,0,L|369:142,1,110,2|8,0:0|0:0,0:0:0:0:
431,204,19043,2,0,L|501:208,2,55,2|2|8,0:0|0:0|0:0,0:0:0:0:
390,241,19609,2,0,L|250:249,1,110,2|2,0:0|0:0,0:0:0:0:
225,251,20175,1,10,0:0:0:0:
147,329,20552,2,0,L|143:399,2,55,2|2|8,0:0|0:0|0:0,0:0:0:0:
119,222,21307,6,0,P|104:168|101:114,1,110,2|8,0:0|0:0,0:0:0:0:
151,15,22062,2,0,L|221:19,1,55,2|2,0:0|0:0,0:0:0:0:
249,51,22439,1,10,0:0:0:0:
249,51,22628,2,0,P|303:48|356:34,1,110,2|2,0:0|0:0,0:0:0:0:
406,5,23194,1,10,0:0:0:0:
487,78,23571,2,0,L|483:148,1,55,2|2,0:0|0:0,0:0:0:0:
480,188,23948,1,10,0:0:0:0:
378,145,24326,6,0,P|324:148|271:162,1,110,6|8,0:0|0:0,0:0:0:0:
210,254,25080,2,0,L|140:250,2,55,2|2|8,0:0|0:0|0:0,0:0:0:0:
241,299,25646,2,0,P|295:314|349:317,1,110,2|2,0:0|0:0,0:0:0:0:
402,305,26212,1,10,0:0:0:0:
342,212,26590,2,0,L|288:202,2,55,2|2|10,0:0|0:0|0:0,0:0:0:0:
395,195,27156,1,2,0:0:0:0:
395,195,27345,6,0,P|408:121|403:51,1,110,2|8,0:0|0:0,0:0:0:0:
385,36,27911,2,0,L|245:44,1,110,2|2,0:0|0:0,0:0:0:0:
213,133,28665,2,0,B|106:176|107:90|0:133,1,220,6|0,0:0|0:0,0:0:0:0:
3,188,29609,2,0,L|7:258,1,55,6|0,0:0|0:0,0:0:0:0:
10,298,29986,1,6,0:0:0:0:
108,348,30363,6,0,P|162:345|215:331,1,110,6|8,0:0|0:0,0:0:0:0:
313,279,31118,2,0,L|383:283,2,55,2|2|8,0:0|0:0|0:0,0:0:0:0:
276,238,31684,2,0,P|261:184|258:130,1,110,2|2,0:0|0:0,0:0:0:0:
276,78,32250,1,10,0:0:0:0:
369,19,32628,2,0,L|439:23,2,55,2|2|8,0:0|0:0|0:0,0:0:0:0:
276,78,33382,6,0,P|222:75|169:61,1,110,2|8,0:0|0:0,0:0:0:0:
119,34,33948,1,2,0:0:0:0:
40,111,34326,2,0,L|36:181,1,55,2|8,0:0|0:0,0:0:0:0:
81,198,34703,2,0,P|96:252|99:306,1,110,2|2,0:0|0:0,0:0:0:0:
140,342,35269,2,0,L|210:338,1,55,10|0,0:0|0:0,0:0:0:0:
238,373,35646,2,0,L|308:377,2,55,2|2|8,0:0|0:0|0:0,0:0:0:0:
282,271,36401,6,0,P|279:217|265:164,1,110,2|8,0:0|0:0,0:0:0:0:
200,74,37156,2,0,L|204:4,2,55,2|2|8,0:0|0:0|0:0,0:0:0:0:
165,117,37722,2,0,P|111:132|57:135,1,110,2|2,0:0|0:0,0:0:0:0:
2,130,38288,1,10,0:0:0:0:
8,240,38665,2,0,L|12:310,2,55,2|2|8,0:0|0:0|0:0,0:0:0:0:
117,252,39420,6,0,P|171:249|224:235,1,110,2|8,0:0|0:0,0:0:0:0:
274,211,39986,1,2,0:0:0:0:
363,274,40363,2,0,L|433:270,1,55,2|8,0:0|0:0,0:0:0:0:
458,233,40741,2,0,P|473:179|476:125,1,110,2|2,0:0|0:0,0:0:0:0:
443,80,41307,2,0,L|373:84,1,55,10|0,0:0|0:0,0:0:0:0:
345,49,41684,2,0,L|275:45,2,55,2|2|8,0:0|0:0|0:0,0:0:0:0:
301,151,42439,6,0,P|247:166|193:169,1,110,2|8,0:0|0:0,0:0:0:0:
140,155,43005,2,0,P|155:209|158:263,1,110,2|2,0:0|0:0,0:0:0:0:
144,316,43571,2,0,P|198:301|252:298,1,110,10|0,0:0|0:0,0:0:0:0:
305,312,44137,1,2,0:0:0:0:
305,312,44326,2,0,P|290:258|287:204,2,110,10|2|8,0:0|0:0|0:0,0:0:0:0:
413,293,45458,6,0,P|410:239|396:186,1,110,2|8,0:0|0:0,0:0:0:0:
361,141,46024,2,0,P|320:104|273:77,1,110,2|2,0:0|0:0,0:0:0:0:
216,70,46590,2,0,P|162:72|109:86,1,110,10|0,0:0|0:0,0:0:0:0:
64,122,47156,1,2,0:0:0:0:
64,122,47345,2,0,P|27:162|0:209,1,110,10|2,0:0|0:0,0:0:0:0:
0,320,48099,1,10,0:0:0:0:
95,265,48477,6,0,P|149:250|203:247,1,110,2|8,0:0|0:0,0:0:0:0:
202,191,49043,2,0,P|148:176|94:173,1,110,2|2,0:0|0:0,0:0:0:0:
95,117,49609,2,0,P|149:102|203:99,1,110,10|0,0:0|0:0,0:0:0:0:
202,43,50175,1,2,0:0:0:0:
202,43,50363,2,0,P|148:28|94:25,2,110,10|2|8,0:0|0:0|0:0,0:0:0:0:
312,43,51495,6,0,P|366:28|420:25,1,110,2|8,0:0|0:0,0:0:0:0:
465,57,52062,2,0,P|480:111|483:165,1,110,2|2,0:0|0:0,0:0:0:0:
451,210,52628,2,0,P|397:225|343:228,1,110,10|0,0:0|0:0,0:0:0:0:
298,196,53194,1,2,0:0:0:0:
298,196,53383,2,0,P|283:142|280:88,1,110,10|2,0:0|0:0,0:0:0:0:
191,23,54137,1,10,0:0:0:0:
102,88,54514,5,6,0:0:0:0:
136,193,54892,1,2,0:0:0:0:
246,193,55269,1,2,0:0:0:0:
280,88,55646,2,0,P|309:73|365:68,1,55,2|8,0:0|0:0,0:0:0:0:
385,73,56024,1,2,0:0:0:0:
385,73,56212,2,0,P|388:127|402:180,1,110,10|0,0:0|0:0,0:0:0:0:
439,222,56779,2,0,L|435:292,1,55,10|0,0:0|0:0,0:0:0:0:
432,332,57156,1,10,0:0:0:0:
274,378,57722,6,0,P|230:356|205:325,2,55,2|2|2,0:0|0:0|0:0,0:0:0:0:
328,378,58288,2,0,P|372:356|397:325,2,55,2|2|8,0:0|0:0|0:0,0:0:0:0:
301,271,59043,6,0,P|298:217|284:164,1,110,6|8,0:0|0:0,0:0:0:0:
258,113,59609,2,0,P|204:128|150:131,1,110,2|2,0:0|0:0,0:0:0:0:
97,119,60175,1,10,0:0:0:0:
157,26,60552,1,2,0:0:0:0:
157,26,60741,2,0,L|211:16,2,55,2|8|2,0:0|0:0|0:0,0:0:0:0:
104,9,61307,1,2,0:0:0:0:
3,61,61684,1,10,0:0:0:0:
97,119,62062,6,0,P|112:173|115:227,1,110,2|8,0:0|0:0,0:0:0:0:
94,277,62628,1,2,0:0:0:0:
179,345,63005,2,0,L|249:349,2,55,2|8|0,0:0|0:0|0:0,0:0:0:0:
209,299,63571,2,0,P|224:245|227:191,1,110,2|8,0:0|0:0,0:0:0:0:
215,137,64137,1,2,0:0:0:0:
215,137,64326,1,2,0:0:0:0:
304,72,64703,1,10,0:0:0:0:
393,137,65080,6,0,P|447:152|501:155,1,110,6|8,0:0|0:0,0:0:0:0:
511,209,65646,2,0,P|508:263|494:316,1,110,2|2,0:0|0:0,0:0:0:0:
464,363,66212,1,10,0:0:0:0:
396,276,66590,1,2,0:0:0:0:
396,276,66779,2,0,L|406:222,2,55,2|8|2,0:0|0:0|0:0,0:0:0:0:
363,320,67345,2,0,P|309:335|255:338,1,110,2|8,0:0|0:0,0:0:0:0:
210,306,67911,1,2,0:0:0:0:
210,306,68099,6,0,P|156:291|102:288,2,110,2|8|2,0:0|0:0|0:0,0:0:0:0:
227,253,69043,2,0,P|229:219|221:175,1,55,2|2,0:0|0:0,0:0:0:0:
210,146,69420,1,6,0:0:0:0:
311,103,69797,2,0,L|381:107,2,55,2|2|2,0:0|0:0|0:0,0:0:0:0:
278,59,70363,1,10,0:0:0:0:
169,44,70741,1,10,0:0:0:0:
210,146,71118,6,0,P|225:200|228:254,1,110,6|8,0:0|0:0,0:0:0:0:
281,267,71684,2,0,P|335:264|388:250,1,110,2|2,0:0|0:0,0:0:0:0:
435,220,72250,1,10,0:0:0:0:
348,152,72628,1,2,0:0:0:0:
348,152,72816,2,0,L|294:162,2,55,2|8|2,0:0|0:0|0:0,0:0:0:0:
392,119,73382,1,2,0:0:0:0:
435,220,73760,1,10,0:0:0:0:
364,303,74137,6,0,P|310:318|256:321,1,110,2|8,0:0|0:0,0:0:0:0:
202,309,74703,1,2,0:0:0:0:
122,233,75080,2,0,L|52:237,2,55,2|8|0,0:0|0:0|0:0,0:0:0:0:
169,204,75646,2,0,P|184:150|187:96,1,110,2|8,0:0|0:0,0:0:0:0:
173,43,76212,1,2,0:0:0:0:
173,43,76401,1,2,0:0:0:0:
281,26,76779,1,10,0:0:0:0:
389,9,77156,6,0,P|404:63|407:117,1,110,6|8,0:0|0:0,0:0:0:0:
394,170,77722,2,0,P|340:173|287:187,1,110,2|2,0:0|0:0,0:0:0:0:
240,217,78288,1,8,0:0:0:0:
327,285,78666,1,2,0:0:0:0:
327,285,78854,2,0,L|381:275,2,55,2|8|2,0:0|0:0|0:0,0:0:0:0:
283,318,79420,1,2,0:0:0:0:
240,217,79797,1,10,0:0:0:0:
197,116,80175,5,6,0:0:0:0:
197,116,80363,2,0,L|193:46,2,55,2|8|0,0:0|0:0|0:0,0:0:0:0:
145,136,80929,2,0,P|130:190|127:244,1,110,2|8,0:0|0:0,0:0:0:0:
197,328,81684,1,2,0:0:0:0:
197,328,81873,2,0,L|201:398,2,55,2|8|0,0:0|0:0|0:0,0:0:0:0:
249,308,82439,2,0,P|264:254|267:200,1,110,2|8,0:0|0:0,0:0:0:0:
249,92,83194,5,2,0:0:0:0:
352,131,83571,2,0,P|367:185|370:239,1,110,14|0,0:0|0:0,0:0:0:0:
337,283,84137,2,0,L|341:353,1,55,2|8,0:0|0:0,0:0:0:0:
293,367,84514,2,0,P|239:364|186:350,1,110,6|0,0:0|0:0,0:0:0:0:
144,312,85080,2,0,P|90:315|37:329,2,110,2|2|2,0:0|0:0|0:0,0:0:0:0:
115,205,86212,6,0,P|118:151|132:98,1,110,6|2,0:0|0:0,0:0:0:0:
171,58,86779,2,0,P|223:44|278:41,1,110,6|2,0:0|0:0,0:0:0:0:
329,64,87345,2,0,P|358:109|378:160,1,110,6|2,0:0|0:0,0:0:0:0:
369,216,87911,2,0,P|334:257|292:292,1,110,6|0,0:0|0:0,0:0:0:0:
237,302,88477,2,0,P|186:282|140:252,1,55,2|2,0:0|0:0,0:0:0:0:
140,252,88854,1,6,0:0:0:0:
