osu file format v14

[General]
AudioFilename: audio.mp3
AudioLeadIn: 1825
PreviewTime: 58948
Countdown: 0
SampleSet: Soft
StackLeniency: 0.7
Mode: 0
LetterboxInBreaks: 0
WidescreenStoryboard: 0

[Editor]
Bookmarks: 3194,18288,30363,42439,59043,71118,86212
DistanceSpacing: 1
BeatDivisor: 1
GridSize: 32
TimelineZoom: 1

[Metadata]
Title:Enter Enter MISSION! (TV size)
TitleUnicode:Enter Enter MISSION! (TV size)
Artist:Ankou Team
ArtistUnicode:あんこうチーム
Creator:Pata-Mon
Version:Easy
Source:ガールズ&パンツァー
Tags:Dored GIRLS und PANZER 西住みほ Nishizumi Miho 武部沙織 Takebe Saori 五十鈴華 Isuzu Hana 秋山優花里 Akiyama Yukari 冷泉麻子 Reizei Mako 渕上舞 Fuchigami Mai 茅野愛衣 Kayano Ai 尾崎真実 Ozaki Mami 中上育実 Nakagami Ikumi 井口裕香 Iguchi Yuka Anime OP opening tv size
BeatmapID:1465464
BeatmapSetID:692559

[Difficulty]
HPDrainRate:2
CircleSize:2.5
OverallDifficulty:2
ApproachRate:3
SliderMultiplier:0.9
SliderTickRate:1

[Events]
//Background and Video events
0,0,"BG.jpg",0,0
Video,-1100,"video.flv"
//Break Periods
2,13959,15339
//Storyboard Layer 0 (Background)
//Storyboard Layer 1 (Fail)
//Storyboard Layer 2 (Pass)
//Storyboard Layer 3 (Foreground)
//Storyboard Sound Samples

[TimingPoints]
175.234126709115,377.358490566038,4,2,1,50,1,0
3194,-100,4,2,1,70,0,0
42439,-100,4,2,1,60,0,0
54514,-100,4,2,1,70,0,0
59043,-100,4,2,1,80,0,1
69420,-100,4,2,1,50,0,1
69797,-100,4,2,1,80,0,1
86212,-100,4,2,1,80,0,0

[Colours]
Combo1 : 127,255,127
Combo2 : 255,191,96
Combo3 : 127,127,255
Combo4 : 255,127,127

[HitObjects]
169,87,175,6,0,P|263:67|355:94,2,180,2|2|2,0:0|0:0|0:0,0:0:0:0:
133,214,3194,6,0,B|170:246|219:246|256:214|256:214|293:246|342:246|379:214,1,270,6|0,0:0|0:0,0:0:0:0:
318,148,4703,2,0,P|285:59|194:148,1,270,6|0,0:0|0:0,0:0:0:0:
256,214,6212,6,0,P|223:303|132:214,1,270,6|0,0:0|0:0,0:0:0:0:
194,148,7722,2,0,P|191:103|179:59,1,90,6|0,0:0|0:0,0:0:0:0:
89,59,8477,2,0,P|77:103|74:148,1,90,6|0,0:0|0:0,0:0:0:0:
73,237,9231,6,0,P|76:282|88:326,1,90,6|0,0:0|0:0,0:0:0:0:
178,326,9986,2,0,P|190:282|193:237,1,90,2|0,0:0|0:0,0:0:0:0:
133,170,10741,2,0,P|111:86|167:20,1,180,6|0,0:0|0:0,0:0:0:0:
256,33,11873,1,2,0:0:0:0:
345,20,12250,6,0,P|401:86|379:170,2,180,6|2|2,0:0|0:0|0:0,0:0:0:0:
256,33,16779,6,0,L|256:160,1,90,2|0,0:0|0:0,0:0:0:0:
256,212,17533,2,0,L|256:288,2,45,2|2|8,0:0|0:0|0:0,0:0:0:0:
178,168,18288,5,6,0:0:0:0:
100,213,18665,1,10,0:0:0:0:
100,303,19043,2,0,P|147:343|245:318,2,135,2|2|8,0:0|0:0|0:0,0:0:0:0:
178,258,20552,2,0,L|178:131,1,90,2|8,0:0|0:0,0:0:0:0:
256,123,21307,5,2,0:0:0:0:
334,168,21684,1,10,0:0:0:0:
334,258,22062,2,0,P|381:298|479:273,2,135,2|2|8,0:0|0:0|0:0,0:0:0:0:
412,213,23571,2,0,L|412:86,1,90,2|8,0:0|0:0,0:0:0:0:
334,78,24326,5,6,0:0:0:0:
256,123,24703,1,10,0:0:0:0:
178,78,25080,2,0,P|123:63|37:63,2,135,2|2|8,0:0|0:0|0:0,0:0:0:0:
256,123,26590,2,0,L|256:256,1,90,2|8,0:0|0:0,0:0:0:0:
190,274,27345,6,0,P|259:263|334:278,1,135,2|2,0:0|0:0,0:0:0:0:
413,273,28288,1,10,0:0:0:0:
366,196,28665,2,0,P|295:178|145:196,1,225,6|8,0:0|0:0,0:0:0:0:
99,273,29986,1,10,0:0:0:0:
55,195,30363,6,0,P|45:151|42:106,1,90,6|8,0:0|0:0,0:0:0:0:
81,25,31118,2,0,P|141:29|241:30,2,135,2|2|8,0:0|0:0|0:0,0:0:0:0:
42,106,32628,2,0,P|45:151|55:195,1,90,2|8,0:0|0:0,0:0:0:0:
99,273,33382,5,2,0:0:0:0:
177,228,33760,2,0,P|246:217|321:232,1,135,10|2,0:0|0:0,0:0:0:0:
376,288,34703,2,0,P|445:299|520:284,1,135,2|8,0:0|0:0,0:0:0:0:
485,201,35646,2,0,P|480:154|485:111,1,90,2|8,0:0|0:0,0:0:0:0:
508,25,36401,5,2,0:0:0:0:
421,2,36779,1,10,0:0:0:0:
398,89,37156,2,0,P|357:106|263:115,2,135,2|2|8,0:0|0:0|0:0,0:0:0:0:
482,118,38665,2,0,P|495:155|496:231,1,90,2|8,0:0|0:0,0:0:0:0:
482,294,39420,5,2,0:0:0:0:
398,323,39797,2,0,P|357:306|263:297,1,135,10|2,0:0|0:0,0:0:0:0:
210,366,40741,2,0,P|142:362|79:339,1,135,2|8,0:0|0:0,0:0:0:0:
44,257,41684,2,0,L|0:260,2,45,2|2|8,0:0|0:0|0:0,0:0:0:0:
134,267,42439,6,0,P|240:178|113:96,2,315,6|2|2,0:0|0:0|0:0,0:0:0:0:
150,178,45458,6,0,P|44:267|171:349,2,315,2|2|2,0:0|0:0|0:0,0:0:0:0:
228,223,48477,6,0,P|292:237|382:235,2,135,2|2|8,0:0|0:0|0:0,0:0:0:0:
228,133,49986,2,0,P|292:119|382:121,2,135,2|2|8,0:0|0:0|0:0,0:0:0:0:
183,211,51495,6,0,P|178:255|183:300,1,90,2|8,0:0|0:0,0:0:0:0:
273,300,52250,2,0,P|278:256|273:211,1,90,2|8,0:0|0:0,0:0:0:0:
228,133,53005,2,0,P|164:119|74:121,2,135,2|2|8,0:0|0:0|0:0,0:0:0:0:
256,192,54514,12,2,57156,0:0:0:0:
71,218,59043,6,0,P|49:280|44:381,2,135,6|2|8,0:0|0:0|0:0,0:0:0:0:
136,156,60552,2,0,L|226:159,1,90,2|8,0:0|0:0,0:0:0:0:
286,225,61307,1,2,0:0:0:0:
376,228,61684,1,10,0:0:0:0:
441,166,62062,6,0,P|463:104|468:3,2,135,2|2|8,0:0|0:0|0:0,0:0:0:0:
376,228,63571,2,0,L|286:225,1,90,2|8,0:0|0:0,0:0:0:0:
226,159,64326,1,2,0:0:0:0:
136,156,64703,1,10,0:0:0:0:
71,218,65080,6,0,P|48:137|97:75,2,135,6|2|8,0:0|0:0|0:0,0:0:0:0:
136,156,66590,2,0,P|180:153|225:160,1,90,2|8,0:0|0:0,0:0:0:0:
287,224,67345,2,0,P|332:231|376:228,1,90,2|8,0:0|0:0,0:0:0:0:
441,166,68099,6,0,P|464:247|415:309,1,135,2|2,0:0|0:0,0:0:0:0:
377,351,69043,1,10,0:0:0:0:
298,308,69420,2,0,P|229:297|154:312,1,135,6|8,0:0|0:0,0:0:0:0:
84,354,70363,1,10,0:0:0:0:
19,292,70741,1,10,0:0:0:0:
58,211,71118,6,0,P|56:157|10:90,2,135,6|2|8,0:0|0:0|0:0,0:0:0:0:
146,230,72628,2,0,P|195:227|250:202,1,90,2|8,0:0|0:0,0:0:0:0:
278,135,73382,1,2,0:0:0:0:
366,154,73760,1,10,0:0:0:0:
454,173,74137,6,0,P|456:227|502:294,2,135,2|2|8,0:0|0:0|0:0,0:0:0:0:
366,154,75646,2,0,P|317:157|262:182,1,90,2|8,0:0|0:0,0:0:0:0:
234,249,76401,1,2,0:0:0:0:
146,230,76779,1,10,0:0:0:0:
58,211,77156,6,0,P|16:252|25:340,2,135,6|2|8,0:0|0:0|0:0,0:0:0:0:
146,230,78665,2,0,P|200:246|272:245,1,90,2|8,0:0|0:0,0:0:0:0:
311,203,79420,1,2,0:0:0:0:
399,226,79797,1,10,0:0:0:0:
477,180,80175,6,0,P|417:113|339:70,1,180,2|2,0:0|0:0,0:0:0:0:
256,105,81307,1,10,0:0:0:0:
173,70,81684,2,0,P|95:113|35:180,1,180,2|2,0:0|0:0,0:0:0:0:
26,270,82816,1,10,0:0:0:0:
98,324,83194,5,2,0:0:0:0:
109,235,83571,2,0,P|152:182|211:153,1,135,14|2,0:0|0:0,0:0:0:0:
301,153,84514,2,0,P|359:181|402:234,1,135,6|2,0:0|0:0,0:0:0:0:
414,324,85458,1,2,0:0:0:0:
486,270,85836,1,2,0:0:0:0:
477,180,86212,6,0,P|417:113|380:89,1,135,6|6,0:0|0:0,0:0:0:0:
244,89,87345,2,0,P|207:113|147:180,1,135,6|6,0:0|0:0,0:0:0:0:
101,307,88477,2,0,L|101:352,2,45,2|2|6,0:0|0:0|0:0,0:0:0:0:
