osu file format v14

[General]
AudioFilename: audio.mp3
AudioLeadIn: 1825
PreviewTime: 58948
Countdown: 0
SampleSet: Soft
StackLeniency: 0.5
Mode: 0
LetterboxInBreaks: 0
WidescreenStoryboard: 1

[Editor]
DistanceSpacing: 2.9
BeatDivisor: 4
GridSize: 16
TimelineZoom: 1.9

[Metadata]
Title:Enter Enter MISSION! (TV size)
TitleUnicode:Enter Enter MISSION! (TV size)
Artist:Ankou Team
ArtistUnicode:あんこうチーム
Creator:Pata-Mon
Version:Dored's Insane
Source:ガールズ&パンツァー
Tags:Dored GIRLS und PANZER 西住みほ Nishizumi Miho 武部沙織 Takebe Saori 五十鈴華 Isuzu Hana 秋山優花里 Akiyama Yukari 冷泉麻子 Reizei Mako 渕上舞 Fuchigami Mai 茅野愛衣 Kayano Ai 尾崎真実 Ozaki Mami 中上育実 Nakagami Ikumi 井口裕香 Iguchi Yuka Anime OP opening tv size
BeatmapID:1572052
BeatmapSetID:692559

[Difficulty]
HPDrainRate:7
CircleSize:3.8
OverallDifficulty:7
ApproachRate:8
SliderMultiplier:1.5
SliderTickRate:1

[Events]
//Background and Video events
0,0,"BG.jpg",0,0
Video,-1100,"video.flv"
//Break Periods
//Storyboard Layer 0 (Background)
//Storyboard Layer 1 (Fail)
//Storyboard Layer 2 (Pass)
//Storyboard Layer 3 (Foreground)
//Storyboard Sound Samples

[TimingPoints]
175,377.358490566038,4,2,1,40,1,0
269,-100,4,2,1,20,0,0
929,-100,4,2,1,35,0,0
1024,-100,4,2,1,20,0,0
1684,-100,4,2,1,30,0,0
2439,-100,4,2,1,35,0,0
3194,-90.9090909090909,4,2,1,60,0,0
15269,-200,4,2,1,30,0,0
16779,-90.9090909090909,4,2,1,65,0,0
18288,-83.3333333333333,4,2,1,65,0,0
28665,-111.111111111111,4,2,1,60,0,0
29609,-90.9090909090909,4,2,1,65,0,0
30363,-100,4,2,1,50,0,0
42439,-111.111111111111,4,2,1,50,0,0
51495,-100,4,2,1,50,0,0
54514,-90.9090909090909,4,2,1,60,0,0
57156,-66.6666666666667,4,2,1,65,0,0
57722,-90.9090909090909,4,2,1,70,0,0
59042,-83.3333333333333,4,2,1,75,0,1
70552,-83.3333333333333,4,2,1,55,0,1
70741,-83.3333333333333,4,2,1,75,0,1
70835,-83.3333333333333,4,2,1,55,0,1
71118,-83.3333333333333,4,2,1,75,0,1
83193,-83.3333333333333,4,2,1,65,0,1
86212,-83.3333333333333,4,2,1,70,0,0
88476,-83.3333333333333,4,2,1,75,0,0

[Colours]
Combo1 : 127,255,127
Combo2 : 255,191,96
Combo3 : 127,127,255
Combo4 : 255,127,127

[HitObjects]
178,37,175,6,0,L|215:37,7,37.5,2|2|2|2|2|2|2|2,0:0|0:0|0:0|0:0|0:0|0:0|0:0|0:0,0:0:0:0:
292,67,929,2,0,L|329:67,7,37.5,2|2|2|2|2|2|2|2,0:0|0:0|0:0|0:0|0:0|0:0|0:0|0:0,0:0:0:0:
406,40,1685,5,2,0:0:0:0:
438,45,1779,1,2,0:0:0:0:
465,63,1873,1,2,0:0:0:0:
481,91,1968,1,2,0:0:0:0:
485,123,2062,2,0,L|485:160,3,37.5,2|2|2|2,0:0|0:0|0:0|0:0,0:0:0:0:
485,243,2439,5,2,0:0:0:0:
481,275,2533,1,2,0:0:0:0:
465,303,2627,1,2,0:0:0:0:
438,321,2722,1,2,0:0:0:0:
406,326,2816,2,0,L|368:325,3,37.5,2|2|2|2,0:0|0:0|0:0|0:0,0:0:0:0:
266,321,3194,6,0,P|191:290|176:212,1,165.000005035401,6|0,0:0|0:0,0:0:0:0:
273,72,3760,2,0,L|258:236,1,165.000005035401,2|0,0:0|0:0,0:0:0:0:
60,186,4326,2,0,L|67:103,1,82.5000025177003,2|0,0:0|0:0,0:0:0:0:
173,12,4703,5,6,0:0:0:0:
273,72,4892,2,0,L|356:79,1,82.5000025177003,2|0,0:0|0:0,0:0:0:0:
444,3,5269,1,2,0:0:0:0:
430,168,5458,2,0,L|423:251,1,82.5000025177003,2|0,0:0|0:0,0:0:0:0:
421,265,5741,1,2,0:0:0:0:
420,281,5835,2,0,L|461:281,2,41.2500012588501,2|2|2,0:0|0:0|0:0,0:0:0:0:
291,352,6212,6,0,L|127:337,1,165.000005035401,6|0,0:0|0:0,0:0:0:0:
15,302,6779,2,0,L|22:385,1,82.5000025177003,2|10,0:0|0:0,0:0:0:0:
126,336,7156,1,10,0:0:0:0:
14,186,7345,1,2,0:0:0:0:
192,240,7533,1,2,0:0:0:0:
80,90,7722,6,0,P|42:73|1:70,2,82.5000025177003,6|0|0,0:0|0:0|0:0,0:0:0:0:
190,125,8288,1,8,0:0:0:0:
206,124,8383,1,8,0:0:0:0:
220,122,8477,2,0,L|303:115,1,82.5000025177003,6|0,0:0|0:0,0:0:0:0:
252,11,8854,2,0,L|169:18,1,82.5000025177003,2|0,0:0|0:0,0:0:0:0:
192,240,9231,6,0,L|275:233,1,82.5000025177003,6|0,0:0|0:0,0:0:0:0:
384,195,9609,2,0,L|466:202,1,82.5000025177003,2|0,0:0|0:0,0:0:0:0:
443,315,9986,2,0,L|360:307,1,82.5000025177003,2|0,0:0|0:0,0:0:0:0:
251,345,10363,2,0,L|168:352,1,82.5000025177003,2|0,0:0|0:0,0:0:0:0:
82,274,10741,6,0,L|74:191,1,82.5000025177003,6|0,0:0|0:0,0:0:0:0:
184,157,11118,2,0,L|192:240,1,82.5000025177003,2|0,0:0|0:0,0:0:0:0:
74,191,11495,2,0,L|66:108,1,82.5000025177003,2|0,0:0|0:0,0:0:0:0:
176,74,11873,2,0,L|184:157,1,82.5000025177003,2|0,0:0|0:0,0:0:0:0:
66,108,12250,6,0,P|106:44|176:74,1,165.000005035401,6|0,0:0|0:0,0:0:0:0:
187,189,12816,1,2,0:0:0:0:
281,122,13005,2,0,L|364:114,1,82.5000025177003,2|0,0:0|0:0,0:0:0:0:
393,84,13288,2,0,L|476:92,1,82.5000025177003,2|0,0:0|0:0,0:0:0:0:
512,114,13571,1,2,0:0:0:0:
427,203,13760,5,8,0:0:0:0:
444,0,13948,1,8,0:0:0:0:
176,74,15269,6,0,P|88:140|187:188,1,262.5,0|0,0:0|0:0,0:0:0:0:
281,121,16779,6,0,P|335:94|393:111,1,123.75000377655,2|0,0:0|0:0,0:0:0:0:
422,140,17156,2,0,L|463:136,3,41.2500012588501,2|2|2|2,0:0|0:0|0:0|0:0,0:0:0:0:
503,131,17533,1,2,0:0:0:0:
399,300,17722,1,2,0:0:0:0:
281,121,17911,2,0,P|227:94|169:111,1,123.75000377655,10|2,0:0|0:0,0:0:0:0:
134,139,18288,5,6,0:0:0:0:
135,161,18665,2,0,L|142:250,1,89.9999972534181,10|0,0:0|0:0,0:0:0:0:
144,266,18949,1,2,0:0:0:0:
145,282,19043,1,2,0:0:0:0:
291,213,19231,1,2,0:0:0:0:
277,374,19420,1,10,0:0:0:0:
292,190,19609,6,0,L|307:10,1,179.999994506836,2|2,0:0|0:0,0:0:0:0:
462,83,20175,2,0,L|454:172,1,89.9999972534181,10|0,0:0|0:0,0:0:0:0:
388,321,20552,1,2,0:0:0:0:
292,190,20741,1,2,0:0:0:0:
196,321,20929,2,0,L|107:313,1,89.9999972534181,10|0,0:0|0:0,0:0:0:0:
292,190,21307,5,2,0:0:0:0:
291,212,21684,2,0,L|284:301,1,89.9999972534181,10|0,0:0|0:0,0:0:0:0:
282,317,21968,1,2,0:0:0:0:
281,333,22062,1,2,0:0:0:0:
106,312,22250,1,2,0:0:0:0:
211,170,22439,1,10,0:0:0:0:
31,155,22628,6,0,L|211:170,1,179.999994506836,2|2,0:0|0:0,0:0:0:0:
315,27,23194,2,0,L|226:20,1,89.9999972534181,10|0,0:0|0:0,0:0:0:0:
300,162,23571,1,2,0:0:0:0:
443,87,23760,1,2,0:0:0:0:
438,248,23948,2,0,L|435:337,1,89.9999972534181,10|0,0:0|0:0,0:0:0:0:
443,87,24325,5,6,0:0:0:0:
421,86,24703,2,0,L|332:79,1,89.9999972534181,10|0,0:0|0:0,0:0:0:0:
316,77,24986,1,2,0:0:0:0:
300,76,25080,1,2,0:0:0:0:
139,62,25269,1,2,0:0:0:0:
208,209,25458,1,10,0:0:0:0:
331,78,25646,6,0,P|394:135|369:217,1,179.999994506836,2|2,0:0|0:0,0:0:0:0:
208,209,26212,2,0,L|119:202,1,89.9999972534181,10|0,0:0|0:0,0:0:0:0:
264,132,26590,1,2,0:0:0:0:
250,293,26779,1,2,0:0:0:0:
118,201,26967,1,10,0:0:0:0:
132,40,27156,1,2,0:0:0:0:
148,41,27250,1,2,0:0:0:0:
164,43,27345,6,0,L|343:58,1,179.999994506836,2|8,0:0|0:0,0:0:0:0:
456,170,27911,2,0,L|366:162,1,89.9999972534181,2|0,0:0|0:0,0:0:0:0:
253,268,28288,2,0,L|342:275,1,89.9999972534181,2|0,0:0|0:0,0:0:0:0:
456,170,28665,6,0,P|420:68|366:161,1,269.999991760254,6|0,0:0|0:0,0:0:0:0:
424,282,29609,6,0,L|506:289,1,82.5000025177003,6|0,0:0|0:0,0:0:0:0:
366,161,29986,2,0,L|284:154,1,82.5000025177003,6|0,0:0|0:0,0:0:0:0:
179,137,30363,6,0,L|179:212,1,75,6|0,0:0|0:0,0:0:0:0:
283,228,30741,2,0,L|283:153,1,75,10|0,0:0|0:0,0:0:0:0:
245,55,31118,1,2,0:0:0:0:
179,137,31307,2,0,L|104:137,1,75,2|8,0:0|0:0,0:0:0:0:
26,228,31684,6,0,P|11:298|59:353,1,150,2|2,0:0|0:0,0:0:0:0:
162,330,32250,2,0,L|236:323,1,75,10|0,0:0|0:0,0:0:0:0:
332,278,32627,1,2,0:0:0:0:
321,382,32816,1,2,0:0:0:0:
417,337,33005,2,0,L|423:262,1,75,10|2,0:0|0:0,0:0:0:0:
346,128,33382,6,0,L|332:277,1,150,2|8,0:0|0:0,0:0:0:0:
236,322,33948,2,0,L|162:315,1,75,2|0,0:0|0:0,0:0:0:0:
169,209,34326,2,0,L|243:216,1,75,2|10,0:0|0:0,0:0:0:0:
422,262,34703,6,0,L|436:113,1,150,2|2,0:0|0:0,0:0:0:0:
350,53,35269,2,0,L|344:128,1,75,10|0,0:0|0:0,0:0:0:0:
335,232,35646,1,2,0:0:0:0:
344,127,35835,1,2,0:0:0:0:
249,173,36023,1,10,0:0:0:0:
258,68,36212,1,0,0:0:0:0:
335,232,36401,6,0,L|329:307,1,75,2|0,0:0|0:0,0:0:0:0:
243,247,36779,2,0,L|249:172,1,75,10|0,0:0|0:0,0:0:0:0:
258,68,37156,1,2,0:0:0:0:
163,114,37345,2,0,L|88:108,1,75,2|10,0:0|0:0,0:0:0:0:
35,215,37722,6,0,P|104:230|134:297,1,150,2|2,0:0|0:0,0:0:0:0:
48,368,38288,2,0,L|54:293,1,75,10|0,0:0|0:0,0:0:0:0:
134,225,38665,1,2,0:0:0:0:
234,262,38854,1,2,0:0:0:0:
316,193,39043,2,0,L|391:199,1,75,10|2,0:0|0:0,0:0:0:0:
483,313,39420,6,0,L|334:299,1,150,2|8,0:0|0:0,0:0:0:0:
234,262,39986,2,0,L|228:187,1,75,2|0,0:0|0:0,0:0:0:0:
310,118,40363,2,0,L|316:193,1,75,2|10,0:0|0:0,0:0:0:0:
251,367,40741,6,0,P|181:382|126:334,1,150,2|2,0:0|0:0,0:0:0:0:
67,223,41307,2,0,L|142:217,1,75,10|2,0:0|0:0,0:0:0:0:
246,208,41684,1,2,0:0:0:0:
201,303,41873,1,2,0:0:0:0:
141,217,42062,1,10,0:0:0:0:
186,122,42250,1,2,0:0:0:0:
201,120,42344,1,2,0:0:0:0:
218,119,42439,6,0,L|352:107,1,134.999995880127,6|8,0:0|0:0,0:0:0:0:
378,16,43005,2,0,L|310:21,1,67.4999979400635,2|0,0:0|0:0,0:0:0:0:
352,107,43382,2,0,L|419:101,1,67.4999979400635,2|10,0:0|0:0,0:0:0:0:
310,20,43760,6,0,L|176:32,1,134.999995880127,2|2,0:0|0:0,0:0:0:0:
98,87,44326,1,10,0:0:0:0:
183,126,44514,2,0,L|250:120,1,67.4999979400635,2|0,0:0|0:0,0:0:0:0:
98,87,44892,1,2,0:0:0:0:
106,181,45080,2,0,L|112:248,1,67.4999979400635,10|0,0:0|0:0,0:0:0:0:
203,354,45458,6,0,L|197:287,1,67.4999979400635,2|0,0:0|0:0,0:0:0:0:
112,248,45835,2,0,L|45:254,1,67.4999979400635,10|0,0:0|0:0,0:0:0:0:
52,348,46212,2,0,L|119:342,2,67.4999979400635,2|2|8,0:0|0:0|0:0,0:0:0:0:
38,160,46779,6,0,L|105:154,1,67.4999979400635,2|0,0:0|0:0,0:0:0:0:
186,201,47156,1,2,0:0:0:0:
257,139,47344,2,0,L|324:133,1,67.4999979400635,10|0,0:0|0:0,0:0:0:0:
287,45,47722,2,0,L|220:51,1,67.4999979400635,2|0,0:0|0:0,0:0:0:0:
126,60,48099,2,0,L|59:54,1,67.4999979400635,10|0,0:0|0:0,0:0:0:0:
115,263,48477,5,2,0:0:0:0:
186,201,48665,2,0,L|253:207,1,67.4999979400635,2|8,0:0|0:0,0:0:0:0:
346,215,49043,2,0,L|334:349,1,134.999995880127,2|2,0:0|0:0,0:0:0:0:
243,377,49609,1,10,0:0:0:0:
202,293,49797,1,0,0:0:0:0:
253,207,49986,5,2,0:0:0:0:
346,215,50175,2,0,L|413:221,1,67.4999979400635,2|8,0:0|0:0,0:0:0:0:
506,229,50552,2,0,L|500:296,1,67.4999979400635,2|0,0:0|0:0,0:0:0:0:
413,221,50929,1,2,0:0:0:0:
467,143,51118,1,10,0:0:0:0:
428,57,51307,1,2,0:0:0:0:
281,127,51495,6,0,L|206:120,1,75,2|0,0:0|0:0,0:0:0:0:
353,50,51873,2,0,L|427:56,1,75,10|0,0:0|0:0,0:0:0:0:
413,221,52250,2,0,L|338:214,1,75,2|0,0:0|0:0,0:0:0:0:
206,120,52628,1,10,0:0:0:0:
251,25,52816,1,2,0:0:0:0:
382,136,53005,5,2,0:0:0:0:
199,194,53194,2,0,L|206:119,1,75,2|8,0:0|0:0,0:0:0:0:
338,214,53571,2,0,B|352:231|352:231|341:358,1,150,2|0,0:0|0:0,0:0:0:0:
446,358,54137,2,0,L|453:283,1,75,10|0,0:0|0:0,0:0:0:0:
236,358,54514,6,0,P|194:355|153:350,1,82.5000025177003,6|0,0:0|0:0,0:0:0:0:
23,254,54892,2,0,P|64:251|105:246,1,82.5000025177003,6|0,0:0|0:0,0:0:0:0:
205,119,55269,2,0,P|163:116|122:111,1,82.5000025177003,6|0,0:0|0:0,0:0:0:0:
227,216,55646,1,2,0:0:0:0:
332,111,55835,1,10,0:0:0:0:
332,321,56024,5,2,0:0:0:0:
437,216,56212,2,0,L|444:133,1,82.5000025177003,10|0,0:0|0:0,0:0:0:0:
411,5,56590,1,2,0:0:0:0:
332,111,56779,1,10,0:0:0:0:
226,32,56967,1,2,0:0:0:0:
330,131,57156,6,0,L|320:242,1,112.500004291535,10|0,0:0|0:0,0:0:0:0:
319,243,57722,5,2,0:0:0:0:
179,346,57911,1,2,0:0:0:0:
232,180,58099,1,2,0:0:0:0:
286,346,58288,1,2,0:0:0:0:
146,243,58477,1,2,0:0:0:0:
319,243,58665,6,0,L|402:243,1,82.5000025177003,10|0,0:0|0:0,0:0:0:0:
443,243,58948,1,2,0:0:0:0:
443,243,59042,6,0,P|484:169|443:89,1,179.999994506836,6|10,0:0|0:0,0:0:0:0:
249,89,59608,2,0,P|207:162|248:242,1,179.999994506836,2|2,0:0|0:0,0:0:0:0:
391,166,60175,2,0,L|299:166,1,89.9999972534181,10|0,0:0|0:0,0:0:0:0:
512,219,60552,5,2,0:0:0:0:
391,35,60741,2,0,L|299:35,1,89.9999972534181,2|10,0:0|0:0,0:0:0:0:
188,103,61118,1,2,0:0:0:0:
38,42,61307,2,0,L|38:132,1,89.9999972534181,2|0,0:0|0:0,0:0:0:0:
188,193,61684,2,0,L|188:103,1,89.9999972534181,10|0,0:0|0:0,0:0:0:0:
38,222,62062,6,0,P|13:303|76:361,1,179.999994506836,2|8,0:0|0:0,0:0:0:0:
219,348,62628,2,0,L|308:340,1,89.9999972534181,2|0,0:0|0:0,0:0:0:0:
440,224,63005,1,2,0:0:0:0:
266,240,63194,1,10,0:0:0:0:
415,330,63382,1,2,0:0:0:0:
347,169,63571,5,2,0:0:0:0:
415,330,63760,1,2,0:0:0:0:
266,240,63948,1,10,0:0:0:0:
334,79,64137,1,2,0:0:0:0:
355,248,64326,2,0,L|266:240,1,89.9999972534181,2|0,0:0|0:0,0:0:0:0:
244,70,64703,2,0,L|333:78,1,89.9999972534181,10|0,0:0|0:0,0:0:0:0:
444,254,65080,6,0,L|264:239,1,179.999994506836,6|10,0:0|0:0,0:0:0:0:
105,106,65646,2,0,P|163:43|244:70,1,179.999994506836,2|2,0:0|0:0,0:0:0:0:
121,227,66212,2,0,L|32:219,1,89.9999972534181,10|0,0:0|0:0,0:0:0:0:
182,122,66590,5,2,0:0:0:0:
264,239,66779,2,0,L|256:328,2,89.9999972534181,2|10|2,0:0|0:0|0:0,0:0:0:0:
333,78,67345,2,0,L|422:85,1,89.9999972534181,2|0,0:0|0:0,0:0:0:0:
495,210,67722,1,10,0:0:0:0:
390,309,67911,1,2,0:0:0:0:
264,239,68099,6,0,P|174:233|84:223,1,179.999994506836,2|8,0:0|0:0,0:0:0:0:
38,86,68665,2,0,P|82:83|127:78,1,89.9999972534181,2|0,0:0|0:0,0:0:0:0:
337,41,69043,1,2,0:0:0:0:
264,239,69231,1,2,0:0:0:0:
127,78,69420,1,6,0:0:0:0:
127,78,69797,5,2,0:0:0:0:
264,239,69986,1,2,0:0:0:0:
337,41,70174,1,2,0:0:0:0:
474,202,70363,2,0,L|385:194,1,89.9999972534181,10|8,0:0|0:0,0:0:0:0:
352,150,70646,1,10,0:0:0:0:
352,150,70741,2,0,L|307:146,3,44.999998626709,10|8|8|8,0:0|0:0|0:0|0:0,0:0:0:0:
384,193,71118,6,0,P|410:274|347:331,1,179.999994506836,6|10,0:0|0:0,0:0:0:0:
204,192,71684,2,0,L|189:12,1,179.999994506836,2|2,0:0|0:0,0:0:0:0:
375,103,72250,2,0,L|383:192,1,89.9999972534181,10|0,0:0|0:0,0:0:0:0:
346,331,72628,5,2,0:0:0:0:
204,192,72816,2,0,L|115:200,1,89.9999972534181,2|10,0:0|0:0,0:0:0:0:
276,262,73194,1,2,0:0:0:0:
134,123,73382,2,0,L|45:131,1,89.9999972534181,2|0,0:0|0:0,0:0:0:0:
186,270,73760,2,0,L|275:262,1,89.9999972534181,10|0,0:0|0:0,0:0:0:0:
270,82,74137,6,0,P|188:58|133:123,1,179.999994506836,2|8,0:0|0:0,0:0:0:0:
96,278,74703,2,0,L|185:270,1,89.9999972534181,2|0,0:0|0:0,0:0:0:0:
345,343,75080,1,2,0:0:0:0:
331,170,75269,1,10,0:0:0:0:
186,270,75458,1,2,0:0:0:0:
172,97,75646,5,2,0:0:0:0:
186,270,75835,1,2,0:0:0:0:
331,170,76024,1,10,0:0:0:0:
345,343,76212,1,2,0:0:0:0:
241,178,76401,2,0,L|330:170,1,89.9999972534181,2|0,0:0|0:0,0:0:0:0:
434,334,76779,2,0,L|345:342,1,89.9999972534181,10|0,0:0|0:0,0:0:0:0:
304,352,77062,1,2,0:0:0:0:
304,352,77157,6,0,P|218:348|185:268,1,179.999994506836,6|8,0:0|0:0,0:0:0:0:
290,98,77722,2,0,P|376:102|409:182,1,179.999994506836,2|2,0:0|0:0,0:0:0:0:
241,178,78288,2,0,L|152:170,1,89.9999972534181,10|0,0:0|0:0,0:0:0:0:
159,14,78665,5,2,0:0:0:0:
290,98,78854,2,0,L|379:90,2,89.9999972534181,2|10|2,0:0|0:0|0:0,0:0:0:0:
151,169,79420,2,0,L|159:258,1,89.9999972534181,2|0,0:0|0:0,0:0:0:0:
298,187,79797,2,0,L|290:98,1,89.9999972534181,10|0,0:0|0:0,0:0:0:0:
287,82,80081,1,2,0:0:0:0:
286,66,80175,5,6,0:0:0:0:
151,169,80363,1,2,0:0:0:0:
389,201,80552,1,10,0:0:0:0:
286,66,80741,1,2,0:0:0:0:
159,258,80929,2,0,L|248:250,1,89.9999972534181,2|0,0:0|0:0,0:0:0:0:
375,57,81307,2,0,L|286:65,1,89.9999972534181,10|0,0:0|0:0,0:0:0:0:
389,201,81684,5,2,0:0:0:0:
285,65,81873,1,2,0:0:0:0:
159,258,82062,1,10,0:0:0:0:
389,201,82250,1,2,0:0:0:0:
150,168,82439,2,0,L|158:257,1,89.9999972534181,2|0,0:0|0:0,0:0:0:0:
285,65,82816,1,10,0:0:0:0:
129,10,83005,1,2,0:0:0:0:
113,11,83099,1,2,0:0:0:0:
97,13,83194,6,0,L|8:21,1,89.9999972534181,2|0,0:0|0:0,0:0:0:0:
26,197,83571,2,0,P|73:268|157:256,1,179.999994506836,14|0,0:0|0:0,0:0:0:0:
285,188,84138,1,2,0:0:0:0:
157,256,84326,1,10,0:0:0:0:
285,188,84514,6,0,P|369:176|416:247,1,179.999994506836,6|0,0:0|0:0,0:0:0:0:
288,315,85080,1,2,0:0:0:0:
288,315,85458,1,2,0:0:0:0:
288,315,85835,1,2,0:0:0:0:
67,264,86212,6,0,L|156:256,1,89.9999972534181,6|0,0:0|0:0,0:0:0:0:
288,315,86590,1,2,0:0:0:0:
495,239,86779,6,0,L|406:231,1,89.9999972534181,6|0,0:0|0:0,0:0:0:0:
288,315,87156,1,2,0:0:0:0:
103,182,87345,6,0,L|192:174,1,89.9999972534181,6|0,0:0|0:0,0:0:0:0:
288,315,87722,1,2,0:0:0:0:
459,157,87911,6,0,L|279:142,1,179.999994506836,6|0,0:0|0:0,0:0:0:0:
55,123,88476,5,2,0:0:0:0:
279,142,88665,1,2,0:0:0:0:
150,326,88854,1,6,0:0:0:0:
