osu file format v14

[General]
AudioFilename: audio.mp3
AudioLeadIn: 1825
PreviewTime: 58948
Countdown: 0
SampleSet: Soft
StackLeniency: 0.5
Mode: 0
LetterboxInBreaks: 0
WidescreenStoryboard: 0

[Editor]
Bookmarks: 3194,18288,30363,42439,59043,71118,86212
DistanceSpacing: 1.5
BeatDivisor: 2
GridSize: 32
TimelineZoom: 1.4

[Metadata]
Title:Enter Enter MISSION! (TV size)
TitleUnicode:Enter Enter MISSION! (TV size)
Artist:Ankou Team
ArtistUnicode:あんこうチーム
Creator:Pata-Mon
Version:Panzer Vor!
Source:ガールズ&パンツァー
Tags:Dored GIRLS und PANZER 西住みほ Nishizumi Miho 武部沙織 Takebe Saori 五十鈴華 Isuzu Hana 秋山優花里 Akiyama Yukari 冷泉麻子 Reizei Mako 渕上舞 Fuchigami Mai 茅野愛衣 Kayano Ai 尾崎真実 Ozaki Mami 中上育実 Nakagami Ikumi 井口裕香 Iguchi Yuka Anime OP opening tv size
BeatmapID:1465467
BeatmapSetID:692559

[Difficulty]
HPDrainRate:8
CircleSize:4
OverallDifficulty:8
ApproachRate:8
SliderMultiplier:1.6
SliderTickRate:1

[Events]
//Background and Video events
0,0,"BG.jpg",0,0
Video,-1100,"video.flv"
//Break Periods
//Storyboard Layer 0 (Background)
//Storyboard Layer 1 (Fail)
//Storyboard Layer 2 (Pass)
//Storyboard Layer 3 (Foreground)
//Storyboard Sound Samples

[TimingPoints]
175.234126709115,377.358490566038,4,2,1,30,1,0
269,-100,4,2,1,10,0,0
929,-100,4,2,1,35,0,0
1024,-100,4,2,1,15,0,0
1684,-100,4,2,1,40,0,0
1779,-100,4,2,1,20,0,0
2439,-100,4,2,1,50,0,0
2533,-100,4,2,1,30,0,0
3194,-100,4,2,1,70,0,0
8288,-100,4,2,1,50,0,0
8477,-100,4,2,1,70,0,0
13760,-100,4,2,1,50,0,0
15269,-200,4,2,1,50,0,0
15363,-200,4,2,1,10,0,0
16779,-83.3333333333333,4,2,1,70,0,0
24231,-83.3333333333333,4,2,1,50,0,0
24326,-83.3333333333333,4,2,1,70,0,0
28665,-125,4,2,1,70,0,0
29609,-83.3333333333333,4,2,1,70,0,0
30363,-100,4,2,1,70,0,0
42439,-125,4,2,1,60,0,0
54514,-83.3333333333333,4,2,1,70,0,0
57156,-50,4,2,1,70,0,0
57722,-55.5555555555556,4,2,1,70,0,0
58854,-83.3333333333333,4,2,1,70,0,0
59043,-83.3333333333333,4,2,1,80,0,1
69420,-83.3333333333333,4,2,1,50,0,1
69797,-83.3333333333333,4,2,1,80,0,1
70552,-83.3333333333333,4,2,1,50,0,1
70741,-83.3333333333333,4,2,1,80,0,1
70835,-83.3333333333333,4,2,1,50,0,1
71118,-83.3333333333333,4,2,1,80,0,1
83571,-55.5555555555556,4,2,1,80,0,1
84137,-83.3333333333333,4,2,1,80,0,1
84514,-125,4,2,1,80,0,1
86212,-83.3333333333333,4,2,1,80,0,0

[Colours]
Combo1 : 127,255,127
Combo2 : 255,191,96
Combo3 : 127,127,255
Combo4 : 255,127,127

[HitObjects]
50,237,175,5,2,0:0:0:0:
70,237,269,1,2,0:0:0:0:
90,243,363,1,2,0:0:0:0:
106,254,458,1,2,0:0:0:0:
119,269,552,2,0,L|159:266,3,40,2|2|2|2,0:0|0:0|0:0|0:0,0:0:0:0:
236,246,929,5,2,0:0:0:0:
255,250,1024,1,2,0:0:0:0:
274,259,1118,1,2,0:0:0:0:
288,273,1212,1,2,0:0:0:0:
298,290,1307,2,0,L|338:293,3,40,2|2|2|2,0:0|0:0|0:0|0:0,0:0:0:0:
356,371,1684,5,2,0:0:0:0:
375,364,1779,1,2,0:0:0:0:
392,352,1873,1,2,0:0:0:0:
405,336,1967,1,2,0:0:0:0:
414,318,2062,2,0,L|417:278,1,40,2|2,0:0|0:0,0:0:0:0:
338,293,2250,2,0,L|335:253,1,40,2|2,0:0|0:0,0:0:0:0:
396,201,2439,5,2,0:0:0:0:
405,182,2533,1,2,0:0:0:0:
409,163,2628,1,2,0:0:0:0:
405,144,2722,1,2,0:0:0:0:
396,125,2816,2,0,L|399:85,1,40,2|2,0:0|0:0,0:0:0:0:
320,100,3005,2,0,L|317:60,1,40,2|2,0:0|0:0,0:0:0:0:
245,24,3194,6,0,P|166:19|89:40,1,160,6|0,0:0|0:0,0:0:0:0:
105,205,3760,2,0,P|184:210|261:189,1,160,2|0,0:0|0:0,0:0:0:0:
408,83,4326,2,0,P|334:89|296:114,1,80,2|0,0:0|0:0,0:0:0:0:
270,309,4703,5,6,0:0:0:0:
386,280,4892,2,0,L|380:200,1,80,2|0,0:0|0:0,0:0:0:0:
270,309,5269,1,2,0:0:0:0:
499,336,5458,2,0,L|505:256,1,80,2|0,0:0|0:0,0:0:0:0:
462,188,5741,1,2,0:0:0:0:
458,184,5835,2,0,L|455:144,1,40,2|0,0:0|0:0,0:0:0:0:
510,85,6024,1,2,0:0:0:0:
326,98,6212,6,0,L|338:258,1,160,6|0,0:0|0:0,0:0:0:0:
347,377,6779,1,2,0:0:0:0:
229,207,6967,1,10,0:0:0:0:
438,190,7156,1,10,0:0:0:0:
238,326,7345,1,2,0:0:0:0:
447,309,7533,1,2,0:0:0:0:
229,207,7722,6,0,L|149:201,2,80,6|0|0,0:0|0:0|0:0,0:0:0:0:
329,139,8288,1,8,0:0:0:0:
359,128,8382,1,8,0:0:0:0:
389,117,8477,2,0,L|469:123,1,80,6|0,0:0|0:0,0:0:0:0:
471,243,8854,2,0,L|391:237,1,80,2|0,0:0|0:0,0:0:0:0:
325,19,9231,6,0,L|245:25,1,80,6|0,0:0|0:0,0:0:0:0:
132,68,9609,2,0,L|52:74,1,80,2|0,0:0|0:0,0:0:0:0:
245,25,9986,2,0,L|239:105,1,80,2|0,0:0|0:0,0:0:0:0:
196,218,10364,2,0,L|190:298,1,80,2|0,0:0|0:0,0:0:0:0:
0,191,10741,6,0,L|80:185,1,80,6|0,0:0|0:0,0:0:0:0:
196,218,11119,2,0,L|276:212,1,80,2|0,0:0|0:0,0:0:0:0:
252,15,11495,2,0,L|246:95,1,80,2|0,0:0|0:0,0:0:0:0:
276,212,11873,2,0,L|270:292,1,80,2|0,0:0|0:0,0:0:0:0:
89,117,12250,6,0,P|166:97|246:95,1,160,6|0,0:0|0:0,0:0:0:0:
362,128,12816,1,2,0:0:0:0:
270,292,13005,2,0,L|276:212,1,80,2|0,0:0|0:0,0:0:0:0:
353,283,13288,1,2,0:0:0:0:
349,279,13382,2,0,L|352:239,1,40,2|0,0:0|0:0,0:0:0:0:
428,266,13571,1,2,0:0:0:0:
152,245,13760,5,8,0:0:0:0:
362,128,13948,1,8,0:0:0:0:
360,265,15269,6,0,P|448:267|363:351,1,280
286,311,16779,6,0,P|202:318|140:362,1,143.999995605469,2|0,0:0|0:0,0:0:0:0:
196,230,17156,2,0,L|193:182,1,47.9999985351563,2|2,0:0|0:0,0:0:0:0:
258,124,17345,2,0,L|261:76,1,47.9999985351563,2|2,0:0|0:0,0:0:0:0:
280,208,17533,1,2,0:0:0:0:
115,144,17722,1,2,0:0:0:0:
308,4,17911,2,0,P|402:15|463:70,1,95.9999970703126,10|0,0:0|0:0,0:0:0:0:
467,73,18194,1,2,0:0:0:0:
479,102,18288,6,0,L|473:198,1,95.9999970703126,6|0,0:0|0:0,0:0:0:0:
340,144,18665,2,0,L|334:240,1,95.9999970703126,10|0,0:0|0:0,0:0:0:0:
350,267,18948,1,2,0:0:0:0:
366,294,19043,1,2,0:0:0:0:
473,198,19231,1,2,0:0:0:0:
222,304,19420,1,10,0:0:0:0:
485,375,19609,6,0,P|508:269|473:198,1,191.999994140625,2|2,0:0|0:0,0:0:0:0:
341,58,20175,2,0,L|335:154,1,95.9999970703126,10|0,0:0|0:0,0:0:0:0:
366,294,20552,1,2,0:0:0:0:
370,298,20741,1,2,0:0:0:0:
206,218,20929,2,0,L|200:314,1,95.9999970703126,10|0,0:0|0:0,0:0:0:0:
344,73,21307,6,0,L|248:79,1,95.9999970703126,2|0,0:0|0:0,0:0:0:0:
302,212,21684,2,0,L|206:218,1,95.9999970703126,10|0,0:0|0:0,0:0:0:0:
179,202,21967,1,2,0:0:0:0:
152,186,22062,1,2,0:0:0:0:
248,79,22250,1,2,0:0:0:0:
142,330,22439,1,10,0:0:0:0:
71,67,22628,6,0,P|177:44|248:79,1,191.999994140625,2|2,0:0|0:0,0:0:0:0:
146,282,23194,2,0,L|152:186,1,95.9999970703126,10|0,0:0|0:0,0:0:0:0:
248,79,23571,1,2,0:0:0:0:
252,83,23760,1,2,0:0:0:0:
13,228,23948,2,0,L|19:132,1,95.9999970703126,10|0,0:0|0:0,0:0:0:0:
79,69,24231,1,8,0:0:0:0:
103,90,24326,6,0,L|109:186,1,95.9999970703126,6|0,0:0|0:0,0:0:0:0:
242,132,24703,2,0,L|248:228,1,95.9999970703126,10|0,0:0|0:0,0:0:0:0:
232,255,24986,1,2,0:0:0:0:
216,282,25080,1,2,0:0:0:0:
109,186,25269,1,2,0:0:0:0:
360,292,25458,1,10,0:0:0:0:
97,363,25646,6,0,P|74:257|109:186,1,191.999994140625,2|2,0:0|0:0,0:0:0:0:
343,147,26212,2,0,L|247:141,1,95.9999970703126,10|0,0:0|0:0,0:0:0:0:
140,45,26590,1,2,0:0:0:0:
144,41,26779,1,2,0:0:0:0:
216,282,26967,1,10,0:0:0:0:
247,141,27156,1,2,0:0:0:0:
272,122,27250,1,2,0:0:0:0:
297,103,27345,6,0,P|454:125|481:308,1,191.999994140625,2|8,0:0|0:0,0:0:0:0:
343,327,27911,2,0,P|345:279|358:233,1,95.9999970703126,2|0,0:0|0:0,0:0:0:0:
169,327,28288,2,0,P|167:279|154:233,1,95.9999970703126,2|0,0:0|0:0,0:0:0:0:
297,53,28665,6,0,P|255:146|215:53,1,256,6|0,0:0|0:0,0:0:0:0:
377,5,29609,6,0,P|342:37|297:53,1,95.9999970703126,6|0,0:0|0:0,0:0:0:0:
135,5,29986,2,0,P|170:37|215:53,1,95.9999970703126,6|0,0:0|0:0,0:0:0:0:
256,327,30363,6,0,L|256:225,1,80,6|0,0:0|0:0,0:0:0:0:
215,133,30741,2,0,L|215:31,1,80,10|0,0:0|0:0,0:0:0:0:
325,5,31118,1,2,0:0:0:0:
366,119,31307,2,0,L|366:221,1,80,2|8,0:0|0:0,0:0:0:0:
136,259,31684,6,0,P|162:171|215:133,1,160,2|2,0:0|0:0,0:0:0:0:
256,327,32250,2,0,L|256:225,1,80,10|0,0:0|0:0,0:0:0:0:
333,154,32628,1,2,0:0:0:0:
450,177,32816,1,2,0:0:0:0:
256,247,33005,2,0,L|176:253,1,80,10|0,0:0|0:0,0:0:0:0:
333,340,33382,6,0,P|415:337|500:321,1,160,2|8,0:0|0:0,0:0:0:0:
256,247,33948,2,0,L|176:253,1,80,2|0,0:0|0:0,0:0:0:0:
26,379,34326,1,2,0:0:0:0:
72,188,34514,1,10,0:0:0:0:
147,371,34703,6,0,L|307:359,1,160,2|2,0:0|0:0,0:0:0:0:
262,167,35269,2,0,L|256:247,1,80,10|0,0:0|0:0,0:0:0:0:
349,85,35646,1,2,0:0:0:0:
148,132,35835,1,2,0:0:0:0:
376,202,36024,2,0,L|382:282,1,80,10|0,0:0|0:0,0:0:0:0:
174,328,36401,6,0,L|180:248,1,80,2|0,0:0|0:0,0:0:0:0:
264,161,36779,2,0,L|258:81,1,80,10|0,0:0|0:0,0:0:0:0:
148,132,37156,1,2,0:0:0:0:
296,277,37345,1,2,0:0:0:0:
348,74,37533,1,10,0:0:0:0:
180,248,37722,6,0,P|208:359|288:397,1,160,2|2,0:0|0:0,0:0:0:0:
264,161,38288,2,0,L|258:81,1,80,10|0,0:0|0:0,0:0:0:0:
296,277,38665,1,2,0:0:0:0:
416,273,38854,1,2,0:0:0:0:
264,161,39043,2,0,L|184:155,1,80,10|0,0:0|0:0,0:0:0:0:
348,74,39420,6,0,P|424:83|512:171,1,160,2|8,0:0|0:0,0:0:0:0:
264,161,39986,2,0,L|184:155,1,80,2|0,0:0|0:0,0:0:0:0:
232,45,40363,1,2,0:0:0:0:
380,190,40552,1,10,0:0:0:0:
180,248,40741,6,0,L|20:236,1,160,2|2,0:0|0:0,0:0:0:0:
264,161,41307,1,10,0:0:0:0:
296,277,41495,1,2,0:0:0:0:
148,132,41684,1,2,0:0:0:0:
348,74,41873,1,2,0:0:0:0:
180,248,42062,1,10,0:0:0:0:
380,190,42250,1,2,0:0:0:0:
410,201,42345,1,2,0:0:0:0:
440,212,42439,6,0,P|454:284|401:353,1,128,6|8,0:0|0:0,0:0:0:0:
335,317,43005,2,0,L|255:323,1,64,2|0,0:0|0:0,0:0:0:0:
183,360,43382,1,2,0:0:0:0:
233,234,43571,1,10,0:0:0:0:
145,272,43760,6,0,P|60:190|117:89,1,128,2|2,0:0|0:0,0:0:0:0:
98,100,44326,1,10,0:0:0:0:
155,177,44514,2,0,L|235:171,1,64,2|0,0:0|0:0,0:0:0:0:
289,106,44892,1,2,0:0:0:0:
276,249,45080,2,0,L|356:243,1,64,10|0,0:0|0:0,0:0:0:0:
353,101,45458,6,0,L|273:107,1,64,2|0,0:0|0:0,0:0:0:0:
155,167,45835,2,0,L|235:173,1,64,10|0,0:0|0:0,0:0:0:0:
276,249,46212,1,2,0:0:0:0:
117,255,46401,2,0,L|197:261,1,64,2|8,0:0|0:0,0:0:0:0:
74,116,46779,6,0,P|63:140|60:178,1,64,2|0,0:0|0:0,0:0:0:0:
155,167,47156,1,2,0:0:0:0:
159,71,47345,2,0,P|112:28|54:22,1,64,10|0,0:0|0:0,0:0:0:0:
155,167,47722,2,0,P|214:150|244:116,1,64,2|0,0:0|0:0,0:0:0:0:
298,29,48099,2,0,L|292:109,1,64,10|0,0:0|0:0,0:0:0:0:
268,289,48477,5,2,0:0:0:0:
210,213,48665,2,0,L|216:133,1,64,2|8,0:0|0:0,0:0:0:0:
268,289,49043,2,0,P|205:290|142:279,1,128,2|2,0:0|0:0,0:0:0:0:
215,149,49609,2,0,L|221:69,1,64,10|0,0:0|0:0,0:0:0:0:
126,184,49986,5,2,0:0:0:0:
297,197,50175,2,0,L|377:191,1,64,2|8,0:0|0:0,0:0:0:0:
416,113,50552,2,0,L|496:119,1,64,2|0,0:0|0:0,0:0:0:0:
361,192,50929,1,2,0:0:0:0:
320,105,51118,1,10,0:0:0:0:
375,26,51307,1,2,0:0:0:0:
224,97,51495,6,0,L|144:91,1,64,2|0,0:0|0:0,0:0:0:0:
27,164,51873,2,0,L|107:158,1,64,10|0,0:0|0:0,0:0:0:0:
224,231,52250,2,0,L|144:225,1,64,2|0,0:0|0:0,0:0:0:0:
25,322,52628,1,10,0:0:0:0:
120,314,52816,1,2,0:0:0:0:
91,159,53005,5,2,0:0:0:0:
224,231,53194,2,0,L|144:225,1,64,2|8,0:0|0:0,0:0:0:0:
91,159,53571,1,2,0:0:0:0:
163,26,53760,2,0,L|157:106,1,64,2|0,0:0|0:0,0:0:0:0:
24,228,54137,2,0,L|30:308,1,64,10|0,0:0|0:0,0:0:0:0:
158,90,54514,6,0,P|121:79|42:80,1,95.9999970703126,6|0,0:0|0:0,0:0:0:0:
354,90,54892,2,0,P|391:79|470:80,1,95.9999970703126,6|0,0:0|0:0,0:0:0:0:
256,259,55269,2,0,L|256:163,1,95.9999970703126,6|0,0:0|0:0,0:0:0:0:
160,313,55646,1,2,0:0:0:0:
352,313,55835,1,10,0:0:0:0:
160,217,56024,5,2,0:0:0:0:
352,217,56212,2,0,P|421:187|448:121,1,95.9999970703126,10|0,0:0|0:0,0:0:0:0:
417,50,56590,1,2,0:0:0:0:
160,121,56779,1,10,0:0:0:0:
352,121,56967,1,2,0:0:0:0:
95,50,57156,6,0,P|65:106|95:192,1,160,10|0,0:0|0:0,0:0:0:0:
95,192,57722,5,2,0:0:0:0:
172,327,57911,1,2,0:0:0:0:
326,327,58099,1,2,0:0:0:0:
403,194,58288,1,2,0:0:0:0:
326,61,58477,1,2,0:0:0:0:
172,61,58665,6,0,P|135:107|142:208,1,143.999995605469,10|0,0:0|0:0,0:0:0:0:
189,256,58948,1,2,0:0:0:0:
217,270,59043,6,0,L|313:264,1,95.9999970703126,6|0,0:0|0:0,0:0:0:0:
512,251,59420,1,10,0:0:0:0:
402,60,59609,2,0,P|394:106|440:195,1,95.9999970703126,2|0,0:0|0:0,0:0:0:0:
512,251,59986,1,2,0:0:0:0:
402,60,60175,2,0,L|306:66,1,95.9999970703126,10|0,0:0|0:0,0:0:0:0:
74,158,60552,5,2,0:0:0:0:
216,179,60741,1,2,0:0:0:0:
164,45,60929,1,10,0:0:0:0:
126,292,61118,1,2,0:0:0:0:
164,45,61307,2,0,L|68:51,1,95.9999970703126,2|0,0:0|0:0,0:0:0:0:
126,292,61684,2,0,L|222:298,1,95.9999970703126,10|0,0:0|0:0,0:0:0:0:
260,39,62062,6,0,L|68:51,1,191.999994140625,2|8,0:0|0:0,0:0:0:0:
25,189,62628,2,0,L|121:183,1,95.9999970703126,2|0,0:0|0:0,0:0:0:0:
260,39,63005,1,2,0:0:0:0:
217,177,63194,1,10,0:0:0:0:
314,284,63382,1,2,0:0:0:0:
454,253,63571,5,2,0:0:0:0:
357,146,63760,1,2,0:0:0:0:
314,284,63948,1,10,0:0:0:0:
217,177,64137,1,2,0:0:0:0:
81,325,64326,2,0,P|194:304|231:268,1,95.9999970703126,2|0,0:0|0:0,0:0:0:0:
310,187,64703,2,0,P|197:166|160:130,1,95.9999970703126,10|0,0:0|0:0,0:0:0:0:
445,24,65080,6,0,L|439:120,1,95.9999970703126,6|0,0:0|0:0,0:0:0:0:
430,265,65458,1,10,0:0:0:0:
277,46,65646,2,0,P|358:50|439:120,1,191.999994140625,2|2,0:0|0:0,0:0:0:0:
304,283,66212,2,0,L|310:187,1,95.9999970703126,10|0,0:0|0:0,0:0:0:0:
139,3,66590,5,2,0:0:0:0:
172,144,66779,1,2,0:0:0:0:
277,46,66967,1,10,0:0:0:0:
34,101,67156,1,2,0:0:0:0:
277,46,67345,2,0,P|381:62|429:106,1,95.9999970703126,2|0,0:0|0:0,0:0:0:0:
172,144,67722,1,10,0:0:0:0:
139,3,67911,1,2,0:0:0:0:
310,187,68099,6,0,P|212:282|93:264,1,191.999994140625,2|8,0:0|0:0,0:0:0:0:
43,207,68665,2,0,P|41:86|73:40,1,95.9999970703126,2|0,0:0|0:0,0:0:0:0:
181,1,69043,1,2,0:0:0:0:
172,144,69231,1,2,0:0:0:0:
163,287,69420,1,6,0:0:0:0:
163,287,69797,5,2,0:0:0:0:
172,144,69986,1,2,0:0:0:0:
181,1,70175,1,2,0:0:0:0:
163,287,70363,2,0,L|259:281,1,95.9999970703126,10|8,0:0|0:0,0:0:0:0:
326,226,70646,1,8,0:0:0:0:
352,208,70741,2,0,L|400:211,1,47.9999985351563,8|8,0:0|0:0,0:0:0:0:
293,145,70929,2,0,L|245:148,1,47.9999985351563,10|8,0:0|0:0,0:0:0:0:
352,82,71118,6,0,L|448:88,1,95.9999970703126,6|0,0:0|0:0,0:0:0:0:
512,303,71495,1,10,0:0:0:0:
304,217,71684,2,0,L|400:211,1,95.9999970703126,2|0,0:0|0:0,0:0:0:0:
512,303,72062,1,2,0:0:0:0:
352,82,72250,2,0,L|448:88,1,95.9999970703126,10|0,0:0|0:0,0:0:0:0:
223,144,72628,5,2,0:0:0:0:
234,0,72816,1,2,0:0:0:0:
352,82,73005,1,10,0:0:0:0:
105,62,73194,1,2,0:0:0:0:
352,82,73382,2,0,L|358:178,1,95.9999970703126,2|0,0:0|0:0,0:0:0:0:
99,158,73760,2,0,L|105:62,1,95.9999970703126,10|0,0:0|0:0,0:0:0:0:
357,177,74137,6,0,P|485:121|512:9,1,191.999994140625,2|8,0:0|0:0,0:0:0:0:
370,34,74703,2,0,L|274:40,1,95.9999970703126,2|0,0:0|0:0,0:0:0:0:
25,55,75080,1,2,0:0:0:0:
154,119,75269,1,10,0:0:0:0:
163,262,75458,1,2,0:0:0:0:
43,341,75646,5,2,0:0:0:0:
34,198,75835,1,2,0:0:0:0:
163,262,76024,1,10,0:0:0:0:
154,119,76212,1,2,0:0:0:0:
377,173,76401,2,0,P|346:182|265:179,1,95.9999970703126,2|0,0:0|0:0,0:0:0:0:
250,11,76779,2,0,P|281:2|362:5,1,95.9999970703126,10|0,0:0|0:0,0:0:0:0:
426,31,77062,1,2,0:0:0:0:
449,52,77156,6,0,P|467:134|473:264,1,191.999994140625,6|8,0:0|0:0,0:0:0:0:
253,164,77722,2,0,L|349:170,1,95.9999970703126,2|0,0:0|0:0,0:0:0:0:
167,280,78099,1,2,0:0:0:0:
196,32,78288,2,0,L|292:26,1,95.9999970703126,10|0,0:0|0:0,0:0:0:0:
167,280,78665,5,2,0:0:0:0:
110,148,78854,1,2,0:0:0:0:
253,164,79043,1,10,0:0:0:0:
24,264,79231,1,2,0:0:0:0:
253,164,79420,2,0,L|349:170,1,95.9999970703126,2|0,0:0|0:0,0:0:0:0:
196,32,79797,2,0,L|100:38,1,95.9999970703126,10|0,0:0|0:0,0:0:0:0:
81,123,80080,1,2,0:0:0:0:
105,143,80175,5,6,0:0:0:0:
196,32,80363,1,2,0:0:0:0:
182,264,80552,1,10,0:0:0:0:
196,32,80741,1,2,0:0:0:0:
321,228,80929,2,0,L|417:234,1,95.9999970703126,2|0,0:0|0:0,0:0:0:0:
196,32,81307,2,0,L|100:38,1,95.9999970703126,10|0,0:0|0:0,0:0:0:0:
330,84,81684,5,2,0:0:0:0:
196,32,81873,1,2,0:0:0:0:
321,228,82062,1,10,0:0:0:0:
196,32,82250,1,2,0:0:0:0:
182,264,82439,2,0,L|86:270,1,95.9999970703126,2|0,0:0|0:0,0:0:0:0:
196,32,82816,1,10,0:0:0:0:
0,113,83005,1,2,0:0:0:0:
26,130,83099,1,2,0:0:0:0:
52,147,83194,6,0,L|148:141,1,95.9999970703126,2|0,0:0|0:0,0:0:0:0:
350,7,83571,6,0,P|292:132|436:267,1,287.999991210938,14|0,0:0|0:0,0:0:0:0:
436,123,84137,5,2,0:0:0:0:
292,132,84326,1,10,0:0:0:0:
148,141,84514,6,0,P|181:224|263:273,1,128,6|0,0:0|0:0,0:0:0:0:
292,132,85080,1,2,0:0:0:0:
292,132,85458,1,2,0:0:0:0:
292,132,85835,1,2,0:0:0:0:
127,368,86212,6,0,L|121:272,1,95.9999970703126,6|0,0:0|0:0,0:0:0:0:
112,127,86590,1,2,0:0:0:0:
388,320,86779,6,0,L|394:224,1,95.9999970703126,6|0,0:0|0:0,0:0:0:0:
403,79,87156,1,2,0:0:0:0:
121,272,87345,6,0,L|115:176,1,95.9999970703126,6|0,0:0|0:0,0:0:0:0:
106,31,87722,1,2,0:0:0:0:
394,224,87911,6,0,L|406:32,1,191.999994140625,6|0,0:0|0:0,0:0:0:0:
256,336,88477,5,2,0:0:0:0:
256,192,88665,1,2,0:0:0:0:
256,48,88854,1,6,0:0:0:0:
