osu file format v14

[General]
AudioFilename: audio.mp3
AudioLeadIn: 1825
PreviewTime: 58948
Countdown: 0
SampleSet: Soft
StackLeniency: 0.7
Mode: 0
LetterboxInBreaks: 0
WidescreenStoryboard: 0

[Editor]
Bookmarks: 3194,18288,30363,42439,59043,71118,86212
DistanceSpacing: 1.1
BeatDivisor: 4
GridSize: 32
TimelineZoom: 1

[Metadata]
Title:Enter Enter MISSION! (TV size)
TitleUnicode:Enter Enter MISSION! (TV size)
Artist:Ankou Team
ArtistUnicode:あんこうチーム
Creator:Pata-Mon
Version:Hard
Source:ガールズ&パンツァー
Tags:Dored GIRLS und PANZER 西住みほ Nishizumi Miho 武部沙織 Takebe Saori 五十鈴華 Isuzu Hana 秋山優花里 Akiyama Yukari 冷泉麻子 Reizei Mako 渕上舞 Fuchigami Mai 茅野愛衣 Kayano Ai 尾崎真実 Ozaki Mami 中上育実 Nakagami Ikumi 井口裕香 Iguchi Yuka Anime OP opening tv size
BeatmapID:1465465
BeatmapSetID:692559

[Difficulty]
HPDrainRate:6
CircleSize:3.5
OverallDifficulty:6
ApproachRate:7
SliderMultiplier:1.4
SliderTickRate:1

[Events]
//Background and Video events
0,0,"BG.jpg",0,0
Video,-1100,"video.flv"
//Break Periods
//Storyboard Layer 0 (Background)
//Storyboard Layer 1 (Fail)
//Storyboard Layer 2 (Pass)
//Storyboard Layer 3 (Foreground)
//Storyboard Sound Samples

[TimingPoints]
175.234126709115,377.358490566038,4,2,1,30,1,0
269,-100,4,2,1,10,0,0
929,-100,4,2,1,35,0,0
1024,-100,4,2,1,15,0,0
1684,-100,4,2,1,40,0,0
1779,-100,4,2,1,20,0,0
2439,-100,4,2,1,30,0,0
3194,-100,4,2,1,70,0,0
8288,-100,4,2,1,50,0,0
8477,-100,4,2,1,70,0,0
13760,-100,4,2,1,50,0,0
15269,-200,4,2,1,50,0,0
15363,-200,4,2,1,10,0,0
16779,-86.9565217391304,4,2,1,70,0,0
28665,-133.333333333333,4,2,1,70,0,0
29609,-86.9565217391304,4,2,1,70,0,0
30363,-100,4,2,1,70,0,0
42439,-100,4,2,1,60,0,0
54514,-86.9565217391304,4,2,1,70,0,0
57156,-55.5555555555556,4,2,1,70,0,0
57722,-86.9565217391304,4,2,1,70,0,0
58665,-66.6666666666667,4,2,1,70,0,0
58854,-86.9565217391304,4,2,1,70,0,0
59043,-86.9565217391304,4,2,1,80,0,1
69420,-86.9565217391304,4,2,1,80,0,1
69797,-86.9565217391304,4,2,1,80,0,1
70552,-86.9565217391304,4,2,1,50,0,1
70741,-86.9565217391304,4,2,1,80,0,1
70835,-86.9565217391304,4,2,1,50,0,1
71118,-86.9565217391304,4,2,1,80,0,1
86212,-86.9565217391304,4,2,1,80,0,0

[Colours]
Combo1 : 127,255,127
Combo2 : 255,191,96
Combo3 : 127,127,255
Combo4 : 255,127,127

[HitObjects]
235,180,175,6,0,L|204:162,7,35,2|2|2|2|2|2|2|2,0:0|0:0|0:0|0:0|0:0|0:0|0:0|0:0,0:0:0:0:
277,180,929,2,0,L|308:162,7,35,2|2|2|2|2|2|2|2,0:0|0:0|0:0|0:0|0:0|0:0|0:0|0:0,0:0:0:0:
256,216,1684,6,0,L|256:251,15,35,2|2|2|2|2|2|2|2|2|2|2|2|2|2|2|2,0:0|0:0|0:0|0:0|0:0|0:0|0:0|0:0|0:0|0:0|0:0|0:0|0:0|0:0|0:0|0:0,0:0:0:0:
226,281,3194,6,0,P|190:296|63:301,1,140,6|0,0:0|0:0,0:0:0:0:
20,260,3760,2,0,P|30:192|20:123,1,140,2|0,0:0|0:0,0:0:0:0:
91,77,4326,2,0,P|160:80|222:102,1,70,2|0,0:0|0:0,0:0:0:0:
235,119,4703,5,6,0:0:0:0:
310,80,4892,2,0,P|378:70|447:80,1,140,2|2,0:0|0:0,0:0:0:0:
499,146,5458,2,0,L|495:260,1,70,2|0,0:0|0:0,0:0:0:0:
466,245,5741,2,0,L|470:359,1,70,2|0,0:0|0:0,0:0:0:0:
499,344,6024,1,2,0:0:0:0:
384,310,6212,6,0,P|314:312|248:334,1,140,6|0,0:0|0:0,0:0:0:0:
179,383,6779,2,0,L|65:379,1,70,2|8,0:0|0:0,0:0:0:0:
37,339,7156,1,10,0:0:0:0:
109,297,7345,1,2,0:0:0:0:
37,255,7533,1,2,0:0:0:0:
109,213,7722,5,6,0:0:0:0:
109,129,7911,2,0,P|107:89|94:42,2,70,2|0|8,0:0|0:0|0:0,0:0:0:0:
149,140,8382,1,8,0:0:0:0:
153,144,8477,2,0,P|193:142|240:129,1,70,6|0,0:0|0:0,0:0:0:0:
289,84,8854,2,0,P|329:86|376:99,1,70,2|0,0:0|0:0,0:0:0:0:
428,139,9231,6,0,L|424:253,1,70,6|0,0:0|0:0,0:0:0:0:
423,294,9609,2,0,L|419:408,1,70,2|0,0:0|0:0,0:0:0:0:
337,350,9986,2,0,L|341:236,1,70,2|0,0:0|0:0,0:0:0:0:
342,195,10364,2,0,L|346:81,1,70,2|0,0:0|0:0,0:0:0:0:
280,70,10741,6,0,P|245:62|210:61,1,70,6|0,0:0|0:0,0:0:0:0:
126,60,11118,2,0,P|86:62|39:75,1,70,2|0,0:0|0:0,0:0:0:0:
56,152,11495,2,0,P|91:160|126:161,1,70,2|0,0:0|0:0,0:0:0:0:
206,136,11873,1,2,0:0:0:0:
286,161,12062,1,2,0:0:0:0:
380,93,12250,6,0,P|370:161|380:230,1,140,6|0,0:0|0:0,0:0:0:0:
239,323,13005,2,0,L|125:319,1,70,2|0,0:0|0:0,0:0:0:0:
140,290,13288,2,0,L|26:294,1,70,2|0,0:0|0:0,0:0:0:0:
28,294,13571,1,2,0:0:0:0:
51,375,13760,5,8,0:0:0:0:
46,212,13948,1,8,0:0:0:0:
46,212,15269,6,0,P|45:306|124:233,1,245,2|0,0:0|0:0,0:0:0:0:
115,157,16779,6,0,P|177:141|239:142,1,120.750002303124,2|0,0:0|0:0,0:0:0:0:
274,156,17156,2,0,L|282:93,3,40.2500007677078,2|2|2|2,0:0|0:0|0:0|0:0,0:0:0:0:
285,72,17533,1,2,0:0:0:0:
352,14,17722,1,2,0:0:0:0:
423,66,17911,2,0,P|439:128|438:190,1,120.750002303124,10|2,0:0|0:0,0:0:0:0:
428,227,18288,5,6,0:0:0:0:
432,231,18665,2,0,P|424:280|395:313,1,80.5000015354157,10|0,0:0|0:0,0:0:0:0:
366,323,18948,1,2,0:0:0:0:
362,327,19043,1,2,0:0:0:0:
274,339,19231,1,2,0:0:0:0:
186,351,19420,1,10,0:0:0:0:
130,283,19609,6,0,P|114:212|118:86,1,161.000003070831,2|2,0:0|0:0,0:0:0:0:
134,38,20175,2,0,L|214:33,1,80.5000015354157,10|0,0:0|0:0,0:0:0:0:
258,110,20552,1,2,0:0:0:0:
346,110,20741,1,2,0:0:0:0:
390,33,20929,1,10,0:0:0:0:
302,187,21307,5,2,0:0:0:0:
298,191,21684,2,0,P|297:231|307:269,1,80.5000015354157,10|0,0:0|0:0,0:0:0:0:
335,304,21967,1,2,0:0:0:0:
339,308,22062,1,2,0:0:0:0:
404,368,22250,1,2,0:0:0:0:
423,281,22439,1,10,0:0:0:0:
442,194,22628,6,0,P|441:113|424:35,1,161.000003070831,2|2,0:0|0:0,0:0:0:0:
340,64,23194,2,0,P|301:70|256:63,1,80.5000015354157,10|0,0:0|0:0,0:0:0:0:
177,35,23571,1,2,0:0:0:0:
193,122,23760,1,2,0:0:0:0:
209,209,23948,1,10,0:0:0:0:
43,151,24325,5,6,0:0:0:0:
39,155,24703,2,0,P|28:193|29:233,1,80.5000015354157,10|0,0:0|0:0,0:0:0:0:
50,273,24986,1,2,0:0:0:0:
54,277,25080,1,2,0:0:0:0:
142,290,25269,1,2,0:0:0:0:
198,358,25458,1,10,0:0:0:0:
286,371,25646,6,0,P|354:349|419:280,1,161.000003070831,2|2,0:0|0:0,0:0:0:0:
375,207,26212,2,0,P|367:161|372:104,1,80.5000015354157,10|0,0:0|0:0,0:0:0:0:
395,42,26590,1,2,0:0:0:0:
308,61,26779,1,2,0:0:0:0:
221,80,26967,1,10,0:0:0:0:
156,20,27156,1,2,0:0:0:0:
152,16,27250,1,2,0:0:0:0:
148,12,27345,6,0,P|64:15|0:80,1,161.000003070831,2|8,0:0|0:0,0:0:0:0:
67,130,27911,2,0,L|63:244,1,80.5000015354157,2|0,0:0|0:0,0:0:0:0:
12,282,28288,2,0,L|16:396,1,80.5000015354157,2|0,0:0|0:0,0:0:0:0:
109,350,28665,6,0,P|153:275|197:350,1,210.000008010865,6|0,0:0|0:0,0:0:0:0:
291,363,29609,6,0,L|295:249,1,80.5000015354157,6|0,0:0|0:0,0:0:0:0:
242,211,29986,2,0,L|238:97,1,80.5000015354157,6|0,0:0|0:0,0:0:0:0:
316,12,30363,6,0,P|315:56|293:101,1,70,6|0,0:0|0:0,0:0:0:0:
239,131,30741,2,0,P|195:130|150:108,1,70,10|0,0:0|0:0,0:0:0:0:
97,80,31118,1,2,0:0:0:0:
52,151,31307,2,0,L|56:265,1,70,2|8,0:0|0:0,0:0:0:0:
2,287,31684,6,0,P|67:255|173:259,1,140,2|2,0:0|0:0,0:0:0:0:
210,283,32250,2,0,L|324:279,1,70,10|0,0:0|0:0,0:0:0:0:
356,243,32628,1,2,0:0:0:0:
360,247,32816,1,2,0:0:0:0:
364,251,33005,2,0,L|360:365,1,70,10|2,0:0|0:0,0:0:0:0:
280,281,33382,6,0,P|266:232|259:135,1,140,2|8,0:0|0:0,0:0:0:0:
268,59,33948,2,0,P|223:48|148:55,1,70,2|0,0:0|0:0,0:0:0:0:
143,110,34326,2,0,P|98:121|23:114,1,70,2|8,0:0|0:0,0:0:0:0:
23,56,34703,6,0,P|31:118|32:204,1,140,2|2,0:0|0:0,0:0:0:0:
96,249,35269,2,0,P|140:260|216:253,1,70,10|0,0:0|0:0,0:0:0:0:
222,200,35646,1,2,0:0:0:0:
226,196,35835,1,2,0:0:0:0:
230,192,36024,2,0,P|274:181|350:188,1,70,10|0,0:0|0:0,0:0:0:0:
325,259,36401,6,0,P|281:270|205:263,1,70,2|0,0:0|0:0,0:0:0:0:
173,255,36779,2,0,P|129:266|53:259,1,70,10|0,0:0|0:0,0:0:0:0:
21,255,37156,1,2,0:0:0:0:
73,189,37345,2,0,P|84:145|77:69,1,70,2|8,0:0|0:0,0:0:0:0:
64,38,37722,6,0,P|118:24|226:24,1,140,2|2,0:0|0:0,0:0:0:0:
261,81,38288,2,0,P|305:92|381:85,1,70,10|0,0:0|0:0,0:0:0:0:
408,63,38665,1,2,0:0:0:0:
412,67,38853,1,2,0:0:0:0:
416,71,39042,2,0,L|412:185,1,70,10|2,0:0|0:0,0:0:0:0:
337,177,39420,6,0,P|312:249|368:336,1,140,2|8,0:0|0:0,0:0:0:0:
268,360,39986,2,0,L|154:356,1,70,2|0,0:0|0:0,0:0:0:0:
132,305,40363,2,0,L|18:309,1,70,2|8,0:0|0:0,0:0:0:0:
23,225,40741,6,0,L|194:219,1,140,2|2,0:0|0:0,0:0:0:0:
237,258,41307,2,0,L|351:254,1,70,10|2,0:0|0:0,0:0:0:0:
374,205,41684,1,2,0:0:0:0:
443,252,41873,1,2,0:0:0:0:
419,333,42062,1,10,0:0:0:0:
335,335,42250,1,2,0:0:0:0:
331,339,42345,1,2,0:0:0:0:
327,343,42439,6,0,P|276:345|194:274,1,140,6|8,0:0|0:0,0:0:0:0:
125,270,43005,2,0,P|176:272|258:201,1,140,2|2,0:0|0:0,0:0:0:0:
327,197,43571,2,0,P|276:199|194:128,1,140,10|0,0:0|0:0,0:0:0:0:
182,70,44137,5,2,0:0:0:0:
100,50,44326,2,0,P|46:55|2:101,1,70,10|2,0:0|0:0,0:0:0:0:
80,132,44703,2,0,P|82:183|11:265,1,140,2|8,0:0|0:0,0:0:0:0:
192,307,45458,6,0,P|190:256|261:174,1,140,2|8,0:0|0:0,0:0:0:0:
322,172,46024,2,0,P|367:195|402:298,1,140,2|2,0:0|0:0,0:0:0:0:
375,352,46590,2,0,P|331:379|225:358,1,140,10|0,0:0|0:0,0:0:0:0:
192,307,47156,5,2,0:0:0:0:
139,372,47345,2,0,P|71:384|13:353,1,70,10|0,0:0|0:0,0:0:0:0:
0,340,47722,2,0,P|20:266|24:180,1,140,2|8,0:0|0:0,0:0:0:0:
143,84,48477,6,0,P|212:77|279:59,1,140,2|8,0:0|0:0,0:0:0:0:
348,9,49043,2,0,P|319:72|301:139,1,140,2|2,0:0|0:0,0:0:0:0:
310,224,49609,2,0,P|269:167|220:118,1,140,10|0,0:0|0:0,0:0:0:0:
143,84,50175,5,2,0:0:0:0:
151,167,50363,2,0,P|150:212|130:264,1,70,10|2,0:0|0:0,0:0:0:0:
83,295,50741,2,0,P|150:276|220:269,1,140,2|8,0:0|0:0,0:0:0:0:
386,293,51495,6,0,L|380:122,1,140,2|8,0:0|0:0,0:0:0:0:
298,141,52062,2,0,L|304:312,1,140,2|0,0:0|0:0,0:0:0:0:
219,269,52628,2,0,L|213:98,1,140,10|0,0:0|0:0,0:0:0:0:
211,45,53194,5,2,0:0:0:0:
285,84,53382,2,0,P|316:90|363:87,1,70,10|2,0:0|0:0,0:0:0:0:
437,70,53760,2,0,L|441:-44,1,70,2|0,0:0|0:0,0:0:0:0:
354,89,54137,2,0,L|358:203,1,70,10|0,0:0|0:0,0:0:0:0:
487,235,54514,6,0,L|373:231,1,80.5000015354157,6|0,0:0|0:0,0:0:0:0:
356,159,54892,2,0,L|242:155,1,80.5000015354157,6|0,0:0|0:0,0:0:0:0:
225,83,55269,2,0,L|111:79,1,80.5000015354157,6|0,0:0|0:0,0:0:0:0:
94,7,55646,1,2,0:0:0:0:
21,57,55835,1,10,0:0:0:0:
71,130,56024,5,2,0:0:0:0:
144,80,56212,2,0,P|155:158|119:204,1,80.5000015354157,10|0,0:0|0:0,0:0:0:0:
128,241,56590,1,2,0:0:0:0:
197,296,56779,2,0,P|275:307|321:271,1,80.5000015354157,10|0,0:0|0:0,0:0:0:0:
345,253,57156,6,0,P|386:286|356:341,1,125.999996154785,10|0,0:0|0:0,0:0:0:0:
300,98,57722,6,0,L|396:85,2,80.5000015354157,2|2|2,0:0|0:0|0:0,0:0:0:0:
212,98,58288,2,0,L|116:85,1,80.5000015354157,2|2,0:0|0:0,0:0:0:0:
59,138,58665,6,0,P|44:180|52:246,1,105.000004005432,10|0,0:0|0:0,0:0:0:0:
70,279,58948,1,2,0:0:0:0:
74,283,59043,6,0,L|245:277,1,161.000003070831,6|8,0:0|0:0,0:0:0:0:
297,341,59609,2,0,L|468:347,1,161.000003070831,2|2,0:0|0:0,0:0:0:0:
501,269,60175,2,0,P|512:232|504:168,1,80.5000015354157,10|0,0:0|0:0,0:0:0:0:
470,111,60552,5,2,0:0:0:0:
395,159,60741,2,0,P|358:170|294:162,1,80.5000015354157,2|8,0:0|0:0,0:0:0:0:
239,125,61118,1,2,0:0:0:0:
163,170,61307,2,0,L|167:284,1,80.5000015354157,2|0,0:0|0:0,0:0:0:0:
78,234,61684,2,0,L|82:120,1,80.5000015354157,10|0,0:0|0:0,0:0:0:0:
84,64,62062,6,0,P|146:33|293:46,1,161.000003070831,2|8,0:0|0:0,0:0:0:0:
284,102,62628,2,0,P|323:112|364:111,1,80.5000015354157,2|0,0:0|0:0,0:0:0:0:
441,71,63005,1,2,0:0:0:0:
503,133,63194,1,10,0:0:0:0:
463,211,63382,2,0,P|462:251|472:291,1,80.5000015354157,2|0,0:0|0:0,0:0:0:0:
512,370,63760,5,2,0:0:0:0:
424,365,63948,1,10,0:0:0:0:
336,360,64137,1,2,0:0:0:0:
296,280,64326,2,0,P|286:241|287:200,1,80.5000015354157,2|0,0:0|0:0,0:0:0:0:
333,125,64703,2,0,P|334:85|324:45,1,80.5000015354157,10|0,0:0|0:0,0:0:0:0:
184,22,65080,6,0,P|182:102|202:182,1,161.000003070831,6|8,0:0|0:0,0:0:0:0:
287,201,65646,2,0,P|289:281|269:361,1,161.000003070831,2|2,0:0|0:0,0:0:0:0:
176,384,66212,2,0,L|62:380,1,80.5000015354157,10|0,0:0|0:0,0:0:0:0:
32,317,66590,5,2,0:0:0:0:
90,249,66779,2,0,P|100:210|99:169,1,80.5000015354157,2|8,0:0|0:0,0:0:0:0:
81,83,67156,1,2,0:0:0:0:
161,45,67345,2,0,P|200:35|241:36,1,80.5000015354157,2|0,0:0|0:0,0:0:0:0:
317,80,67722,1,10,0:0:0:0:
393,35,67911,1,2,0:0:0:0:
469,80,68099,6,0,P|481:128|483:266,1,161.000003070831,2|8,0:0|0:0,0:0:0:0:
460,323,68665,2,0,L|346:319,1,80.5000015354157,2|0,0:0|0:0,0:0:0:0:
338,242,69043,1,2,0:0:0:0:
249,238,69231,1,2,0:0:0:0:
201,313,69420,1,6,0:0:0:0:
205,317,69797,5,2,0:0:0:0:
253,242,69986,1,2,0:0:0:0:
212,163,70175,1,2,0:0:0:0:
123,159,70363,2,0,P|83:202|91:288,1,80.5000015354157,10|8,0:0|0:0,0:0:0:0:
80,266,70646,1,8,0:0:0:0:
84,270,70741,2,0,L|88:333,3,40.2500007677078,10|8|8|8,0:0|0:0|0:0|0:0,0:0:0:0:
118,341,71118,6,0,P|185:320|291:316,1,161.000003070831,6|8,0:0|0:0,0:0:0:0:
347,366,71684,2,0,P|427:362|504:339,1,161.000003070831,2|2,0:0|0:0,0:0:0:0:
472,256,72250,2,0,P|466:199|486:150,1,80.5000015354157,10|0,0:0|0:0,0:0:0:0:
502,93,72628,5,2,0:0:0:0:
432,39,72816,2,0,L|318:43,1,80.5000015354157,2|8,0:0|0:0,0:0:0:0:
262,45,73194,1,2,0:0:0:0:
182,8,73382,2,0,P|119:43|102:107,1,80.5000015354157,2|0,0:0|0:0,0:0:0:0:
190,96,73760,2,0,L|186:210,1,80.5000015354157,10|0,0:0|0:0,0:0:0:0:
115,228,74137,6,0,P|189:203|273:207,1,161.000003070831,2|8,0:0|0:0,0:0:0:0:
350,245,74703,2,0,L|464:241,1,80.5000015354157,2|0,0:0|0:0,0:0:0:0:
512,208,75080,1,2,0:0:0:0:
501,296,75269,1,10,0:0:0:0:
490,384,75458,2,0,L|376:380,1,80.5000015354157,2|0,0:0|0:0,0:0:0:0:
335,333,75835,5,2,0:0:0:0:
247,344,76024,1,10,0:0:0:0:
159,355,76212,1,2,0:0:0:0:
83,307,76401,2,0,P|70:265|73:197,1,80.5000015354157,2|0,0:0|0:0,0:0:0:0:
137,172,76779,2,0,P|150:130|147:62,1,80.5000015354157,10|0,0:0|0:0,0:0:0:0:
136,52,77062,1,2,0:0:0:0:
140,48,77156,6,0,L|311:42,1,161.000003070831,6|8,0:0|0:0,0:0:0:0:
389,39,77722,2,0,P|413:115|418:195,1,161.000003070831,2|2,0:0|0:0,0:0:0:0:
364,266,78288,2,0,L|250:262,1,80.5000015354157,10|0,0:0|0:0,0:0:0:0:
195,260,78665,5,2,0:0:0:0:
137,193,78854,1,2,0:0:0:0:
53,222,79043,2,0,P|114:279|162:278,1,80.5000015354157,10|2,0:0|0:0,0:0:0:0:
195,260,79420,2,0,P|226:193|203:134,1,80.5000015354157,2|0,0:0|0:0,0:0:0:0:
178,114,79797,1,10,0:0:0:0:
237,47,79986,1,2,0:0:0:0:
241,51,80080,1,2,0:0:0:0:
245,55,80175,5,6,0:0:0:0:
324,93,80363,2,0,L|438:89,2,80.5000015354157,2|8|0,0:0|0:0|0:0,0:0:0:0:
245,55,80929,1,2,0:0:0:0:
251,144,81118,1,2,0:0:0:0:
257,233,81307,2,0,L|143:229,1,80.5000015354157,10|0,0:0|0:0,0:0:0:0:
330,182,81684,5,2,0:0:0:0:
403,131,81873,2,0,L|517:127,2,80.5000015354157,2|8|0,0:0|0:0|0:0,0:0:0:0:
324,93,82439,1,2,0:0:0:0:
330,182,82628,1,2,0:0:0:0:
336,271,82817,2,0,L|222:267,1,80.5000015354157,10|2,0:0|0:0,0:0:0:0:
224,236,83099,1,2,0:0:0:0:
220,232,83194,6,0,L|106:236,1,80.5000015354157,2|0,0:0|0:0,0:0:0:0:
0,279,83571,2,0,P|52:225|48:127,1,161.000003070831,14|0,0:0|0:0,0:0:0:0:
25,59,84137,1,2,0:0:0:0:
112,75,84326,1,10,0:0:0:0:
251,31,84514,6,0,P|199:85|203:183,1,161.000003070831,6|0,0:0|0:0,0:0:0:0:
238,245,85080,1,2,0:0:0:0:
242,249,85458,1,2,0:0:0:0:
246,253,85835,1,2,0:0:0:0:
343,80,86212,6,0,L|229:76,1,80.5000015354157,6|0,0:0|0:0,0:0:0:0:
174,74,86589,1,2,0:0:0:0:
229,170,86779,2,0,L|343:166,1,80.5000015354157,6|0,0:0|0:0,0:0:0:0:
398,164,87156,1,2,0:0:0:0:
343,260,87345,6,0,L|229:256,1,80.5000015354157,6|0,0:0|0:0,0:0:0:0:
174,254,87722,1,2,0:0:0:0:
229,350,87911,2,0,L|400:344,1,161.000003070831,6|0,0:0|0:0,0:0:0:0:
422,220,88477,5,2,0:0:0:0:
411,132,88665,1,2,0:0:0:0:
400,44,88854,1,6,0:0:0:0:
