osu file format v14

[General]
AudioFilename: audio.mp3
AudioLeadIn: 0
PreviewTime: 75055
Countdown: 1
SampleSet: Normal
StackLeniency: 0.7
Mode: 0
LetterboxInBreaks: 0
CountdownOffset: 3
WidescreenStoryboard: 1

[Editor]
Bookmarks: 1930,16930,31930,46930,61932,75055,76930,91930,106930,121930
DistanceSpacing: 1.5
BeatDivisor: 4
GridSize: 8
TimelineZoom: 1.200002

[Metadata]
Title:Come Alive
TitleUnicode:Come Alive
Artist:Anki & Kabuki
ArtistUnicode:Anki & Kabuki
Creator:realy0_
Version:Hard
Source:
Tags:
BeatmapID:1390562
BeatmapSetID:656311

[Difficulty]
HPDrainRate:6
CircleSize:5
OverallDifficulty:7
ApproachRate:9
SliderMultiplier:0.699999904632566
SliderTickRate:1

[Events]
//Background and Video events
0,0,"22940_anime_scenery.jpg",0,0
//Break Periods
2,47041,57250
//Storyboard Layer 0 (Background)
//Storyboard Layer 1 (Fail)
//Storyboard Layer 2 (Pass)
//Storyboard Layer 3 (Foreground)
//Storyboard Sound Samples

[TimingPoints]
1900,468.750476190476,4,1,0,50,1,0
1930,-66.6666666666667,4,1,0,50,0,0
5532,-50,4,1,0,50,0,0
75020,-66.6666666666667,4,1,0,50,0,0
76900,-66.6666666666667,4,1,0,50,0,1
90025,-133.333333333333,4,1,0,50,0,1
91900,-66.6666666666667,4,1,0,50,0,0
95650,-50,4,1,0,50,0,0
106900,-66.6666666666667,4,1,0,50,0,1
120025,-200,4,1,0,50,0,0
121900,-66.6666666666667,4,1,0,50,0,0

[Colours]
Combo1 : 0,215,167
Combo2 : 202,0,5
Combo3 : 89,0,179
Combo4 : 0,85,170
Combo5 : 0,128,0
Combo6 : 140,0,140
Combo7 : 193,97,0

[HitObjects]
160,56,1900,5,2,0:0:0:0:
80,128,2134,2,0,P|112:128|144:112,3,52.4999928474424
216,208,3071,1,2,0:0:0:0:
376,8,3540,5,4,0:0:0:0:
432,0,3657,1,4,0:0:0:0:
480,32,3775,2,4,P|416:208|336:224,1,262.499974250792
320,104,5181,5,4,0:0:0:0:
192,128,5415,1,4,0:0:0:0:
240,8,5650,2,4,B|192:-8|152:8,1,69.9999904632566
192,128,6118,2,4,B|196:179|176:188|149:210,1,69.9999904632566
32,232,6587,2,4,B|48:280|64:296|80:296,1,69.9999904632566
232,312,7056,2,4,P|216:344|168:360,1,69.9999904632566
128,256,7525,5,2,0:0:0:0:
192,160,7759,1,0,0:0:0:0:
96,104,7993,1,0,0:0:0:0:
176,24,8228,2,0,B|256:72|256:136|256:152,1,139.999980926513
272,24,8931,2,0,P|304:72|312:112,1,69.9999904632566
288,208,9400,5,2,0:0:0:0:
64,272,9868,2,0,P|80:320|112:336,1,69.9999904632566
128,224,10337,2,0,P|144:272|176:288,1,69.9999904632566
256,176,10923,1,0,0:0:0:0:
296,216,11040,1,0,0:0:0:0:
352,200,11157,2,2,B|368:120|336:120|288:88|272:104,3,139.999980926513
216,224,12798,6,0,L|326:148,1,104.999985694885
256,192,13618,12,0,16900,0:0:0:0:
448,336,17134,5,0,0:0:0:0:
504,240,17368,2,0,P|440:208|424:208,1,69.9999904632566
352,272,17837,1,0,0:0:0:0:
352,160,18071,2,0,B|288:144|240:176|240:240|272:272,1,174.999976158141
248,312,18775,1,2,0:0:0:0:
144,288,19185,5,2,0:0:0:0:
128,256,19243,2,2,L|192:144,1,122.499983310699
208,120,19712,2,2,L|336:168,1,122.499983310699
360,168,20181,2,2,L|312:264,1,104.999985694885
296,296,20650,5,4,0:0:0:0:
184,328,20884,1,0,0:0:0:0:
160,224,21118,1,0,0:0:0:0:
264,160,21353,1,0,0:0:0:0:
160,112,21587,1,0,0:0:0:0:
160,42,21821,6,0,L|159:183,1,139.999980926513
225,148,22525,2,0,L|88:61,1,139.999980926513
99,146,23228,2,0,L|229:67,1,139.999980926513
160,112,23872,5,2,0:0:0:0:
248,152,24107,1,2,0:0:0:0:
256,248,24341,1,6,0:0:0:0:
96,80,24868,5,4,0:0:0:0:
304,144,25337,1,4,0:0:0:0:
144,272,25806,1,4,0:0:0:0:
352,240,26274,1,4,0:0:0:0:
464,176,26508,5,4,0:0:0:0:
376,104,26743,2,4,P|352:64|312:48,1,69.9999904632566
264,136,27212,2,4,P|296:160|296:208,1,69.9999904632566
224,88,27681,1,4,0:0:0:0:
176,192,27915,1,4,0:0:0:0:
208,232,28032,1,0,0:0:0:0:
264,240,28150,1,4,0:0:0:0:
256,192,28384,12,0,31900,0:0:0:0:
336,192,32310,6,2,P|288:240|256:240,1,69.9999904632566
224,192,32778,1,0,0:0:0:0:
296,144,33012,1,0,0:0:0:0:
384,168,33247,2,2,B|400:232|352:296|288:296|272:312|240:304,1,209.99997138977
160,328,34214,2,2,P|160:280|240:240,1,139.999980926513
224,152,35123,5,4,0:0:0:0:
320,192,35357,1,4,0:0:0:0:
384,272,35591,2,6,P|456:232|459:149,1,139.999980926513
432,64,36294,1,4,0:0:0:0:
344,128,36528,1,4,0:0:0:0:
456,168,36762,1,4,0:0:0:0:
496,64,36997,2,6,P|472:16|440:0,1,69.9999904632566
224,224,37700,5,4,0:0:0:0:
192,160,37934,2,4,B|80:288|304:352|288:192,1,279.999961853026
227,219,39106,1,2,0:0:0:0:
248,184,39223,1,2,0:0:0:0:
272,152,39341,1,2,0:0:0:0:
192,56,39809,6,2,P|160:8|128:8,1,69.9999904632566
168,152,40278,2,2,P|136:120|136:88,1,69.9999904632566
40,0,40747,2,2,P|8:32|8:80,1,69.9999904632566
80,200,41216,2,2,P|112:232|144:232,1,69.9999904632566
192,136,41684,1,4,0:0:0:0:
104,40,41919,1,4,0:0:0:0:
240,24,42153,1,4,0:0:0:0:
256,224,42622,6,0,B|272:213|279:177|264:157,2,69.9999904632566
312,312,43325,2,0,P|264:344|232:344,2,69.9999904632566
416,208,44087,1,0,0:0:0:0:
432,312,44321,1,0,0:0:0:0:
512,384,44556,1,0,0:0:0:0:
0,384,45434,5,0,0:0:0:0:
40,256,45669,2,0,L|104:224,1,69.9999904632566
128,344,46137,2,0,L|160:280,1,69.9999904632566
240,168,46606,1,2,0:0:0:0:
280,120,46723,1,2,0:0:0:0:
344,112,46841,1,2,0:0:0:0:
496,16,58150,5,0,0:0:0:0:
408,48,58384,2,0,P|440:88|472:96,2,69.9999904632566
472,128,59087,1,0,0:0:0:0:
384,96,59321,1,0,0:0:0:0:
352,16,59556,1,0,0:0:0:0:
280,72,59790,1,0,0:0:0:0:
320,144,60025,6,0,P|256:176|192:160,1,139.999980926513
128,160,60728,2,0,B|112:240|240:272|320:240|368:192,1,279.999961853026
344,144,61900,5,4,0:0:0:0:
248,160,62134,2,4,P|216:192|232:224,2,69.9999904632566
336,216,62837,2,4,P|320:256|296:272,1,69.9999904632566
216,208,63306,5,4,0:0:0:0:
256,88,63540,1,4,0:0:0:0:
304,192,63775,1,4,0:0:0:0:
192,136,64009,1,4,0:0:0:0:
328,120,64243,1,4,0:0:0:0:
344,184,64478,6,4,P|376:168|392:120,4,69.9999904632566
424,264,65650,2,4,B|384:296|320:280|304:232,1,139.999980926513
192,256,66353,1,4,0:0:0:0:
216,168,66587,1,4,0:0:0:0:
144,112,66821,1,4,0:0:0:0:
72,168,67056,1,4,0:0:0:0:
96,256,67290,1,4,0:0:0:0:
144,200,67525,6,4,P|176:160|256:112,1,139.999980926513
344,40,68228,2,4,P|296:24|248:40,2,69.9999904632566
416,120,68931,2,4,P|432:168|416:200,1,69.9999904632566
320,152,69400,6,6,B|288:168|272:152,5,34.9999952316283
320,180,70104,2,6,P|304:212|320:228,5,34.9999952316283
296,240,70807,2,6,B|264:256|248:256|248:240,1,34.9999952316283
232,240,71041,2,6,P|208:224|208:200,1,34.9999952316283
216,192,71275,2,6,P|184:200|184:208,5,34.9999952316283
200,224,71978,2,6,P|216:256|232:256,9,34.9999952316283
200,200,73150,6,0,B|184:152|200:136|208:80|240:80|240:80|344:272|432:56|304:72|304:72|288:184|272:208|240:216,1,559.999923706053
256,192,75259,12,0,76665,0:0:0:0:
296,128,76900,5,6,0:0:0:0:
440,256,77368,1,0,0:0:0:0:
392,168,77603,2,6,P|384:200|360:216,1,52.4999948501583
288,280,78071,1,0,0:0:0:0:
200,232,78306,2,6,P|168:264|168:280,2,52.4999948501583
144,144,79009,6,4,P|176:112|240:112,1,104.999989700317
304,152,79712,1,0,0:0:0:0:
240,192,79946,1,0,0:0:0:0:
288,256,80181,2,4,L|336:224,1,52.4999948501583
416,280,80650,5,2,0:0:0:0:
280,336,80884,1,0,0:0:0:0:
312,224,81118,1,0,0:0:0:0:
176,248,81353,1,0,0:0:0:0:
224,128,81587,2,4,P|160:112|128:128,1,104.999989700317
72,192,82290,5,4,0:0:0:0:
48,160,82407,1,4,0:0:0:0:
48,120,82525,1,4,0:0:0:0:
136,32,82759,6,0,P|184:32|200:48,2,52.4999948501583
160,112,83462,1,2,0:0:0:0:
176,120,83521,2,0,L|264:160,1,91.8749909877771
272,168,83989,2,2,L|184:208,1,91.8749909877771
224,288,84634,5,4,0:0:0:0:
312,224,84868,1,4,0:0:0:0:
304,120,85103,1,4,0:0:0:0:
224,64,85337,2,4,B|160:96|160:144|208:160|192:240|144:240,1,209.999979400633
64,272,86509,1,0,0:0:0:0:
96,304,86626,1,0,0:0:0:0:
144,312,86743,1,0,0:0:0:0:
240,256,86978,1,0,0:0:0:0:
312,352,87212,2,4,P|328:320|328:304,1,52.4999948501583
416,328,87681,2,4,P|416:296|432:280,1,52.4999948501583
432,208,88150,6,2,P|400:192|384:192,3,52.4999948501583
304,296,89087,1,0,0:0:0:0:
256,176,89321,1,0,0:0:0:0:
384,144,89556,2,0,B|391:91|343:83|340:106,1,78.7499922752375
312,80,90025,2,2,B|296:32|296:32|248:64|248:64|232:16|232:16|184:32|184:32,1,209.999979400633
192,128,92134,5,6,0:0:0:0:
304,136,92368,1,6,0:0:0:0:
288,240,92603,2,6,P|256:256|224:240,1,52.4999948501583
368,48,93306,1,6,0:0:0:0:
352,96,93423,1,0,0:0:0:0:
336,144,93540,1,4,0:0:0:0:
480,40,94009,6,4,P|480:72|464:88,2,52.4999948501583
488,160,94712,1,6,0:0:0:0:
392,240,94946,1,6,0:0:0:0:
512,280,95181,2,6,P|496:312|464:328,1,52.4999948501583
392,384,95650,5,6,0:0:0:0:
320,304,95884,2,4,B|272:320|256:296|256:296|288:272|304:248|304:248|240:224|240:224|296:176|296:176,1,279.999961853026
392,264,97056,6,6,P|376:224|344:208,2,69.9999904632566
424,136,97759,1,6,0:0:0:0:
360,32,97993,1,6,0:0:0:0:
232,0,98228,2,4,P|168:32|152:160,1,209.99997138977
280,192,99165,2,6,P|280:208|264:224,2,34.9999952316283
312,24,99868,6,4,P|328:16|360:8,1,34.9999952316283
376,32,100103,2,6,P|392:64|376:96,1,69.9999904632566
344,184,100571,5,0,0:0:0:0:
240,144,100806,2,0,B|216:128|211:83|211:83|200:128|184:144|160:144,1,139.999980926513
128,64,101509,1,4,0:0:0:0:
208,8,101743,1,4,0:0:0:0:
296,64,101978,1,4,0:0:0:0:
208,80,102212,2,6,P|216:128|248:152,1,69.9999904632566
304,232,102681,2,6,P|320:272|288:312,1,69.9999904632566
264,192,103150,5,4,0:0:0:0:
248,168,103384,1,4,0:0:0:0:
224,160,103618,1,4,0:0:0:0:
200,168,103853,2,4,B|192:136|200:120|224:104,2,69.9999904632566
184,192,104556,2,4,B|160:168|144:160|120:160,2,69.9999904632566
224,112,105962,6,12,P|248:136|264:136,2,34.9999952316283
288,184,106431,1,12,0:0:0:0:
280,80,106665,2,12,P|312:104|312:144,1,69.9999904632566
128,304,107368,6,2,P|104:264|104:240,1,52.4999948501583
224,200,107837,1,0,0:0:0:0:
328,248,108071,1,0,0:0:0:0:
352,352,108306,2,2,P|384:344|392:328,2,52.4999948501583
232,360,109009,2,0,B|208:328|192:312|192:312|208:296|256:248|256:248|200:232|168:184|168:184|232:160|240:112|240:112,1,367.499963951108
320,88,110884,5,0,0:0:0:0:
360,96,111001,1,0,0:0:0:0:
332,128,111118,1,0,0:0:0:0:
248,40,111353,5,0,0:0:0:0:
208,32,111470,1,0,0:0:0:0:
220,72,111587,1,0,0:0:0:0:
232,176,112056,6,0,P|256:192|288:192,2,52.4999948501583
192,288,112759,1,0,0:0:0:0:
304,256,112993,1,0,0:0:0:0:
264,360,113228,1,0,0:0:0:0:
160,384,113462,2,6,B|120:376|88:384|96:328|96:328|32:336|32:304|32:304,1,157.499984550475
96,240,114400,5,14,0:0:0:0:
112,200,114634,1,0,0:0:0:0:
144,176,114869,1,0,0:0:0:0:
160,264,115103,5,14,0:0:0:0:
128,232,115337,1,0,0:0:0:0:
144,192,115571,1,0,0:0:0:0:
208,216,115806,5,14,0:0:0:0:
168,200,116040,1,0,0:0:0:0:
144,168,116275,1,0,0:0:0:0:
216,160,116509,5,14,0:0:0:0:
184,136,116743,1,0,0:0:0:0:
144,152,116978,1,0,0:0:0:0:
48,136,117212,6,0,B|16:184|32:240|128:248,1,157.499984550475
256,192,118150,5,6,0:0:0:0:
512,0,118853,2,6,L|496:64,1,52.4999948501583
368,240,119556,1,0,0:0:0:0:
304,152,119790,1,0,0:0:0:0:
272,160,119907,1,0,0:0:0:0:
264,184,120025,2,0,B|256:208|240:280|176:224|184:184,1,139.999980926513
