osu file format v14

[General]
AudioFilename: audio.mp3
AudioLeadIn: 0
PreviewTime: 75055
Countdown: 1
SampleSet: Normal
StackLeniency: 0.7
Mode: 0
LetterboxInBreaks: 0
CountdownOffset: 3
WidescreenStoryboard: 0

[Editor]
Bookmarks: 1930,16930,31930,46930,61932,75055,76930,91930,106930,121930
DistanceSpacing: 1
BeatDivisor: 1
GridSize: 8
TimelineZoom: 0.9500018

[Metadata]
Title:Come Alive
TitleUnicode:Come Alive
Artist:Anki & Kabuki
ArtistUnicode:Anki & Kabuki
Creator:realy0_
Version:Easy
Source:
Tags:
BeatmapID:1390560
BeatmapSetID:656311

[Difficulty]
HPDrainRate:2
CircleSize:3
OverallDifficulty:3
ApproachRate:5
SliderMultiplier:0.699999904632566
SliderTickRate:1

[Events]
//Background and Video events
0,0,"22940_anime_scenery.jpg",0,0
//Break Periods
2,47100,56830
//Storyboard Layer 0 (Background)
//Storyboard Layer 1 (Fail)
//Storyboard Layer 2 (Pass)
//Storyboard Layer 3 (Foreground)
//Storyboard Sound Samples

[TimingPoints]
1900,468.750476190476,4,1,0,50,1,0
75055,-100,4,1,0,50,0,0
76900,-100,4,1,0,50,0,1
91900,-100,4,1,0,50,0,0
106900,-100,4,1,0,50,0,1
120025,-100,4,1,0,50,0,0

[Colours]
Combo1 : 0,215,167
Combo2 : 202,0,5
Combo3 : 89,0,179
Combo4 : 0,85,170
Combo5 : 0,128,0
Combo6 : 140,0,140
Combo7 : 193,97,0

[HitObjects]
160,128,1901,6,0,B|224:64|320:96|352:160,1,209.99997138977
416,224,3775,2,0,B|416:256|320:352|224:224|224:224,1,209.99997138977
160,160,5650,5,0,0:0:0:0:
240,104,6118,1,0,0:0:0:0:
288,24,6587,1,0,0:0:0:0:
368,80,7056,2,0,B|400:144|368:208,1,69.9999904632566
416,240,7993,2,0,B|352:272|320:272|256:272|224:240,1,139.999980926513
160,256,9400,5,0,0:0:0:0:
192,176,9868,1,0,0:0:0:0:
160,96,10337,1,0,0:0:0:0:
320,32,11275,2,0,B|416:64|256:192|352:224,1,209.99997138977
288,288,13150,2,2,B|192:288|128:256|128:224|128:224|224:224|160:128|160:128|256:96|256:96,1,419.99994277954
320,96,16900,5,4,0:0:0:0:
400,128,17368,2,0,P|432:192|384:232,1,139.999980926513
384,320,18775,2,0,B|224:352|160:320|192:224,1,279.999961853026
224,144,21118,5,0,0:0:0:0:
192,64,21587,1,0,0:0:0:0:
112,48,22056,1,0,0:0:0:0:
64,112,22525,2,0,B|128:176|128:208|128:48|208:8|256:80|224:208|224:208,1,279.999961853026
288,240,24868,5,0,0:0:0:0:
368,192,25337,2,0,P|304:160|272:192,2,69.9999904632566
336,272,26743,2,0,B|272:304|208:272|208:240,1,139.999980926513
288,192,28150,1,0,0:0:0:0:
256,192,28618,12,0,31431,0:0:0:0:
256,0,31900,6,6,B|160:32|128:128|160:224|256:256|224:96|256:0|320:96|288:-32|352:96|352:160|272:240|224:192,1,489.999933242796
280,120,35650,6,6,B|383:144|447:272|351:368|223:336|223:240|152:200|176:136,1,489.999933242796
144,64,39400,5,6,0:0:0:0:
208,120,39868,2,6,B|269:166|236:246|128:248|195:249|194:249,1,139.999980926513
112,256,41275,2,6,P|16:224|16:160,1,139.999980926513
16,112,42681,2,6,P|95:86|108:106,1,69.9999904632566
152,88,43618,5,0,0:0:0:0:
202,158,44087,1,0,0:0:0:0:
168,232,44556,1,0,0:0:0:0:
344,312,45493,5,0,0:0:0:0:
312,232,45962,1,0,0:0:0:0:
360,160,46431,1,0,0:0:0:0:
448,152,46900,1,0,0:0:0:0:
256,192,58150,6,0,P|224:128|256:96,2,69.9999904632566
224,256,59556,1,0,0:0:0:0:
256,320,60025,1,0,0:0:0:0:
128,384,60962,1,0,0:0:0:0:
96,320,61900,6,14,B|160:224|96:128|96:128|192:128|288:32|288:32|384:96|480:96|480:96|384:192|448:288|448:288|288:224|160:352,1,1119.99984741211
144,288,69868,5,14,0:0:0:0:
96,200,70337,1,14,0:0:0:0:
192,160,70806,1,14,0:0:0:0:
256,80,71275,1,14,0:0:0:0:
320,160,71743,1,14,0:0:0:0:
416,200,72212,1,14,0:0:0:0:
368,288,72681,1,14,0:0:0:0:
256,192,73150,12,0,76432,0:0:0:0:
144,192,76900,5,2,0:0:0:0:
88,136,77368,1,2,0:0:0:0:
112,64,77837,1,2,0:0:0:0:
192,56,78306,2,2,P|256:160|224:192,1,139.999980926513
288,232,79712,1,2,0:0:0:0:
360,192,80181,1,2,0:0:0:0:
416,272,80650,6,2,P|448:208|416:176,3,69.9999904632566
408,128,82525,1,2,0:0:0:0:
320,96,82993,1,2,0:0:0:0:
232,128,83462,2,2,P|200:192|232:224,2,69.9999904632566
256,48,84868,5,2,0:0:0:0:
336,104,85337,1,2,0:0:0:0:
296,192,85806,2,2,B|232:256|200:224|136:192|168:128|168:128,1,209.99997138977
184,32,87681,1,2,0:0:0:0:
272,80,88150,5,2,0:0:0:0:
232,176,88618,2,2,B|249:244|281:244|313:212|313:148,1,139.999980926513
256,192,90025,12,0,91900,0:0:0:0:
64,96,92368,5,0,0:0:0:0:
133,57,92837,6,6,P|251:52|324:80,1,139.999980926513
352,96,94243,1,0,0:0:0:0:
408,160,94712,1,6,0:0:0:0:
376,240,95181,1,6,0:0:0:0:
304,296,95650,6,6,B|256:328|144:352|96:288,1,209.99997138977
72,224,97525,2,0,P|120:184|168:176,1,69.9999904632566
208,176,98462,1,6,0:0:0:0:
288,208,98931,1,6,0:0:0:0:
320,112,99400,6,6,B|256:80|192:80|160:112,2,139.999980926513
416,168,101743,6,6,B|384:232|352:232,3,69.9999904632566
288,264,103618,5,6,0:0:0:0:
232,192,104087,1,6,0:0:0:0:
144,208,104556,1,6,0:0:0:0:
104,128,105025,1,6,0:0:0:0:
336,176,105962,5,2,0:0:0:0:
272,112,106431,1,0,0:0:0:0:
224,184,106900,2,2,B|208:248|224:280|272:344|352:344,1,209.99997138977
336,248,109243,5,2,0:0:0:0:
408,184,109712,2,2,P|328:152|312:136,2,69.9999904632566
208,96,111587,5,2,0:0:0:0:
144,136,112056,1,2,0:0:0:0:
160,208,112525,1,2,0:0:0:0:
104,256,112993,1,2,0:0:0:0:
160,304,113462,2,2,P|224:256|208:224,1,69.9999904632566
320,240,114400,6,2,B|288:160|192:192|192:192,3,139.999980926513
224,272,118150,5,2,0:0:0:0:
176,208,118618,2,2,B|176:80|224:64|352:80|400:160|320:256|320:256,1,349.999952316283
256,176,121431,5,2,0:0:0:0:
240,256,121900,1,0,0:0:0:0:
