osu file format v14

[General]
AudioFilename: audio.mp3
AudioLeadIn: 0
PreviewTime: 75055
Countdown: 1
SampleSet: Normal
StackLeniency: 0.7
Mode: 0
LetterboxInBreaks: 0
CountdownOffset: 3
WidescreenStoryboard: 1

[Editor]
Bookmarks: 1930,16930,31930,46930,61932,75055,76930,91930,106930,121930
DistanceSpacing: 1.5
BeatDivisor: 4
GridSize: 8
TimelineZoom: 2.500002

[Metadata]
Title:Come Alive
TitleUnicode:Come Alive
Artist:Anki & Kabuki
ArtistUnicode:Anki & Kabuki
Creator:realy0_
Version:Alive
Source:
Tags:
BeatmapID:1390561
BeatmapSetID:656311

[Difficulty]
HPDrainRate:6.5
CircleSize:5.3
OverallDifficulty:9
ApproachRate:8
SliderMultiplier:1.10000000596047
SliderTickRate:2

[Events]
//Background and Video events
0,0,"22940_anime_scenery.jpg",0,0
//Break Periods
2,47100,57400
//Storyboard Layer 0 (Background)
//Storyboard Layer 1 (Fail)
//Storyboard Layer 2 (Pass)
//Storyboard Layer 3 (Foreground)
//Storyboard Sound Samples

[TimingPoints]
1900,468.750476190476,4,1,0,50,1,0
1930,-133.333333333333,4,1,0,50,0,0
3423,-50,4,1,0,50,0,0
75020,-66.6666666666667,4,1,0,50,0,0
76900,-66.6666666666667,4,1,0,50,0,1
90025,-133.333333333333,4,1,0,50,0,1
91900,-50,4,1,0,50,0,0
106900,-66.6666666666667,4,1,0,50,0,1
120025,-200,4,1,0,50,0,0
121900,-66.6666666666667,4,1,0,50,0,0

[Colours]
Combo1 : 0,215,167
Combo2 : 202,0,5
Combo3 : 89,0,179
Combo4 : 0,85,170
Combo5 : 0,128,0
Combo6 : 140,0,140
Combo7 : 193,97,0

[HitObjects]
208,336,1900,6,0,B|152:304|144:296|144:296|256:288|208:208,1,220.000001192094
280,256,3071,1,0,0:0:0:0:
272,64,3423,1,0,0:0:0:0:
344,104,3540,1,0,0:0:0:0:
200,160,3775,6,4,P|176:136|192:64,1,110.000000596047
208,224,4243,2,4,P|200:256|240:320,1,110.000000596047
280,232,4595,1,0,0:0:0:0:
296,144,4712,1,0,0:0:0:0:
256,72,4946,2,4,P|224:88|192:160,1,110.000000596047
88,232,5415,2,4,P|128:232|208:208,1,110.000000596047
168,184,5767,5,4,0:0:0:0:
152,160,5884,1,4,0:0:0:0:
160,128,6001,1,4,0:0:0:0:
144,96,6118,2,4,P|128:80|128:48,4,55.0000002980235
128,120,6704,5,4,0:0:0:0:
80,160,6821,1,4,0:0:0:0:
96,216,6939,1,4,0:0:0:0:
152,232,7056,1,4,0:0:0:0:
200,192,7173,1,4,0:0:0:0:
184,136,7290,1,4,0:0:0:0:
136,168,7407,1,4,0:0:0:0:
136,176,7525,6,0,P|120:216|224:336,1,220.000001192094
168,160,8228,2,4,P|152:200|256:320,1,220.000001192094
107,186,8931,2,4,B|155:158|171:158,1,55.0000002980235
128,240,9165,2,4,B|176:208|192:208,1,55.0000002980235
174,275,9400,2,4,B|288:233|168:93,1,220.000001192094
336,72,10103,5,0,0:0:0:0:
264,152,10337,1,0,0:0:0:0:
368,168,10571,1,0,0:0:0:0:
280,96,10806,1,0,0:0:0:0:
312,192,11040,1,0,0:0:0:0:
384,112,11275,1,0,0:0:0:0:
448,160,11509,6,4,P|432:192|400:208,4,55.0000002980235
448,224,12094,2,4,P|424:256|400:272,1,55.0000002980235
424,296,12329,2,4,P|400:312|360:312,1,55.0000002980235
344,328,12563,1,4,0:0:0:0:
312,344,12680,1,4,0:0:0:0:
280,328,12798,1,4,0:0:0:0:
288,296,12915,1,4,0:0:0:0:
272,264,13032,1,4,0:0:0:0:
240,256,13149,1,4,0:0:0:0:
128,248,13618,6,0,B|168:248|224:208|208:64,1,220.000001192094
384,64,14556,1,4,0:0:0:0:
360,104,14673,1,4,0:0:0:0:
376,152,14790,1,4,0:0:0:0:
80,328,15493,6,4,B|112:304|160:160|48:160,1,220.000001192094
200,40,16431,2,4,P|240:64|256:80,2,55.0000002980235
336,192,16900,6,6,P|320:224|240:240,1,110.000000596047
336,288,17368,2,4,P|376:264|400:208,1,110.000000596047
400,144,17837,2,4,P|392:88|368:32,1,110.000000596047
296,56,18306,1,2,0:0:0:0:
208,48,18540,2,0,L|232:120,1,55.0000002980235
168,112,18775,1,0,0:0:0:0:
112,96,18892,2,0,P|72:112|64:128,3,55.0000002980235
128,96,19360,5,0,0:0:0:0:
184,120,19478,1,0,0:0:0:0:
216,168,19595,1,0,0:0:0:0:
216,224,19712,1,0,0:0:0:0:
176,264,19829,1,0,0:0:0:0:
128,240,19946,1,0,0:0:0:0:
168,200,20064,1,0,0:0:0:0:
200,248,20181,1,0,0:0:0:0:
248,280,20298,1,0,0:0:0:0:
304,280,20415,1,0,0:0:0:0:
352,248,20532,1,0,0:0:0:0:
328,176,20650,6,4,P|288:160|256:120,1,82.5000004470352
240,128,20884,2,4,P|200:144|152:128,1,82.5000004470352
152,112,21118,2,4,P|176:88|168:40,1,82.5000004470352
192,32,21353,2,4,P|224:48|280:48,1,82.5000004470352
296,48,21587,2,4,P|301:77|336:128,1,82.5000004470352
352,128,21821,2,4,P|368:160|352:216,1,82.5000004470352
352,224,22056,2,4,P|320:248|264:240,1,55.0000002980235
296,272,22290,5,4,0:0:0:0:
256,160,22525,1,4,0:0:0:0:
136,128,22759,1,0,0:0:0:0:
72,224,22993,2,0,L|144:320,1,110.000000596047
184,368,23462,2,0,B|224:336|224:336|224:272,1,110.000000596047
248,176,23931,1,4,0:0:0:0:
360,88,24165,1,4,0:0:0:0:
208,96,24400,6,6,B|160:104|144:128|160:208,1,110.000000596047
240,264,24868,2,0,P|224:216|240:128,1,110.000000596047
296,152,25337,2,0,P|304:232|336:256,1,110.000000596047
368,184,25806,1,0,0:0:0:0:
408,104,26040,1,6,0:0:0:0:
344,88,26157,1,4,0:0:0:0:
360,24,26275,1,4,0:0:0:0:
424,40,26392,6,4,P|456:56|464:80,3,55.0000002980235
408,104,26860,2,4,P|392:136|368:128,3,55.0000002980235
352,184,27329,1,4,0:0:0:0:
336,208,27446,1,4,0:0:0:0:
344,232,27564,1,4,0:0:0:0:
368,216,27681,1,4,0:0:0:0:
320,192,27798,1,4,0:0:0:0:
304,128,27915,1,4,0:0:0:0:
240,120,28032,1,4,0:0:0:0:
192,160,28150,1,4,0:0:0:0:
256,192,28267,12,0,31665,0:0:0:0:
160,64,31900,6,6,P|152:136|192:176,1,110.000000596047
88,112,32368,2,4,P|64:144|64:168,1,55.0000002980235
16,120,32603,2,6,P|16:64|112:24,1,165.00000089407
152,56,33071,1,4,0:0:0:0:
232,56,33306,2,6,P|304:32|352:160,1,220.000001192094
464,16,34009,6,6,P|512:8|520:24,4,55.0000002980235
496,72,34595,1,4,0:0:0:0:
440,120,34712,1,4,0:0:0:0:
448,352,35181,6,4,P|408:320|352:320,2,110.000000596047
408,256,35884,2,4,L|448:192,1,55.0000002980235
376,192,36118,1,4,0:0:0:0:
328,224,36235,1,4,0:0:0:0:
288,176,36353,1,4,0:0:0:0:
312,120,36470,2,4,P|272:104|240:112,1,55.0000002980235
208,112,36704,2,4,P|176:128|160:144,1,55.0000002980235
128,176,36939,2,4,P|128:208|144:224,1,55.0000002980235
192,248,37173,1,4,0:0:0:0:
248,264,37290,1,4,0:0:0:0:
280,312,37407,1,4,0:0:0:0:
248,360,37525,1,4,0:0:0:0:
176,320,37759,6,6,P|128:312|112:256,1,110.000000596047
208,200,38228,1,4,0:0:0:0:
112,128,38462,1,4,0:0:0:0:
320,32,38931,5,2,0:0:0:0:
344,56,39048,1,0,0:0:0:0:
336,88,39165,1,0,0:0:0:0:
304,88,39282,1,0,0:0:0:0:
288,56,39400,1,2,0:0:0:0:
280,112,39868,5,4,0:0:0:0:
176,232,40103,1,4,0:0:0:0:
336,104,40337,1,4,0:0:0:0:
216,280,40571,1,4,0:0:0:0:
376,152,40806,1,4,0:0:0:0:
280,288,41040,1,4,0:0:0:0:
336,104,41275,1,4,0:0:0:0:
216,280,41509,1,4,0:0:0:0:
280,112,41743,1,4,0:0:0:0:
176,232,41978,1,4,0:0:0:0:
152,120,42212,1,4,0:0:0:0:
160,128,42681,6,6,P|192:160|256:176,1,110.000000596047
296,104,43150,5,2,0:0:0:0:
304,112,43267,1,0,0:0:0:0:
296,120,43384,1,0,0:0:0:0:
288,120,43501,1,0,0:0:0:0:
280,112,43618,1,0,0:0:0:0:
288,104,43735,1,0,0:0:0:0:
272,168,43853,5,2,0:0:0:0:
280,176,43970,1,0,0:0:0:0:
272,184,44087,1,0,0:0:0:0:
264,184,44204,1,0,0:0:0:0:
256,176,44321,1,0,0:0:0:0:
264,168,44438,1,0,0:0:0:0:
200,184,44556,5,2,0:0:0:0:
208,192,44673,1,0,0:0:0:0:
200,200,44790,1,0,0:0:0:0:
192,200,44907,1,0,0:0:0:0:
184,192,45024,1,0,0:0:0:0:
192,184,45141,1,0,0:0:0:0:
216,120,45493,5,0,0:0:0:0:
80,128,45727,1,0,0:0:0:0:
152,8,45961,1,0,0:0:0:0:
152,152,46196,1,0,0:0:0:0:
280,216,46431,1,0,0:0:0:0:
192,104,46665,1,0,0:0:0:0:
208,168,46782,1,0,0:0:0:0:
224,232,46900,1,0,0:0:0:0:
256,112,58150,5,6,0:0:0:0:
288,272,58384,2,0,P|320:256|328:232,1,55.0000002980235
272,312,58619,2,0,P|240:328|216:320,1,55.0000002980235
224,224,58853,2,0,P|232:264|256:280,1,55.0000002980235
264,288,59087,5,0,0:0:0:0:
384,208,59321,1,0,0:0:0:0:
288,104,59556,1,0,0:0:0:0:
176,184,59790,1,0,0:0:0:0:
432,240,60025,6,6,P|384:304|240:304,1,220.000001192094
349,246,60728,5,6,0:0:0:0:
320,240,60845,1,0,0:0:0:0:
296,232,60962,1,0,0:0:0:0:
304,208,61079,1,0,0:0:0:0:
314,180,61196,1,0,0:0:0:0:
288,176,61314,1,0,0:0:0:0:
264,184,61431,1,0,0:0:0:0:
248,208,61548,1,0,0:0:0:0:
224,208,61665,1,0,0:0:0:0:
296,48,61900,6,6,P|296:88|304:104,1,55.0000002980235
464,128,62134,2,6,P|416:128|400:144,1,55.0000002980235
304,224,62368,2,6,P|344:216|368:208,1,55.0000002980235
432,336,62603,2,6,P|392:336|368:320,1,55.0000002980235
240,320,62837,2,6,P|248:360|240:384,1,55.0000002980235
192,224,63071,2,6,P|208:192|208:160,1,55.0000002980235
336,144,63306,2,6,P|328:104|352:80,1,55.0000002980235
208,16,63540,2,6,P|192:48|192:80,1,55.0000002980235
80,96,63775,5,6,0:0:0:0:
80,96,63892,1,4,0:0:0:0:
112,144,64009,1,6,0:0:0:0:
112,144,64126,1,4,0:0:0:0:
104,200,64243,5,6,0:0:0:0:
104,200,64361,1,4,0:0:0:0:
160,192,64478,1,6,0:0:0:0:
160,192,64595,1,4,0:0:0:0:
208,224,64712,5,6,0:0:0:0:
208,224,64829,1,4,0:0:0:0:
232,176,64946,1,6,0:0:0:0:
232,176,65064,1,4,0:0:0:0:
248,128,65181,5,6,0:0:0:0:
248,128,65298,1,4,0:0:0:0:
296,160,65415,1,6,0:0:0:0:
296,160,65532,1,4,0:0:0:0:
360,152,65650,6,4,P|344:184|376:216,3,55.0000002980235
296,232,66118,2,4,P|264:216|232:216,3,55.0000002980235
256,152,66587,2,4,P|288:136|288:104,3,55.0000002980235
352,104,67056,2,4,P|362:128|388:136,3,55.0000002980235
336,176,67525,6,6,L|160:64,1,206.250001117588
161,65,67993,2,6,L|49:239,1,206.250001117588
49,238,68462,2,6,L|224:352,1,206.250001117588
221,350,68931,2,6,L|319:287,1,110.000000596047
384,312,69400,5,6,0:0:0:0:
428,270,69517,1,4,0:0:0:0:
420,210,69634,1,6,0:0:0:0:
391,156,69751,1,4,0:0:0:0:
341,120,69868,1,6,0:0:0:0:
314,174,69986,1,4,0:0:0:0:
266,211,70103,1,6,0:0:0:0:
206,218,70220,1,4,0:0:0:0:
169,169,70337,2,6,P|169:136|188:109,3,55.0000002980235
228,158,70805,5,6,0:0:0:0:
215,216,70923,1,4,0:0:0:0:
225,274,71040,1,6,0:0:0:0:
275,307,71157,1,4,0:0:0:0:
335,315,71275,2,6,B|326:356|269:381,4,55.0000002980235
282,292,71861,5,4,0:0:0:0:
225,274,71978,1,6,0:0:0:0:
197,221,72095,1,4,0:0:0:0:
202,161,72212,1,6,0:0:0:0:
261,172,72329,1,4,0:0:0:0:
312,203,72446,1,6,0:0:0:0:
370,186,72563,1,4,0:0:0:0:
389,128,72680,1,6,0:0:0:0:
366,71,72797,1,4,0:0:0:0:
311,44,72915,1,6,0:0:0:0:
248,72,73150,6,6,L|248:128,1,55.0000002980235
320,224,73384,2,6,L|320:168,1,55.0000002980235
176,128,73618,2,6,L|176:184,1,55.0000002980235
104,272,73853,2,6,L|104:328,1,55.0000002980235
240,296,74087,2,6,L|240:240,1,55.0000002980235
376,272,74321,2,6,L|376:328,1,55.0000002980235
432,216,74556,2,6,L|432:160,1,55.0000002980235
336,80,74790,2,6,L|336:24,1,55.0000002980235
256,192,75025,12,0,76900,0:0:0:0:
256,88,77134,6,14,B|200:88|176:144,1,82.5000035941606
280,216,77603,1,4,0:0:0:0:
384,112,77837,2,6,B|416:168|368:192,1,82.5000035941606
448,248,78306,1,6,0:0:0:0:
384,256,78423,1,6,0:0:0:0:
424,304,78540,1,6,0:0:0:0:
352,304,78657,1,6,0:0:0:0:
256,288,78775,6,6,B|304:248|304:16|136:80|136:80|168:240|248:192|304:168|328:128|424:160,1,660.000028753285
400,208,80767,1,4,0:0:0:0:
360,248,80884,1,4,0:0:0:0:
304,256,81001,1,4,0:0:0:0:
250,225,81118,6,4,P|275:197|274:185,1,41.2500017970803
288,134,81353,2,4,P|293:96|285:77,1,41.2500017970803
232,72,81587,1,6,0:0:0:0:
328,176,81821,1,4,0:0:0:0:
208,256,82056,2,6,P|168:272|152:264,1,41.2500017970803
168,208,82290,2,6,P|128:192|112:200,2,41.2500017970803
296,168,82759,5,6,0:0:0:0:
344,0,82993,1,6,0:0:0:0:
352,176,83228,1,6,0:0:0:0:
248,304,83462,1,6,0:0:0:0:
392,216,83696,1,6,0:0:0:0:
232,248,83931,1,6,0:0:0:0:
392,272,84165,1,6,0:0:0:0:
256,192,84400,6,4,P|208:160|160:160,2,82.5000035941606
184,156,85103,1,4,0:0:0:0:
184,156,85337,1,4,0:0:0:0:
224,224,85571,1,4,0:0:0:0:
304,272,85806,2,6,P|352:216|344:192,1,82.5000035941606
352,120,86275,1,0,0:0:0:0:
232,176,86509,5,0,0:0:0:0:
192,128,86626,1,0,0:0:0:0:
168,192,86743,1,0,0:0:0:0:
224,144,86861,1,0,0:0:0:0:
160,152,86978,1,0,0:0:0:0:
200,200,87095,1,0,0:0:0:0:
248,256,87212,6,4,P|288:240|296:232,3,41.2500017970803
352,240,87681,2,4,P|336:280|320:288,4,41.2500017970803
320,144,88384,6,4,P|288:176|248:184,1,82.5000035941606
296,240,88736,1,0,0:0:0:0:
368,192,88853,2,2,P|392:160|392:112,1,82.5000035941606
352,48,89204,1,0,0:0:0:0:
280,24,89321,1,0,0:0:0:0:
392,112,89556,2,2,P|400:176|384:224,1,82.5000035941606
256,192,89966,12,0,91665,0:0:0:0:
256,192,91900,6,6,B|128:208|192:40|192:40|256:152|376:48|376:48|488:144|408:232|408:232|320:184|248:344|248:344|184:216|72:248|72:248|-56:144|24:64|24:64|120:80|128:232|128:232|344:224|264:104|264:104,1,1760.00000953675
224,136,95884,6,4,P|168:128|96:192,1,110.000000596047
136,240,96353,1,4,0:0:0:0:
224,208,96587,1,4,0:0:0:0:
208,296,96821,1,4,0:0:0:0:
304,264,97056,2,6,P|368:216|392:160,2,110.000000596047
382,191,97759,5,4,0:0:0:0:
304,264,97993,1,0,0:0:0:0:
192,272,98228,1,0,0:0:0:0:
96,208,98462,1,4,0:0:0:0:
280,336,98931,1,4,0:0:0:0:
216,248,99165,5,4,0:0:0:0:
176,288,99282,1,4,0:0:0:0:
136,328,99400,1,4,0:0:0:0:
256,200,99868,5,4,0:0:0:0:
296,136,99986,1,4,0:0:0:0:
312,208,100103,1,4,0:0:0:0:
256,160,100220,1,4,0:0:0:0:
328,168,100337,1,4,0:0:0:0:
288,176,100571,5,0,0:0:0:0:
384,80,100806,1,6,0:0:0:0:
448,72,100923,1,0,0:0:0:0:
488,120,101040,1,0,0:0:0:0:
464,176,101157,1,0,0:0:0:0:
400,192,101275,6,0,P|363:195|348:208,2,55.0000002980235
339,272,101626,2,0,P|319:269|288:248,1,55.0000002980235
192,176,101978,1,0,0:0:0:0:
280,88,102095,1,0,0:0:0:0:
219,93,102212,2,2,P|218:114|240:144,1,55.0000002980235
288,176,102446,2,2,P|312:184|344:168,1,55.0000002980235,0|0,0:0|0:0,0:0:0:0:
312,120,102681,2,4,B|232:96|192:192|216:232|296:248|336:232,1,220.000001192094
320,200,103384,5,4,0:0:0:0:
160,248,103619,1,4,0:0:0:0:
200,88,103853,1,4,0:0:0:0:
274,234,104087,1,4,0:0:0:0:
106,230,104322,1,4,0:0:0:0:
237,130,104556,1,4,0:0:0:0:
257,293,104790,1,4,0:0:0:0:
256,192,105025,12,0,106900,0:0:0:0:
352,296,107134,5,4,0:0:0:0:
384,240,107251,1,4,0:0:0:0:
344,192,107368,1,4,0:0:0:0:
448,224,107603,2,0,B|472:168|464:128|464:120,1,82.5000035941606
456,72,107954,1,0,0:0:0:0:
216,128,108306,6,6,P|176:144|152:192,1,82.5000035941606
288,320,108775,1,0,0:0:0:0:
384,184,109009,1,0,0:0:0:0:
224,224,109243,1,0,0:0:0:0:
384,272,109478,1,0,0:0:0:0:
312,128,109712,1,0,0:0:0:0:
296,192,109829,1,0,0:0:0:0:
280,256,109946,1,0,0:0:0:0:
344,224,110064,1,0,0:0:0:0:
392,184,110181,1,0,0:0:0:0:
240,136,110415,6,4,P|240:88|256:80,2,41.2500017970803
56,56,110884,2,6,L|56:104,1,41.2500017970803
56,208,111119,2,6,L|56:160,1,41.2500017970803
128,264,111353,2,6,L|128:312,1,41.2500017970803
160,192,111587,2,6,L|160:144,1,41.2500017970803
240,120,112056,6,6,L|288:120,2,41.2500017970803
336,160,112525,1,4,0:0:0:0:
376,240,112759,2,0,P|352:272|320:280,1,41.2500017970803
312,224,112993,2,0,P|248:232|216:208,1,82.5000035941606
224,88,113462,5,4,0:0:0:0:
240,72,113579,1,4,0:0:0:0:
264,64,113696,1,4,0:0:0:0:
288,72,113814,1,4,0:0:0:0:
360,40,113931,5,4,0:0:0:0:
376,64,114048,1,4,0:0:0:0:
376,96,114165,1,4,0:0:0:0:
352,120,114282,1,4,0:0:0:0:
320,128,114400,6,6,P|280:136|248:168,1,82.5000035941606
328,208,114751,1,0,0:0:0:0:
296,80,114868,2,6,P|256:88|224:120,1,82.5000035941606
360,88,115220,1,0,0:0:0:0:
384,216,115337,2,6,P|424:208|456:176,1,82.5000035941606
384,136,115689,1,0,0:0:0:0:
408,264,115806,2,6,P|448:256|480:224,2,82.5000035941606
296,248,116509,1,0,0:0:0:0:
332,322,116743,6,4,L|294:244,1,82.5000035941606
368,160,117212,2,4,P|336:120|296:120,1,82.5000035941606
200,72,117681,2,0,P|208:24|256:0,1,82.5000035941606
256,56,118150,5,4,0:0:0:0:
336,152,118384,1,4,0:0:0:0:
224,208,118618,1,4,0:0:0:0:
144,112,118853,1,6,0:0:0:0:
216,16,119087,1,6,0:0:0:0:
304,96,119321,1,4,0:0:0:0:
208,160,119556,1,4,0:0:0:0:
128,56,119790,1,2,0:0:0:0:
224,88,120025,1,2,0:0:0:0:
256,192,120142,12,0,121900,0:0:0:0:
