osu file format v14

[General]
AudioFilename: audio.mp3
AudioLeadIn: 0
PreviewTime: 28386
Countdown: 0
SampleSet: Soft
StackLeniency: 0.7
Mode: 0
LetterboxInBreaks: 0
WidescreenStoryboard: 1

[Editor]
DistanceSpacing: 1.2
BeatDivisor: 2
GridSize: 4
TimelineZoom: 1

[Metadata]
Title:Eu estou aqui (TV Size)
TitleUnicode:Eu estou aqui (TV Size)
Artist:Anjos
ArtistUnicode:Anjos
Creator:Rad-
Version:Insane
Source:Vinganca
Tags:portuguese portugal soap opera basensorex shinji
BeatmapID:1829313
BeatmapSetID:875130

[Difficulty]
HPDrainRate:6
CircleSize:3.8
OverallDifficulty:8
ApproachRate:9
SliderMultiplier:1.6
SliderTickRate:1

[Events]
//Background and Video events
0,0,"Konachan.com - 259846 building city night nobody nodata original snow translation_request winter.jpg",0,0
Video,0,"low quality.mp4"
//Break Periods
//Storyboard Layer 0 (Background)
//Storyboard Layer 1 (Fail)
//Storyboard Layer 2 (Pass)
//Storyboard Layer 3 (Foreground)
//Storyboard Sound Samples

[TimingPoints]
6246,357.142857142857,4,2,1,70,1,0
27674,-200,4,2,1,70,0,0
28924,-200,4,2,1,30,0,0
29103,-90.9090909090909,4,2,1,70,0,1
54817,-100,4,2,1,70,0,0
54906,-100,4,2,1,25,0,0

[HitObjects]
292,344,14460,6,0,P|280:264|260:244,1,80
232,184,14817,5,0,0:0:0:0:
328,196,14995,1,0,0:0:0:0:
408,144,15174,2,0,P|436:70|425:42,1,80
340,76,15531,2,0,P|308:4|280:-8,1,80
244,76,15888,1,0,0:0:0:0:
204,164,16067,1,0,0:0:0:0:
256,244,16245,6,0,B|290:277|290:277|343:294,1,80
416,304,16603,1,0,0:0:0:0:
348,372,16781,1,0,0:0:0:0:
395,219,16960,6,0,B|429:185|429:185|460:176,1,80
360,72,17317,2,0,B|345:100|345:100|344:148,1,80
316,240,17674,5,0,0:0:0:0:
144,24,18031,2,0,P|69:51|33:122,1,160
128,288,18567,1,0,0:0:0:0:
51,228,18745,2,0,P|91:196|129:188,1,80
216,192,19103,6,0,P|253:204|283:230,1,80
344,304,19460,2,0,P|284:356|203:352,1,160
128,300,19995,1,0,0:0:0:0:
124,204,20174,1,0,0:0:0:0:
40,156,20353,1,0,0:0:0:0:
24,60,20531,6,0,P|58:21|94:7,1,80
160,68,20888,2,0,P|233:96|305:67,1,160
305,67,21603,1,0,0:0:0:0:
364,140,21781,1,0,0:0:0:0:
424,216,21960,6,0,L|424:296,1,80
340,340,22317,2,0,L|340:260,1,80
328,222,22585,1,0,0:0:0:0:
308,188,22674,2,0,P|280:160|224:144,1,80
132,196,23031,2,0,P|95:181|66:153,1,80
52,116,23299,1,0,0:0:0:0:
68,80,23388,6,0,P|96:51|133:37,1,80
228,36,23745,2,0,P|267:36|304:51,1,80
369,101,24103,1,0,0:0:0:0:
489,193,24281,1,0,0:0:0:0:
352,180,24460,1,0,0:0:0:0:
472,272,24638,5,0,0:0:0:0:
472,272,24817,1,0,0:0:0:0:
408,344,24995,1,0,0:0:0:0:
408,344,25174,2,0,P|376:368|337:372,1,80
232,252,25531,2,0,P|271:256|302:280,1,80
144,300,25888,2,0,P|120:268|115:229,1,80,0|0,0:0|3:0,0:0:0:0:
136,136,26245,6,0,L|156:96,4,40
236,112,26781,2,0,L|265:78,4,40
340,96,27317,2,0,L|377:71,2,40
448,120,27674,6,0,B|473:158|429:184|429:184|454:228|411:249|411:249|436:297|393:319|393:319|408:352|400:360,1,280
324,380,29103,6,0,P|264:340|248:220,1,176.000005371094
220,136,29638,2,0,P|302:155|349:228,1,176.000005371094
240,243,30174,1,0,0:0:0:0:
220,136,30353,1,0,0:0:0:0:
220,136,30531,6,0,B|180:96|180:96|115:93|88:20,1,176.000005371094
12,96,31067,1,0,0:0:0:0:
8,200,31245,2,0,L|96:144,1,88.000002685547
180,280,31603,2,0,L|84:248,1,88.000002685547
188,380,31960,6,0,P|248:340|264:220,1,176.000005371094
