osu file format v14

[General]
AudioFilename: audio.mp3
AudioLeadIn: 0
PreviewTime: 28426
Countdown: 0
SampleSet: Soft
StackLeniency: 0.6
Mode: 0
LetterboxInBreaks: 0
WidescreenStoryboard: 1

[Editor]
DistanceSpacing: 1
BeatDivisor: 4
GridSize: 16
TimelineZoom: 1.5

[Metadata]
Title:Eu estou aqui (TV Size)
TitleUnicode:Eu estou aqui (TV Size)
Artist:Anjos
ArtistUnicode:Anjos
Creator:Basensorex
Version:Normal
Source:Vingança
Tags:portuguese portugal soap opera revenge love amor male vocalist Sotarks My_Angel_ram opening op cut short ver version pop vinganca telenovela my angel ram
BeatmapID:2303713
BeatmapSetID:958558

[Difficulty]
HPDrainRate:4
CircleSize:3
OverallDifficulty:4
ApproachRate:5.2
SliderMultiplier:1
SliderTickRate:1

[Events]
//Background and Video events
0,0,"bg.jpg",0,0
//Break Periods
//Storyboard Layer 0 (Background)
//Storyboard Layer 1 (Fail)
//Storyboard Layer 2 (Pass)
//Storyboard Layer 3 (Foreground)
//Storyboard Layer 4 (Overlay)
//Storyboard Sound Samples

[TimingPoints]
6373,357.142857142857,4,2,22,50,1,0
29230,-83.3333333333333,4,2,22,75,0,1
54944,-100,4,2,22,50,0,0

[Colours]
Combo1 : 0,0,160
Combo2 : 128,128,0
Combo3 : 196,0,0

[HitObjects]
11,79,6373,6,0,P|65:63|125:81,1,100,6|8,1:2|0:2,0:0:0:0:
181,138,7087,1,0,3:2:0:0:
271,95,7444,1,8,0:2:0:0:
329,177,7801,2,0,L|323:288,1,100,0|8,1:2|0:2,0:0:0:0:
252,347,8515,2,0,L|140:341,1,100,2|10,3:2|0:2,0:0:0:0:
102,337,9051,1,2,1:2:0:0:
102,337,9230,6,0,P|86:282|104:222,1,100,0|8,1:2|0:2,0:0:0:0:
140,152,9944,1,2,3:2:0:0:
227,199,10301,2,0,P|255:202|286:197,1,50,8|0,0:2|1:2,0:0:0:0:
311,235,10658,2,0,B|375:219|407:251|407:251|439:283|503:267,1,200,0|2,1:2|3:2,0:0:0:0:
505,167,11730,2,0,P|501:139|504:107,1,50,10|2,0:2|1:2,0:0:0:0:
480,74,12087,6,0,P|426:58|366:76,1,100,2|8,1:2|0:2,0:0:0:0:
290,100,12801,1,0,3:2:0:0:
194,69,13158,1,8,0:2:0:0:
124,140,13515,2,0,L|130:240,1,100,2|10,1:2|0:2,0:0:0:0:
190,319,14230,2,0,P|245:330|303:307,1,100,2|10,3:2|0:2,0:0:0:0:
328,290,14765,1,0,1:2:0:0:
328,290,14944,6,0,L|322:190,1,100,2|8,1:2|0:2,0:0:0:0:
378,107,15658,1,2,3:2:0:0:
311,32,16015,1,8,0:2:0:0:
225,83,16372,2,0,B|161:99|129:67|129:67|97:35|33:51,1,200,0|2,1:2|3:2,0:0:0:0:
5,145,17444,2,0,L|10:208,1,50,10|2,0:2|1:2,0:0:0:0:
32,238,17801,6,0,P|78:253|127:245,1,100,6|8,1:2|0:2,0:0:0:0:
224,219,18515,1,0,3:2:0:0:
317,267,18872,1,8,0:2:0:0:
317,267,19051,2,0,P|334:190|314:111,1,150,2|8,1:2|0:2,0:0:0:0:
385,46,19944,2,0,P|430:32|476:40,2,75,2|2|2,3:2|0:2|1:2,0:0:0:0:
339,25,20658,6,0,L|236:31,1,100,2|8,1:2|0:2,0:0:0:0:
140,49,21372,1,0,3:2:0:0:
151,153,21730,1,8,0:2:0:0:
151,153,21908,2,0,L|308:144,1,150,2|8,1:2|0:2,0:0:0:0:
400,144,22801,1,2,3:2:0:0:
467,217,23158,2,0,P|470:245|465:276,1,50,10|2,0:2|3:2,0:0:0:0:
454,314,23515,6,0,P|407:330|358:322,1,100,2|8,1:2|0:2,0:0:0:0:
273,270,24230,1,0,3:2:0:0:
192,329,24587,2,0,P|164:332|133:327,1,50,8|2,0:2|1:2,0:0:0:0:
99,306,24944,2,0,L|105:206,1,100,2|8,1:2|0:2,0:0:0:0:
158,121,25658,1,0,3:2:0:0:
248,166,26015,1,8,0:2:0:0:
334,114,26372,6,0,L|439:124,1,100,10|0,1:2|1:2,0:0:0:0:
482,138,26908,2,0,P|489:188|473:234,1,100,10|0,0:2|1:2,0:0:0:0:
433,264,27444,2,0,L|369:259,1,50,8|0,0:2|1:2,0:0:0:0:
335,249,27801,5,12,0:2:0:0:
23,41,29230,6,0,B|99:21|138:60|138:60|176:98|253:79,1,239.999992675781,6|0,1:2|3:2,0:0:0:0:
347,36,30301,1,8,0:2:0:0:
417,117,30658,2,0,L|406:238,1,119.999996337891,2|8,1:2|0:2,0:0:0:0:
468,324,31372,2,0,P|411:343|350:333,1,119.999996337891,2|10,3:2|0:2,0:0:0:0:
305,308,31908,1,2,1:2:0:0:
305,308,32087,6,0,L|184:319,1,119.999996337891,6|8,1:2|0:2,0:0:0:0:
139,291,32622,2,0,P|120:234|130:173,1,119.999996337891,2|0,1:2|1:2,0:0:0:0:
143,123,33158,1,8,0:2:0:0:
236,69,33515,1,2,1:2:0:0:
324,130,33872,2,0,L|402:122,1,59.9999981689454,8|2,0:2|1:2,0:0:0:0:
438,121,34230,1,10,0:2:0:0:
494,213,34587,2,0,P|497:241|492:272,1,59.9999981689454,8|10,0:2|0:2,0:0:0:0:
468,320,34944,6,0,B|377:313|377:313|341:270|341:270|246:261,1,239.999992675781,4|0,1:2|3:2,0:0:0:0:
150,306,36015,1,10,0:2:0:0:
57,249,36372,2,0,P|47:190|66:134,1,119.999996337891,2|8,1:2|0:2,0:0:0:0:
157,75,37087,2,0,L|278:86,1,119.999996337891,2|10,3:2|0:2,0:0:0:0:
324,120,37622,1,2,1:2:0:0:
324,120,37801,6,0,L|445:109,1,119.999996337891,2|8,1:2|0:2,0:0:0:0:
487,141,38337,2,0,P|506:196|498:255,1,119.999996337891,2|0,1:2|1:2,0:0:0:0:
476,305,38872,1,8,0:2:0:0:
378,351,39230,1,0,1:2:0:0:
277,311,39587,2,0,L|198:305,1,59.9999981689454,8|8,0:2|3:0,0:0:0:0:
163,301,39944,1,14,0:2:0:0:
69,246,40301,2,0,P|66:218|71:187,1,59.9999981689454,8|10,1:2|1:2,0:0:0:0:
83,134,40658,6,0,B|159:115|198:154|198:154|236:192|313:173,1,239.999992675781,6|0,1:2|3:2,0:0:0:0:
406,220,41730,2,0,L|411:298,1,59.9999981689454,10|0,0:2|1:2,0:0:0:0:
403,333,42087,2,0,P|348:357|289:354,1,119.999996337891,2|8,1:2|0:2,0:0:0:0:
185,322,42801,2,0,L|196:201,1,119.999996337891,2|10,3:2|0:2,0:0:0:0:
205,152,43337,1,2,1:2:0:0:
205,152,43515,6,0,B|136:158|136:158|104:130|104:130|31:137,2,179.999994506836,6|2|8,1:2|1:2|0:2,0:0:0:0:
259,245,44944,1,2,1:2:0:0:
355,196,45301,2,0,L|433:190,1,59.9999981689454,8|2,0:2|1:2,0:0:0:0:
468,186,45658,1,8,0:2:0:0:
497,82,46015,2,0,P|500:54|495:23,1,59.9999981689454,10|8,0:2|0:2,0:0:0:0:
443,6,46372,5,6,1:2:0:0:
369,85,46730,1,8,0:2:0:0:
369,85,46908,2,0,L|248:75,1,119.999996337891,0|0,1:2|1:2,0:0:0:0:
195,67,47444,1,8,0:2:0:0:
103,124,47801,5,6,1:2:0:0:
97,235,48158,1,8,0:2:0:0:
97,235,48337,2,0,P|152:255|211:246,1,119.999996337891,0|0,1:2|0:0,0:0:0:0:
260,223,48872,2,0,L|338:228,1,59.9999981689454,10|0,0:2|1:2,0:0:0:0:
373,232,49230,5,6,1:2:0:0:
462,301,49587,1,8,0:2:0:0:
462,301,49765,2,0,P|482:245|473:186,1,119.999996337891,0|0,1:2|1:2,0:0:0:0:
443,140,50301,1,8,0:2:0:0:
350,85,50658,2,0,B|291:67|291:67|222:93,2,119.999996337891,8|8|8,0:2|0:2|3:0,0:0:0:0:
443,140,51730,2,0,L|437:218,1,59.9999981689454,6|4,3:0|3:0,0:0:0:0:
431,253,52087,6,0,B|368:270|368:270|302:251,1,119.999996337891,14|8,1:2|0:2,0:0:0:0:
224,313,52801,2,0,L|144:306,1,59.9999981689454,8|0,0:2|1:2,0:0:0:0:
110,303,53158,1,8,0:2:0:0:
31,228,53515,6,0,B|14:165|14:165|33:99,1,119.999996337891,8|8,0:2|0:2,0:0:0:0:
115,47,54230,2,0,L|194:53,1,59.9999981689454,8|0,0:2|1:2,0:0:0:0:
229,56,54587,1,10,0:2:0:0:
288,136,54944,5,12,0:2:0:0:
