osu file format v14

[General]
AudioFilename: audio.mp3
AudioLeadIn: 0
PreviewTime: 28426
Countdown: 0
SampleSet: Soft
StackLeniency: 0.6
Mode: 0
LetterboxInBreaks: 0
WidescreenStoryboard: 1

[Editor]
DistanceSpacing: 1.6
BeatDivisor: 4
GridSize: 16
TimelineZoom: 1.5

[Metadata]
Title:Eu estou aqui (TV Size)
TitleUnicode:Eu estou aqui (TV Size)
Artist:Anjos
ArtistUnicode:Anjos
Creator:Basensorex
Version:Dificil
Source:Vingança
Tags:portuguese portugal soap opera revenge love amor male vocalist Sotarks My_Angel_ram opening op cut short ver version pop vinganca telenovela my angel ram
BeatmapID:2316841
BeatmapSetID:958558

[Difficulty]
HPDrainRate:4.6
CircleSize:3.5
OverallDifficulty:6.2
ApproachRate:7.6
SliderMultiplier:1.2
SliderTickRate:1

[Events]
//Background and Video events
0,0,"bg.jpg",0,0
//Break Periods
//Storyboard Layer 0 (Background)
//Storyboard Layer 1 (Fail)
//Storyboard Layer 2 (Pass)
//Storyboard Layer 3 (Foreground)
//Storyboard Layer 4 (Overlay)
//Storyboard Sound Samples

[TimingPoints]
6373,357.142857142857,4,2,22,50,1,0
27714,-125,4,2,22,50,0,0
29230,-83.3333333333333,4,2,22,75,0,1
54944,-100,4,2,22,50,0,0

[Colours]
Combo1 : 0,0,160
Combo2 : 128,128,0
Combo3 : 196,0,0

[HitObjects]
53,360,6373,6,0,B|60:289|24:320|35:237,1,120,6|8,1:2|0:2,0:0:0:0:
88,74,7087,1,0,3:2:0:0:
88,74,7265,1,2,1:2:0:0:
153,143,7444,1,8,0:2:0:0:
153,143,7623,1,2,1:2:0:0:
228,84,7801,6,0,P|292:57|360:80,1,120,0|8,1:2|0:2,0:0:0:0:
502,142,8515,2,0,L|495:221,1,60,2|0,3:2|0:2,0:0:0:0:
413,238,8873,2,0,L|419:317,1,60,10|2,0:2|1:2,0:0:0:0:
340,355,9230,6,0,B|265:351|315:317|223:317,1,120,0|8,1:2|0:2,0:0:0:0:
56,348,9944,1,2,3:2:0:0:
56,348,10123,1,0,0:2:0:0:
17,272,10301,1,8,0:2:0:0:
17,272,10480,1,0,1:2:0:0:
70,192,10658,6,0,L|147:199,1,60,0|0,1:2|3:2,0:0:0:0:
190,263,11015,2,0,L|249:259,1,60,8|0,0:2|1:2,0:0:0:0:
328,303,11373,2,0,P|336:271|330:225,1,60,2|0,3:2|0:2,0:0:0:0:
401,183,11730,2,0,P|393:151|399:105,1,60,10|2,0:2|1:2,0:0:0:0:
459,53,12087,6,0,P|394:26|327:49,1,120,2|8,1:2|0:2,0:0:0:0:
170,103,12801,1,0,3:2:0:0:
170,103,12980,1,2,0:2:0:0:
80,83,13158,1,8,0:2:0:0:
80,83,13337,1,2,1:2:0:0:
24,161,13515,6,0,B|16:232|52:201|41:284,1,120,2|10,1:2|0:2,0:0:0:0:
198,366,14230,2,0,P|230:358|276:364,1,60,2|0,3:2|0:2,0:0:0:0:
318,293,14587,2,0,P|350:301|396:295,1,60,10|0,0:2|1:2,0:0:0:0:
462,343,14944,6,0,P|471:274|432:215,1,120,2|8,1:2|0:2,0:0:0:0:
380,70,15658,1,2,3:2:0:0:
380,70,15837,1,0,0:2:0:0:
298,101,16015,1,8,0:2:0:0:
298,101,16194,1,0,1:2:0:0:
212,57,16372,6,0,L|132:64,1,60,0|0,1:2|3:2,0:0:0:0:
71,102,16730,2,0,P|63:134|69:180,1,60,8|0,0:2|1:2,0:0:0:0:
6,230,17087,2,0,P|14:262|8:308,1,60,2|0,3:2|0:2,0:0:0:0:
74,355,17444,2,0,L|154:348,1,60,10|2,0:2|1:2,0:0:0:0:
219,306,17801,6,0,B|214:258|214:258|227:224|227:224|223:177,1,120,6|8,1:2|0:2,0:0:0:0:
300,27,18515,1,0,3:2:0:0:
300,27,18694,1,0,0:2:0:0:
383,72,18872,1,8,0:2:0:0:
383,72,19051,1,2,1:2:0:0:
474,43,19230,6,0,L|463:175,1,120,0|8,1:2|0:2,0:0:0:0:
413,335,19944,2,0,P|455:346|499:335,2,90,2|2|2,3:2|0:2|1:2,0:0:0:0:
323,298,20658,6,0,B|275:303|275:303|241:290|241:290|194:294,1,120,2|8,1:2|0:2,0:0:0:0:
30,318,21372,1,0,3:2:0:0:
30,318,21551,1,0,0:2:0:0:
58,234,21730,1,8,0:2:0:0:
58,234,21908,1,2,1:2:0:0:
10,150,22087,6,0,L|17:73,1,60,0|0,1:2|0:2,0:0:0:0:
82,30,22444,2,0,L|142:35,1,60,8|2,0:2|3:2,0:0:0:0:
160,38,22712,1,2,3:2:0:0:
177,40,22801,2,0,P|182:72|172:117,1,60,2|0,3:2|1:2,0:0:0:0:
226,175,23158,2,0,P|218:207|224:253,1,60,10|2,0:2|3:2,0:0:0:0:
223,257,23426,1,2,3:2:0:0:
229,278,23515,6,0,L|352:288,1,120,2|8,1:2|0:2,0:0:0:0:
495,181,24230,1,0,3:2:0:0:
495,181,24408,1,0,0:2:0:0:
451,108,24587,1,8,0:2:0:0:
451,108,24765,1,2,1:2:0:0:
484,17,24944,6,0,B|437:12|437:12|403:25|403:25|356:21,1,120,2|8,1:2|0:2,0:0:0:0:
186,26,25658,2,0,L|193:106,1,60,0|2,3:2|0:2,0:0:0:0:
247,156,26015,2,0,L|240:236,1,60,8|2,0:2|1:2,0:0:0:0:
252,305,26372,6,0,P|225:304|201:294,4,30,10|0|0|0|0,1:2|1:2|1:2|1:2|1:2,0:0:0:0:
327,255,26908,2,0,P|342:254|357:256,4,30,10|0|0|0|0,0:2|1:2|1:2|1:2|1:2,0:0:0:0:
346,343,27444,1,8,0:2:0:0:
361,353,27533,1,0,1:2:0:0:
377,360,27622,1,0,1:2:0:0:
394,365,27712,1,0,1:2:0:0:
411,366,27801,6,0,B|437:334|467:322|467:322|459:279|459:279|486:205|456:145|456:145|410:151|386:195,1,336,12|2,0:2|0:2,0:0:0:0:
303,266,29230,6,0,P|238:262|208:278,1,71.9999978027344,6|0,1:2|0:2,0:0:0:0:
140,217,29587,1,8,0:2:0:0:
140,217,29765,2,0,B|149:127|104:167|118:61,1,143.999995605469,0|0,1:2|1:2,0:0:0:0:
201,10,30301,1,8,0:2:0:0:
201,10,30480,1,0,1:2:0:0:
294,79,30658,6,0,L|389:87,1,71.9999978027344,2|0,1:2|1:2,0:0:0:0:
455,154,31015,1,8,0:2:0:0:
455,154,31194,2,0,B|478:199|478:199|464:319,1,143.999995605469,0|0,1:2|0:0,0:0:0:0:
367,326,31730,1,10,0:2:0:0:
367,326,31908,1,2,1:2:0:0:
259,284,32087,6,0,B|161:288|226:334|105:333,1,143.999995605469,6|8,1:2|0:2,0:0:0:0:
30,288,32622,2,0,P|8:238|57:151,1,143.999995605469,2|0,1:2|1:2,0:0:0:0:
142,115,33158,1,8,0:2:0:0:
142,115,33337,1,0,1:2:0:0:
216,192,33515,6,0,P|251:198|286:190,1,71.9999978027344,2|0,1:2|1:2,0:0:0:0:
370,122,33872,2,0,P|405:115|440:123,1,71.9999978027344,8|2,0:2|1:2,0:0:0:0:
502,212,34230,2,0,L|466:215,3,35.9999989013672,10|8|8|10,0:2|0:2|0:2|0:2,0:0:0:0:
435,235,34587,2,0,L|399:232,3,35.9999989013672,8|8|10|8,0:2|0:2|0:2|0:2,0:0:0:0:
372,256,34944,6,0,L|277:264,1,71.9999978027344,4|2,1:2|1:2,0:0:0:0:
231,346,35301,1,8,0:2:0:0:
231,346,35480,2,0,B|186:323|186:323|66:337,1,143.999995605469,0|0,1:2|0:0,0:0:0:0:
15,267,36015,1,10,0:2:0:0:
15,267,36194,1,0,1:2:0:0:
85,176,36372,6,0,P|94:112|80:80,1,71.9999978027344,2|0,1:2|1:2,0:0:0:0:
179,40,36730,1,8,0:2:0:0:
179,40,36908,2,0,B|277:44|212:90|333:89,1,143.999995605469,0|0,1:2|1:2,0:0:0:0:
418,94,37444,1,10,0:2:0:0:
418,94,37622,1,2,1:2:0:0:
488,186,37801,6,0,B|483:238|483:238|454:262|454:262|447:341,1,143.999995605469,2|8,1:2|0:2,0:0:0:0:
348,350,38337,2,0,B|307:319|307:319|187:312,1,143.999995605469,2|0,1:2|1:2,0:0:0:0:
106,314,38872,1,8,0:2:0:0:
106,314,39051,1,0,1:2:0:0:
44,225,39230,6,0,L|52:130,1,71.9999978027344,0|4,1:2|0:3,0:0:0:0:
59,138,39497,1,4,0:3:0:0:
75,130,39587,2,0,P|139:121|171:135,1,71.9999978027344,8|8,0:2|3:0,0:0:0:0:
240,172,39944,1,14,0:2:0:0:
202,272,40122,5,8,0:2:0:0:
181,279,40212,1,10,0:2:0:0:
161,287,40301,2,0,L|109:282,2,35.9999989013672,8|8|10,1:2|1:2|1:2,0:0:0:0:
243,369,40658,6,0,P|307:360|339:374,1,71.9999978027344,6|0,1:2|1:2,0:0:0:0:
414,319,41015,1,8,0:2:0:0:
414,319,41194,2,0,B|423:229|378:269|392:163,1,143.999995605469,0|0,1:2|0:0,0:0:0:0:
399,74,41730,1,10,0:2:0:0:
399,74,41908,1,0,1:2:0:0:
300,15,42087,6,0,L|205:23,1,71.9999978027344,2|0,1:2|1:2,0:0:0:0:
144,87,42444,1,8,0:2:0:0:
144,87,42622,2,0,B|121:132|121:132|135:252,1,143.999995605469,0|0,1:2|1:2,0:0:0:0:
158,335,43158,1,10,0:2:0:0:
158,335,43337,1,2,1:2:0:0:
270,311,43515,6,0,B|368:318|303:364|424:363,1,143.999995605469,6|8,1:2|0:2,0:0:0:0:
478,288,44051,2,0,P|500:238|451:151,1,143.999995605469,2|0,1:2|1:2,0:0:0:0:
375,110,44587,1,8,0:2:0:0:
375,110,44765,1,2,1:2:0:0:
304,193,44944,6,0,P|269:199|234:191,1,71.9999978027344,2|0,1:2|1:2,0:0:0:0:
150,123,45301,2,0,P|115:116|80:124,1,71.9999978027344,8|2,0:2|1:2,0:0:0:0:
29,219,45658,2,0,L|65:222,3,35.9999989013672,8|8|8|8,0:2|0:2|0:2|0:0,0:0:0:0:
86,251,46015,2,0,L|122:248,3,35.9999989013672,10|8|8|8,0:2|0:2|0:2|0:2,0:0:0:0:
144,276,46372,6,0,L|287:288,1,143.999995605469,6|8,1:2|0:2,0:0:0:0:
352,201,46908,2,0,L|208:188,1,143.999995605469,0|0,1:2|1:2,0:0:0:0:
105,173,47444,1,8,0:2:0:0:
105,173,47622,1,0,1:2:0:0:
174,80,47801,6,0,P|249:58|319:99,1,143.999995605469,6|8,1:2|0:2,0:0:0:0:
347,184,48337,2,0,P|422:206|492:165,1,143.999995605469,0|0,1:2|0:0,0:0:0:0:
511,80,48872,1,10,0:2:0:0:
511,80,49051,1,0,1:2:0:0:
413,18,49230,6,0,B|315:22|380:68|259:67,1,143.999995605469,6|8,1:2|0:2,0:0:0:0:
175,51,49765,2,0,B|152:96|152:96|166:216,1,143.999995605469,0|0,1:2|1:2,0:0:0:0:
197,297,50301,1,8,0:2:0:0:
197,297,50480,1,0,1:2:0:0:
283,233,50658,5,8,0:2:0:0:
304,232,50747,1,8,0:2:0:0:
325,234,50837,1,8,0:2:0:0:
345,240,50926,1,8,0:0:0:0:
365,245,51015,2,0,L|360:193,3,35.9999989013672,8|8|8|8,0:2|0:2|0:2|0:2,0:0:0:0:
389,185,51372,2,0,L|394:133,3,35.9999989013672,8|8|8|8,3:0|3:0|3:0|3:0,0:0:0:0:
360,131,51730,2,0,P|325:124|290:132,1,71.9999978027344,6|4,3:0|3:0,0:0:0:0:
189,188,52087,6,0,B|154:195|154:195|119:187,1,71.9999978027344,14|0,1:2|1:2,0:0:0:0:
121,71,52444,2,0,B|156:64|156:64|191:72,1,71.9999978027344,8|0,0:2|1:2,0:0:0:0:
294,136,52801,1,8,0:2:0:0:
294,136,52980,1,0,1:2:0:0:
386,68,53158,2,0,B|421:61|421:61|456:69,1,71.9999978027344,8|0,0:2|1:2,0:0:0:0:
509,171,53515,6,0,L|500:266,1,71.9999978027344,8|0,0:2|1:2,0:0:0:0:
410,312,53872,2,0,L|314:303,1,71.9999978027344,8|0,0:2|1:2,0:0:0:0:
260,226,54230,1,8,0:2:0:0:
260,226,54408,1,0,1:2:0:0:
174,303,54587,2,0,L|102:309,1,71.9999978027344,10|0,0:2|1:2,0:0:0:0:
22,232,54944,5,12,0:2:0:0:
