osu file format v14

[General]
AudioFilename: audio.mp3
AudioLeadIn: 0
PreviewTime: 28426
Countdown: 0
SampleSet: Soft
StackLeniency: 0.6
Mode: 0
LetterboxInBreaks: 0
WidescreenStoryboard: 0

[Editor]
DistanceSpacing: 1.5
BeatDivisor: 4
GridSize: 16
TimelineZoom: 1.5

[Metadata]
Title:Eu estou aqui (TV Size)
TitleUnicode:Eu estou aqui (TV Size)
Artist:Anjos
ArtistUnicode:Anjos
Creator:Basensorex
Version:A Vinganca do Sotarks
Source:Vingança
Tags:portuguese portugal soap opera revenge love amor male vocalist Sotarks My_Angel_ram opening op cut short ver version pop vinganca telenovela my angel ram
BeatmapID:2409721
BeatmapSetID:958558

[Difficulty]
HPDrainRate:5.2
CircleSize:4.2
OverallDifficulty:8.7
ApproachRate:9.2
SliderMultiplier:1.72
SliderTickRate:1

[Events]
//Background and Video events
0,0,"bg.jpg",0,0
//Break Periods
//Storyboard Layer 0 (Background)
//Storyboard Layer 1 (Fail)
//Storyboard Layer 2 (Pass)
//Storyboard Layer 3 (Foreground)
//Storyboard Layer 4 (Overlay)
//Storyboard Sound Samples

[TimingPoints]
6373,357.142857142857,4,2,22,50,1,0
6373,-108.695652173913,4,2,22,50,0,0
26372,-98.0392156862745,4,2,22,50,0,0
27801,-192.307692307692,4,2,22,50,0,0
29230,-89.2857142857143,4,2,22,75,0,1
54944,-98.0392156862745,4,2,22,50,0,0
55658,-98.0392156862745,4,2,22,20,0,0

[Colours]
Combo1 : 0,0,160
Combo2 : 128,128,0
Combo3 : 196,0,0

[HitObjects]
78,35,6373,6,0,P|114:102|123:215,1,158.239994687988,6|8,1:2|0:2,0:0:0:0:
194,355,6908,2,0,P|205:277|242:207,1,158.239994687988,0|2,1:2|1:2,0:0:0:0:
376,77,7444,1,8,0:2:0:0:
204,135,7623,1,2,1:2:0:0:
369,287,7801,6,0,P|376:227|377:187,1,79.1199973439942,0|2,1:2|0:2,0:0:0:0:
207,48,8158,2,0,P|133:63|107:163,1,158.239994687988,8|2,0:2|3:2,0:0:0:0:
160,289,8694,1,0,0:2:0:0:
315,147,8873,1,10,0:2:0:0:
159,207,9051,1,2,1:2:0:0:
324,360,9230,6,0,P|333:298|334:257,1,79.1199973439942,0|2,1:2|0:2,0:0:0:0:
291,64,9587,2,0,B|395:50|333:119|455:105,2,158.239994687988,8|2|8,0:2|3:2|0:2,0:0:0:0:
134,215,10480,1,0,1:2:0:0:
314,154,10658,5,0,1:2:0:0:
138,73,10837,1,0,3:2:0:0:
245,263,11015,1,8,0:2:0:0:
291,64,11194,1,0,1:2:0:0:
115,191,11373,2,0,P|125:243|133:288,1,79.1199973439942,2|0,3:2|0:2,0:0:0:0:
240,143,11730,1,10,0:2:0:0:
72,96,11908,1,2,1:2:0:0:
245,263,12087,6,0,P|320:249|421:233,1,158.239994687988,2|8,1:2|0:2,0:0:0:0:
291,79,12623,1,0,1:2:0:0:
363,278,12801,1,0,3:2:0:0:
457,111,12980,1,2,0:2:0:0:
268,229,13158,1,8,0:2:0:0:
432,112,13337,1,2,1:2:0:0:
272,315,13515,6,0,P|219:303|185:296,1,79.1199973439942,2|0,1:2|0:2,0:0:0:0:
224,31,13872,2,0,P|295:61|297:155,1,158.239994687988,10|2,0:2|3:2,0:0:0:0:
114,265,14408,1,0,0:2:0:0:
206,121,14587,1,10,0:2:0:0:
272,315,14765,1,0,1:2:0:0:
87,162,14944,6,0,P|98:97|105:62,1,79.1199973439942,2|0,1:2|0:2,0:0:0:0:
342,12,15301,2,0,P|349:49|361:109,1,79.1199973439942,8|0,0:2|1:2,0:0:0:0:
199,224,15658,1,2,3:2:0:0:
361,120,15837,1,0,0:2:0:0:
194,46,16015,1,8,0:2:0:0:
347,227,16194,1,0,1:2:0:0:
480,37,16372,6,0,P|471:75|463:114,1,79.1199973439942,0|0,1:2|3:2,0:0:0:0:
443,283,16730,1,8,0:2:0:0:
361,120,16908,1,0,1:2:0:0:
262,323,17087,2,0,P|201:305|171:293,1,79.1199973439942,2|0,3:2|0:2,0:0:0:0:
212,51,17444,1,10,0:2:0:0:
280,238,17622,1,2,1:2:0:0:
44,111,17801,6,0,P|118:118|232:138,2,158.239994687988,6|8|0,1:2|0:2|3:2,0:0:0:0:
136,224,18694,1,0,0:2:0:0:
212,51,18872,1,8,0:2:0:0:
58,175,19051,1,2,1:2:0:0:
210,315,19230,6,0,P|219:246|220:208,1,79.1199973439942,0|0,1:2|0:2,0:0:0:0:
130,36,19587,2,0,P|135:75|141:120,1,79.1199973439942,8|0,0:2|1:2,0:0:0:0:
315,185,19944,2,0,P|376:141|443:152,1,118.679996015991,2|2,3:2|0:2,0:0:0:0:
443,166,20301,2,0,P|437:205|431:253,1,79.1199973439942,8|2,0:2|1:2,0:0:0:0:
212,48,20658,6,0,P|205:142|202:219,2,158.239994687988,2|8|0,1:2|0:2|3:2,0:0:0:0:
82,181,21551,1,0,0:2:0:0:
275,103,21730,1,8,0:2:0:0:
115,41,21908,1,2,1:2:0:0:
294,182,22087,6,0,P|357:129|333:30,1,158.239994687988,0|8,1:2|0:2,0:0:0:0:
188,152,22622,1,2,3:2:0:0:
188,152,22712,1,2,3:2:0:0:
188,152,22801,2,0,P|207:228|209:272,1,118.679996015991,2|0,3:2|0:0,0:0:0:0:
194,296,23158,2,0,P|143:273|109:272,1,79.1199973439942,10|2,0:2|3:2,0:0:0:0:
74,340,23426,1,2,3:2:0:0:
74,340,23515,6,0,B|172:328|110:397|250:382,2,158.239994687988,2|8|0,1:2|0:2|3:2,0:0:0:0:
222,204,24408,1,0,0:2:0:0:
80,97,24587,1,8,0:2:0:0:
194,296,24765,1,2,1:2:0:0:
334,107,24944,1,2,1:2:0:0:
139,230,25122,1,2,0:2:0:0:
344,289,25301,2,0,P|360:233|306:143,1,158.239994687988,8|0,0:2|3:2,0:0:0:0:
119,97,25837,1,2,0:2:0:0:
280,226,26015,1,8,0:2:0:0:
195,40,26194,1,2,1:2:0:0:
200,276,26372,6,0,L|190:337,1,43.8600002677002,10|0,1:2|1:2,0:0:0:0:
361,235,26551,2,0,L|371:296,1,43.8600002677002,0|0,1:2|1:2,0:0:0:0:
232,161,26730,1,0,1:2:0:0:
329,81,26908,6,0,L|339:20,1,43.8600002677002,10|0,0:2|1:2,0:0:0:0:
168,122,27087,2,0,L|158:61,1,43.8600002677002,0|0,1:2|1:2,0:0:0:0:
296,196,27265,1,0,1:2:0:0:
144,345,27444,5,8,0:2:0:0:
103,331,27533,1,0,1:2:0:0:
79,295,27622,1,0,1:2:0:0:
83,252,27712,1,0,1:2:0:0:
112,220,27801,6,0,B|258:174|202:322|367:266,1,268.319998362305,12|2,0:2|0:2,0:0:0:0:
312,28,29230,6,0,P|301:115|296:159,1,96.3200011757813,6|0,1:2|0:2,0:0:0:0:
390,290,29587,1,8,0:2:0:0:
198,97,29765,2,0,P|205:144|212:197,1,96.3200011757813,0|0,1:2|3:2,0:0:0:0:
150,348,30122,1,0,1:2:0:0:
350,203,30301,1,8,0:2:0:0:
124,129,30480,1,0,1:2:0:0:
390,290,30658,6,0,P|432:217|383:95,1,192.640002351563,2|8,1:2|0:2,0:0:0:0:
202,228,31194,1,0,1:2:0:0:
380,93,31372,1,2,3:2:0:0:
207,21,31551,1,0,1:2:0:0:
350,205,31730,1,10,0:2:0:0:
286,72,31908,1,2,1:2:0:0:
127,279,32087,6,0,P|119:218|108:153,1,96.3200011757813,6|0,1:2|1:2,0:0:0:0:
207,21,32444,1,8,0:2:0:0:
223,306,32622,2,0,P|231:245|240:176,1,96.3200011757813,2|0,1:2|3:2,0:0:0:0:
178,46,32980,1,0,1:2:0:0:
310,255,33158,1,8,0:2:0:0:
401,29,33337,1,0,1:2:0:0:
168,180,33515,5,2,1:2:0:0:
412,249,33694,1,0,1:2:0:0:
286,18,33872,1,8,0:2:0:0:
200,309,34051,1,2,1:2:0:0:
447,113,34230,1,10,0:2:0:0:
409,84,34319,1,8,0:2:0:0:
361,78,34408,1,8,0:2:0:0:
318,98,34497,1,10,0:2:0:0:
292,138,34587,1,8,0:2:0:0:
265,177,34676,1,8,0:2:0:0:
222,197,34765,1,10,0:2:0:0:
174,192,34855,1,8,0:2:0:0:
137,163,34944,5,4,1:2:0:0:
272,25,35122,1,2,1:2:0:0:
185,265,35301,1,8,0:2:0:0:
21,89,35480,1,0,1:2:0:0:
222,117,35658,1,0,3:2:0:0:
38,303,35837,1,0,1:2:0:0:
163,60,36015,2,0,P|171:132|177:178,1,96.3200011757813,10|0,0:2|1:2,0:0:0:0:
149,370,36372,6,0,P|214:287|315:330,1,192.640002351563,2|8,1:2|0:2,0:0:0:0:
108,201,36908,1,0,1:2:0:0:
252,360,37087,1,2,3:2:0:0:
357,137,37265,1,0,1:2:0:0:
195,255,37444,1,10,0:2:0:0:
383,350,37622,1,2,1:2:0:0:
277,104,37801,6,0,P|267:182|262:236,1,96.3200011757813,2|0,1:2|1:2,0:0:0:0:
294,343,38158,1,8,0:2:0:0:
344,41,38337,2,0,P|354:119|360:172,1,96.3200011757813,2|0,1:2|3:2,0:0:0:0:
330,280,38694,1,0,1:2:0:0:
213,56,38872,1,8,0:2:0:0:
102,266,39051,1,0,1:2:0:0:
287,169,39230,5,0,1:2:0:0:
120,102,39408,1,4,0:3:0:0:
120,102,39497,1,4,0:3:0:0:
120,102,39587,1,8,0:2:0:0:
239,261,39765,1,8,3:0:0:0:
321,55,39944,1,14,0:2:0:0:
189,190,40122,1,8,0:2:0:0:
234,175,40212,1,10,0:2:0:0:
279,188,40301,1,8,1:2:0:0:
310,224,40390,1,8,1:2:0:0:
340,260,40480,1,10,1:2:0:0:
386,273,40569,1,8,1:2:0:0:
431,258,40658,6,0,P|434:217|441:151,1,96.3200011757813,6|0,1:2|1:2,0:0:0:0:
320,26,41015,1,8,0:2:0:0:
239,261,41194,2,0,P|246:320|250:369,1,96.3200011757813,0|0,1:2|3:2,0:0:0:0:
369,172,41551,1,0,1:2:0:0:
169,115,41730,1,10,0:2:0:0:
313,302,41908,1,0,1:2:0:0:
219,56,42087,6,0,P|146:18|63:101,1,192.640002351563,2|8,1:2|0:2,0:0:0:0:
175,261,42622,1,0,1:2:0:0:
325,87,42801,1,2,3:2:0:0:
120,175,42980,1,0,1:2:0:0:
355,306,43158,1,10,0:2:0:0:
248,155,43337,1,2,1:2:0:0:
137,340,43515,5,6,1:2:0:0:
369,234,43694,1,0,1:2:0:0:
180,104,43872,1,8,0:2:0:0:
285,331,44051,1,2,1:2:0:0:
251,72,44230,1,0,3:2:0:0:
127,262,44408,1,0,1:2:0:0:
216,5,44587,1,8,0:2:0:0:
336,233,44765,1,2,1:2:0:0:
109,136,44944,5,2,1:2:0:0:
251,332,45122,1,0,1:2:0:0:
354,89,45301,1,8,0:2:0:0:
149,235,45480,1,2,1:2:0:0:
311,24,45658,1,8,0:2:0:0:
357,12,45747,1,8,0:2:0:0:
402,26,45837,1,8,0:2:0:0:
433,62,45926,1,8,0:0:0:0:
440,109,46015,2,0,L|428:178,1,48.1600005878906,10|8,0:2|0:2,0:0:0:0:
226,244,46194,2,0,L|217:196,1,48.1600005878906,8|8,0:2|0:2,0:0:0:0:
427,289,46372,6,0,P|385:369|289:358,1,192.640002351563,6|8,1:2|0:2,0:0:0:0:
136,101,46908,2,0,B|266:89|169:177|338:166,1,192.640002351563,0|0,1:2|1:2,0:0:0:0:
190,15,47444,1,8,0:2:0:0:
280,233,47622,1,0,1:2:0:0:
469,33,47801,6,0,P|350:57|288:96,1,192.640002351563,6|8,1:2|0:2,0:0:0:0:
328,351,48337,2,0,P|370:267|318:165,1,192.640002351563,0|0,1:2|0:0,0:0:0:0:
102,92,48872,1,10,0:2:0:0:
279,266,49051,1,0,1:2:0:0:
154,27,49230,6,0,P|66:11|11:124,1,192.640002351563,6|8,1:2|0:2,0:0:0:0:
174,262,49765,2,0,B|293:274|216:175|369:192,1,192.640002351563,0|0,1:2|1:2,0:0:0:0:
172,171,50301,1,8,0:2:0:0:
335,296,50480,1,0,1:2:0:0:
438,91,50658,5,8,0:2:0:0:
392,76,50747,1,8,0:2:0:0:
346,87,50837,1,8,0:2:0:0:
312,121,50926,1,8,0:0:0:0:
301,167,51015,1,8,0:2:0:0:
289,213,51105,1,8,0:2:0:0:
256,246,51194,1,8,0:2:0:0:
209,257,51283,1,8,0:2:0:0:
164,243,51372,2,0,P|162:219|152:181,1,48.1600005878906,8|8,3:0|3:0,0:0:0:0:
17,135,51551,2,0,P|11:158|9:182,1,48.1600005878906,8|8,3:0|3:0,0:0:0:0:
168,82,51730,2,0,P|117:49|104:48,3,48.1600005878906,6|4|4|4,3:0|3:0|3:0|3:0,0:0:0:0:
98,145,52087,5,14,1:2:0:0:
387,76,52265,1,0,1:2:0:0:
49,53,52444,5,8,0:2:0:0:
333,180,52622,1,0,1:2:0:0:
92,314,52801,5,8,0:2:0:0:
245,50,52980,1,0,1:2:0:0:
340,332,53158,5,8,0:2:0:0:
98,145,53337,1,0,1:2:0:0:
411,74,53515,5,8,0:2:0:0:
207,313,53694,1,0,1:2:0:0:
179,15,53872,5,8,0:2:0:0:
394,254,54051,1,0,1:2:0:0:
76,173,54230,5,8,0:2:0:0:
416,34,54408,1,0,1:2:0:0:
166,233,54587,6,0,P|232:250|245:258,1,48.1600005878906,10|0,0:2|0:0,0:0:0:0:
406,110,54765,2,0,P|382:112|358:118,1,48.1600005878906,0|0,1:2|0:0,0:0:0:0:
131,120,54944,6,0,B|330:84|216:272|481:212,1,350.880002141602,12|0,0:2|0:0,0:0:0:0:
