osu file format v14

[General]
AudioFilename: audio.mp3
AudioLeadIn: 0
PreviewTime: 45737
Countdown: 1
SampleSet: None
StackLeniency: 0.7
Mode: 1
LetterboxInBreaks: 0
WidescreenStoryboard: 1

[Editor]
DistanceSpacing: 1.5
BeatDivisor: 4
GridSize: 32
TimelineZoom: 1.5

[Metadata]
Title:Show das Poderosas
TitleUnicode:Show das Poderosas
Artist:Anitta
ArtistUnicode:Anitta
Creator:_WWWWWW_WWWWWW_
Version:Extrema
Source:
Tags:brazil brasil brazilian pop portugues portuguese 2013 latin south america _w6 argentine dream
BeatmapID:1894770
BeatmapSetID:907989

[Difficulty]
HPDrainRate:6
CircleSize:5
OverallDifficulty:6
ApproachRate:5
SliderMultiplier:1.4
SliderTickRate:3

[Events]
//Background and Video events
0,0,"anitta.jpg",0,-135
//Break Periods
//Storyboard Layer 0 (Background)
//Storyboard Layer 1 (Fail)
//Storyboard Layer 2 (Pass)
//Storyboard Layer 3 (Foreground)
//Storyboard Sound Samples

[TimingPoints]
300,437.956204379562,4,1,0,100,1,0
45847,-100,4,1,0,100,0,1
47599,-100,4,1,0,100,0,0
49351,-100,4,1,0,100,0,1
51102,-100,4,1,0,100,0,0
52854,-100,4,1,0,100,0,1
61613,-100,4,1,0,100,0,0
63365,-100,4,1,0,100,0,1
65117,-100,4,1,0,100,0,0
66869,-100,4,1,0,100,0,1
73876,-100,4,1,0,100,0,0
77380,-86.9565217391304,4,1,0,100,0,1
86139,-86.9565217391304,4,1,0,100,0,0
87891,-100,4,1,0,100,0,0
101905,-100,4,1,0,100,0,1
103657,-100,4,1,0,100,0,0
105409,-100,4,1,0,100,0,1
107161,-100,4,1,0,100,0,0
108913,-100,4,1,0,100,0,1
117672,-100,4,1,0,100,0,0
119424,-100,4,1,0,100,0,1
121175,-100,4,1,0,100,0,0
122927,-100,4,1,0,100,0,1
143949,-100,4,1,0,100,0,0

[HitObjects]
256,192,300,6,4,L|256:160,24,23.3333333333333
224,224,3803,1,0,0:0:0:0:
224,224,4132,1,0,0:0:0:0:
224,224,4460,1,0,0:0:0:0:
224,224,4789,1,0,0:0:0:0:
224,224,5117,1,0,0:0:0:0:
224,160,5336,1,8,0:0:0:0:
224,224,5555,1,0,0:0:0:0:
224,224,5883,1,0,0:0:0:0:
224,224,6212,1,0,0:0:0:0:
224,224,6540,1,0,0:0:0:0:
224,224,6869,1,0,0:0:0:0:
224,224,7088,1,0,0:0:0:0:
224,160,7307,1,8,0:0:0:0:
224,160,7635,1,8,0:0:0:0:
224,160,7964,1,8,0:0:0:0:
224,160,8292,1,8,0:0:0:0:
224,160,8621,1,8,0:0:0:0:
224,224,8840,1,0,0:0:0:0:
224,160,9059,1,8,0:0:0:0:
224,160,9387,1,8,0:0:0:0:
224,160,9716,1,8,0:0:0:0:
224,160,10044,1,8,0:0:0:0:
224,160,10372,1,8,0:0:0:0:
224,160,10591,1,8,0:0:0:0:
288,224,10810,1,4,0:0:0:0:
224,224,11139,1,0,0:0:0:0:
224,224,11467,1,0,0:0:0:0:
224,224,11796,1,0,0:0:0:0:
224,224,12124,1,0,0:0:0:0:
224,160,12343,1,8,0:0:0:0:
224,224,12562,1,0,0:0:0:0:
224,224,12890,1,0,0:0:0:0:
224,224,13219,1,0,0:0:0:0:
224,224,13547,1,0,0:0:0:0:
224,224,13876,1,0,0:0:0:0:
224,224,14095,1,0,0:0:0:0:
224,160,14314,1,8,0:0:0:0:
224,160,14642,1,8,0:0:0:0:
224,160,14971,1,8,0:0:0:0:
224,160,15299,1,8,0:0:0:0:
224,160,15628,1,8,0:0:0:0:
224,224,15847,1,0,0:0:0:0:
224,160,16066,1,8,0:0:0:0:
224,160,16394,1,8,0:0:0:0:
224,160,16723,1,8,0:0:0:0:
224,160,17051,1,8,0:0:0:0:
224,160,17379,1,8,0:0:0:0:
224,160,17598,1,8,0:0:0:0:
288,224,17818,1,4,0:0:0:0:
224,224,18147,1,0,0:0:0:0:
224,224,18475,1,0,0:0:0:0:
224,224,18804,1,0,0:0:0:0:
224,224,19132,1,0,0:0:0:0:
224,160,19351,1,8,0:0:0:0:
224,224,19570,1,0,0:0:0:0:
224,224,19898,1,0,0:0:0:0:
224,224,20227,1,0,0:0:0:0:
224,224,20555,1,0,0:0:0:0:
224,224,20884,1,0,0:0:0:0:
224,160,21322,1,8,0:0:0:0:
224,224,21540,1,0,0:0:0:0:
224,224,21650,1,0,0:0:0:0:
224,160,21759,1,8,0:0:0:0:
224,224,21978,1,0,0:0:0:0:
224,224,22088,1,0,0:0:0:0:
224,160,22197,1,8,0:0:0:0:
224,224,22416,1,0,0:0:0:0:
224,160,22635,1,8,0:0:0:0:
224,160,22854,1,8,0:0:0:0:
224,224,23073,1,0,0:0:0:0:
224,224,23291,1,0,0:0:0:0:
224,224,23401,1,0,0:0:0:0:
224,160,23511,1,8,0:0:0:0:
224,224,23729,1,0,0:0:0:0:
224,224,23840,1,0,0:0:0:0:
224,160,23949,1,8,0:0:0:0:
224,224,24167,1,0,0:0:0:0:
224,160,24386,1,8,0:0:0:0:
224,160,24605,1,8,0:0:0:0:
224,224,24825,1,0,0:0:0:0:
224,160,25043,1,8,0:0:0:0:
224,224,25153,1,0,0:0:0:0:
224,160,25262,1,8,0:0:0:0:
224,224,25482,1,0,0:0:0:0:
224,160,25700,1,8,0:0:0:0:
224,160,25810,1,8,0:0:0:0:
224,224,25919,1,0,0:0:0:0:
224,160,26138,1,8,0:0:0:0:
224,160,26248,1,8,0:0:0:0:
224,224,26357,1,0,0:0:0:0:
224,160,26576,1,8,0:0:0:0:
224,224,26796,1,0,0:0:0:0:
224,160,27015,1,8,0:0:0:0:
224,224,27452,1,0,0:0:0:0:
224,224,27672,1,0,0:0:0:0:
224,160,27891,1,8,0:0:0:0:
224,224,28000,1,0,0:0:0:0:
224,160,28110,1,8,0:0:0:0:
224,224,28329,1,0,0:0:0:0:
224,224,28547,1,0,0:0:0:0:
224,224,28657,1,0,0:0:0:0:
224,160,28766,1,8,0:0:0:0:
224,224,28985,1,0,0:0:0:0:
224,224,29095,1,0,0:0:0:0:
224,160,29204,1,8,0:0:0:0:
224,224,29423,1,0,0:0:0:0:
224,160,29642,1,8,0:0:0:0:
224,160,29861,1,8,0:0:0:0:
224,224,30080,1,0,0:0:0:0:
256,192,30299,12,0,31613,0:0:0:0:
224,224,31832,5,0,0:0:0:0:
224,160,32161,1,8,0:0:0:0:
224,224,32270,1,0,0:0:0:0:
224,160,32489,1,8,0:0:0:0:
224,160,32599,1,8,0:0:0:0:
224,224,32708,1,0,0:0:0:0:
224,160,32927,1,8,0:0:0:0:
224,160,33037,1,8,0:0:0:0:
224,224,33146,1,0,0:0:0:0:
224,160,33365,1,8,0:0:0:0:
224,224,33584,1,0,0:0:0:0:
224,160,33803,1,8,0:0:0:0:
224,160,33913,1,8,0:0:0:0:
224,224,34022,1,0,0:0:0:0:
224,224,34241,1,0,0:0:0:0:
224,224,34460,1,0,0:0:0:0:
224,160,34679,1,8,0:0:0:0:
224,224,34898,5,0,0:0:0:0:
224,160,35044,1,8,0:0:0:0:
224,160,35190,1,8,0:0:0:0:
224,224,35336,1,0,0:0:0:0:
224,160,35665,1,8,0:0:0:0:
224,224,35774,1,0,0:0:0:0:
224,160,35993,1,8,0:0:0:0:
224,160,36103,1,8,0:0:0:0:
224,224,36212,1,0,0:0:0:0:
224,160,36431,1,8,0:0:0:0:
224,160,36540,1,8,0:0:0:0:
224,224,36650,1,0,0:0:0:0:
224,160,36869,1,8,0:0:0:0:
224,224,37088,1,0,0:0:0:0:
224,160,37307,1,8,0:0:0:0:
224,224,37526,1,0,0:0:0:0:
224,224,37745,1,0,0:0:0:0:
224,224,37964,1,0,0:0:0:0:
224,160,38183,1,8,0:0:0:0:
224,160,38293,1,8,0:0:0:0:
224,224,38402,5,0,0:0:0:0:
224,160,38621,1,8,0:0:0:0:
224,224,38840,1,0,0:0:0:0:
224,160,39169,1,8,0:0:0:0:
224,224,39278,1,0,0:0:0:0:
224,160,39497,1,8,0:0:0:0:
224,160,39607,1,8,0:0:0:0:
224,224,39716,1,0,0:0:0:0:
224,160,39935,1,8,0:0:0:0:
224,160,40044,1,8,0:0:0:0:
224,224,40154,1,0,0:0:0:0:
224,160,40373,1,8,0:0:0:0:
224,224,40592,1,0,0:0:0:0:
224,160,40811,1,8,0:0:0:0:
224,224,41030,1,0,0:0:0:0:
224,224,41249,1,0,0:0:0:0:
224,224,41468,1,0,0:0:0:0:
224,160,41687,1,8,0:0:0:0:
224,224,41906,5,0,0:0:0:0:
224,160,42052,1,8,0:0:0:0:
224,160,42198,1,8,0:0:0:0:
224,224,42343,1,0,0:0:0:0:
224,160,42672,1,8,0:0:0:0:
224,224,42781,1,0,0:0:0:0:
224,160,43000,1,8,0:0:0:0:
224,160,43110,1,8,0:0:0:0:
224,224,43219,1,0,0:0:0:0:
224,160,43438,1,8,0:0:0:0:
224,160,43548,1,8,0:0:0:0:
224,224,43657,1,0,0:0:0:0:
224,160,43876,1,8,0:0:0:0:
224,224,44095,1,0,0:0:0:0:
224,224,44205,1,0,0:0:0:0:
224,160,44314,1,8,0:0:0:0:
224,224,44533,1,0,0:0:0:0:
224,224,44643,1,0,0:0:0:0:
224,160,44752,1,8,0:0:0:0:
224,160,44862,1,8,0:0:0:0:
224,224,44971,1,0,0:0:0:0:
224,224,45847,5,0,0:0:0:0:
224,224,46175,1,0,0:0:0:0:
224,160,46285,1,8,0:0:0:0:
224,224,46504,1,0,0:0:0:0:
224,160,46723,1,8,0:0:0:0:
224,160,46942,1,8,0:0:0:0:
224,224,47161,1,0,0:0:0:0:
224,160,47380,1,8,0:0:0:0:
224,160,47489,1,8,0:0:0:0:
224,224,47599,1,0,0:0:0:0:
224,160,48913,1,8,0:0:0:0:
224,160,48986,1,8,0:0:0:0:
224,160,49059,1,8,0:0:0:0:
224,160,49132,1,8,0:0:0:0:
224,224,49351,5,0,0:0:0:0:
224,224,49679,1,0,0:0:0:0:
224,160,49789,1,8,0:0:0:0:
224,160,50008,1,8,0:0:0:0:
224,224,50227,1,0,0:0:0:0:
224,224,50446,1,0,0:0:0:0:
224,160,50665,1,8,0:0:0:0:
224,224,50884,1,0,0:0:0:0:
224,160,50993,1,8,0:0:0:0:
224,224,51103,1,0,0:0:0:0:
224,160,52416,1,8,0:0:0:0:
224,160,52489,1,8,0:0:0:0:
224,160,52562,1,8,0:0:0:0:
224,160,52635,1,8,0:0:0:0:
224,224,52854,5,0,0:0:0:0:
224,224,53182,1,0,0:0:0:0:
224,160,53292,1,8,0:0:0:0:
224,160,53511,1,8,0:0:0:0:
224,224,53730,1,0,0:0:0:0:
224,224,53949,1,0,0:0:0:0:
224,160,54168,1,8,0:0:0:0:
224,160,54387,1,8,0:0:0:0:
224,160,54496,1,8,0:0:0:0:
224,224,54606,1,0,0:0:0:0:
224,224,54825,1,0,0:0:0:0:
224,160,55044,1,8,0:0:0:0:
224,224,55263,1,0,0:0:0:0:
224,224,55701,1,0,0:0:0:0:
224,160,55920,1,8,0:0:0:0:
224,224,56139,1,0,0:0:0:0:
224,224,56248,1,0,0:0:0:0:
224,160,56358,1,8,0:0:0:0:
224,224,56577,1,0,0:0:0:0:
224,224,56686,1,0,0:0:0:0:
224,160,56796,1,8,0:0:0:0:
224,224,57015,1,0,0:0:0:0:
224,160,57234,1,8,0:0:0:0:
224,224,57453,1,0,0:0:0:0:
224,160,57672,1,8,0:0:0:0:
224,224,57891,1,0,0:0:0:0:
224,160,58000,1,8,0:0:0:0:
224,224,58110,1,0,0:0:0:0:
224,224,58329,1,0,0:0:0:0:
224,224,58438,1,0,0:0:0:0:
224,160,58548,1,8,0:0:0:0:
224,224,58767,1,0,0:0:0:0:
224,160,58986,1,8,0:0:0:0:
224,224,59205,1,0,0:0:0:0:
224,160,59424,1,8,0:0:0:0:
224,160,59643,1,8,0:0:0:0:
224,160,59752,1,8,0:0:0:0:
224,224,59862,5,0,0:0:0:0:
224,224,60190,1,0,0:0:0:0:
224,160,60300,1,8,0:0:0:0:
224,224,60519,1,0,0:0:0:0:
224,160,60738,1,8,0:0:0:0:
224,160,60957,1,8,0:0:0:0:
224,224,61176,1,0,0:0:0:0:
224,160,61395,1,8,0:0:0:0:
224,160,61504,1,8,0:0:0:0:
224,224,61614,1,0,0:0:0:0:
224,160,62927,1,8,0:0:0:0:
224,160,63000,1,8,0:0:0:0:
224,160,63073,1,8,0:0:0:0:
224,160,63146,1,8,0:0:0:0:
224,224,63366,5,0,0:0:0:0:
224,224,63694,1,0,0:0:0:0:
224,160,63804,1,8,0:0:0:0:
224,160,64023,1,8,0:0:0:0:
224,224,64242,1,0,0:0:0:0:
224,224,64461,1,0,0:0:0:0:
224,160,64680,1,8,0:0:0:0:
224,224,64899,1,0,0:0:0:0:
224,160,65008,1,8,0:0:0:0:
224,224,65118,1,0,0:0:0:0:
224,160,66431,1,8,0:0:0:0:
224,160,66504,1,8,0:0:0:0:
224,160,66577,1,8,0:0:0:0:
224,160,66650,1,8,0:0:0:0:
224,224,66869,5,0,0:0:0:0:
224,224,67197,1,0,0:0:0:0:
224,160,67307,1,8,0:0:0:0:
224,224,67526,1,0,0:0:0:0:
224,160,67745,1,8,0:0:0:0:
224,224,67964,1,0,0:0:0:0:
224,160,68183,1,8,0:0:0:0:
224,160,68402,1,8,0:0:0:0:
224,160,68511,1,8,0:0:0:0:
224,224,68621,1,0,0:0:0:0:
224,224,68840,1,0,0:0:0:0:
224,224,68950,1,0,0:0:0:0:
224,160,69059,1,8,0:0:0:0:
224,224,69278,1,0,0:0:0:0:
224,160,69497,1,8,0:0:0:0:
224,224,69716,1,0,0:0:0:0:
224,160,69935,1,8,0:0:0:0:
224,160,70154,1,8,0:0:0:0:
224,160,70263,1,8,0:0:0:0:
224,224,70373,1,0,0:0:0:0:
224,224,70592,1,0,0:0:0:0:
224,224,70701,1,0,0:0:0:0:
224,160,70811,1,8,0:0:0:0:
224,224,71030,1,0,0:0:0:0:
224,160,71249,1,8,0:0:0:0:
224,224,71468,1,0,0:0:0:0:
224,160,71687,1,8,0:0:0:0:
224,224,71906,1,0,0:0:0:0:
224,160,72015,1,8,0:0:0:0:
224,224,72125,1,0,0:0:0:0:
224,224,72344,1,0,0:0:0:0:
224,224,72453,1,0,0:0:0:0:
224,160,72563,1,8,0:0:0:0:
224,224,72782,1,0,0:0:0:0:
224,160,73001,1,8,0:0:0:0:
224,224,73220,1,0,0:0:0:0:
224,160,73439,1,8,0:0:0:0:
224,160,73658,1,8,0:0:0:0:
224,160,73767,1,8,0:0:0:0:
224,224,73876,1,0,0:0:0:0:
256,192,74752,12,0,75409,0:0:0:0:
224,160,77380,5,8,0:0:0:0:
224,224,77599,1,0,0:0:0:0:
224,224,77818,1,0,0:0:0:0:
224,160,78037,5,8,0:0:0:0:
224,160,78110,1,8,0:0:0:0:
224,160,78183,1,8,0:0:0:0:
224,160,78256,5,8,0:0:0:0:
224,224,78475,1,0,0:0:0:0:
224,160,78694,5,8,0:0:0:0:
224,160,78913,5,8,0:0:0:0:
224,224,79132,1,0,0:0:0:0:
224,160,79460,1,8,0:0:0:0:
224,224,79679,1,0,0:0:0:0:
224,224,79789,1,0,0:0:0:0:
224,160,80008,5,8,0:0:0:0:
224,224,80227,1,0,0:0:0:0:
224,160,80445,5,8,0:0:0:0:
224,224,80591,1,0,0:0:0:0:
224,224,80737,1,0,0:0:0:0:
224,160,80883,1,8,0:0:0:0:
224,224,81102,1,0,0:0:0:0:
224,160,81321,5,8,0:0:0:0:
224,160,81431,5,8,0:0:0:0:
224,224,81540,1,0,0:0:0:0:
224,160,81759,5,8,0:0:0:0:
224,160,81869,1,8,0:0:0:0:
224,224,81978,5,0,0:0:0:0:
224,224,82197,1,0,0:0:0:0:
224,224,82307,1,0,0:0:0:0:
224,224,82416,5,0,0:0:0:0:
224,224,82635,5,0,0:0:0:0:
224,224,82854,1,0,0:0:0:0:
224,160,83073,1,8,0:0:0:0:
224,224,83292,5,0,0:0:0:0:
224,160,83511,5,8,0:0:0:0:
224,160,83657,1,8,0:0:0:0:
224,160,83803,1,8,0:0:0:0:
224,224,83949,1,0,0:0:0:0:
224,224,84095,1,0,0:0:0:0:
224,224,84241,1,0,0:0:0:0:
224,160,84387,5,8,0:0:0:0:
224,224,84606,1,0,0:0:0:0:
224,160,84825,5,8,0:0:0:0:
224,224,85044,1,0,0:0:0:0:
224,224,85154,1,0,0:0:0:0:
224,160,85263,1,8,0:0:0:0:
224,160,85482,1,8,0:0:0:0:
224,224,85701,1,0,0:0:0:0:
224,224,85810,1,0,0:0:0:0:
224,224,85920,1,0,0:0:0:0:
224,224,86139,1,0,0:0:0:0:
256,192,86358,2,0,L|256:160,8,26.8333338451386
224,224,87891,5,0,0:0:0:0:
224,160,88220,1,8,0:0:0:0:
224,224,88329,1,0,0:0:0:0:
224,160,88548,1,8,0:0:0:0:
224,160,88658,1,8,0:0:0:0:
224,224,88767,1,0,0:0:0:0:
224,160,88986,1,8,0:0:0:0:
224,160,89096,1,8,0:0:0:0:
224,224,89205,1,0,0:0:0:0:
224,160,89424,1,8,0:0:0:0:
224,224,89643,1,0,0:0:0:0:
224,160,89862,1,8,0:0:0:0:
224,160,89972,1,8,0:0:0:0:
224,224,90081,1,0,0:0:0:0:
224,224,90300,1,0,0:0:0:0:
224,224,90519,1,0,0:0:0:0:
224,160,90738,1,8,0:0:0:0:
224,224,90957,5,0,0:0:0:0:
224,160,91103,1,8,0:0:0:0:
224,160,91249,1,8,0:0:0:0:
224,224,91395,1,0,0:0:0:0:
224,160,91724,1,8,0:0:0:0:
224,224,91833,1,0,0:0:0:0:
224,160,92052,1,8,0:0:0:0:
224,160,92162,1,8,0:0:0:0:
224,224,92271,1,0,0:0:0:0:
224,160,92490,1,8,0:0:0:0:
224,160,92599,1,8,0:0:0:0:
224,224,92709,1,0,0:0:0:0:
224,160,92928,1,8,0:0:0:0:
224,224,93147,1,0,0:0:0:0:
224,160,93366,1,8,0:0:0:0:
224,224,93585,1,0,0:0:0:0:
224,224,93804,1,0,0:0:0:0:
224,224,94023,1,0,0:0:0:0:
224,160,94242,1,8,0:0:0:0:
224,160,94352,1,8,0:0:0:0:
224,224,94461,5,0,0:0:0:0:
224,160,94680,1,8,0:0:0:0:
224,224,94899,1,0,0:0:0:0:
224,160,95228,1,8,0:0:0:0:
224,224,95337,1,0,0:0:0:0:
224,160,95556,1,8,0:0:0:0:
224,160,95664,1,8,0:0:0:0:
224,224,95775,1,0,0:0:0:0:
224,160,95994,1,8,0:0:0:0:
224,160,96103,1,8,0:0:0:0:
224,224,96213,1,0,0:0:0:0:
224,160,96432,1,8,0:0:0:0:
224,224,96651,1,0,0:0:0:0:
224,160,96870,1,8,0:0:0:0:
224,224,97089,1,0,0:0:0:0:
224,224,97308,1,0,0:0:0:0:
224,224,97527,1,0,0:0:0:0:
224,160,97746,1,8,0:0:0:0:
224,224,97965,5,0,0:0:0:0:
224,160,98111,1,8,0:0:0:0:
224,160,98257,1,8,0:0:0:0:
224,224,98402,1,0,0:0:0:0:
224,160,98731,1,8,0:0:0:0:
224,224,98840,1,0,0:0:0:0:
224,160,99059,1,8,0:0:0:0:
224,160,99169,1,8,0:0:0:0:
224,224,99278,1,0,0:0:0:0:
224,160,99497,1,8,0:0:0:0:
224,160,99607,1,8,0:0:0:0:
224,224,99716,1,0,0:0:0:0:
224,160,99935,1,8,0:0:0:0:
224,224,100154,1,0,0:0:0:0:
224,224,100264,1,0,0:0:0:0:
224,160,100373,1,8,0:0:0:0:
224,224,100592,1,0,0:0:0:0:
224,224,100702,1,0,0:0:0:0:
224,160,100811,1,8,0:0:0:0:
224,160,100921,1,8,0:0:0:0:
224,224,101030,1,0,0:0:0:0:
224,224,101906,5,0,0:0:0:0:
224,224,102234,1,0,0:0:0:0:
224,160,102344,1,8,0:0:0:0:
224,224,102563,1,0,0:0:0:0:
224,160,102782,1,8,0:0:0:0:
224,160,103001,1,8,0:0:0:0:
224,224,103220,1,0,0:0:0:0:
224,160,103439,1,8,0:0:0:0:
224,160,103548,1,8,0:0:0:0:
224,224,103658,1,0,0:0:0:0:
224,160,104972,1,8,0:0:0:0:
224,160,105045,1,8,0:0:0:0:
224,160,105118,1,8,0:0:0:0:
224,160,105191,1,8,0:0:0:0:
224,224,105410,5,0,0:0:0:0:
224,224,105738,1,0,0:0:0:0:
224,160,105848,1,8,0:0:0:0:
224,160,106067,1,8,0:0:0:0:
224,224,106286,1,0,0:0:0:0:
224,224,106505,1,0,0:0:0:0:
224,160,106724,1,8,0:0:0:0:
224,224,106943,1,0,0:0:0:0:
224,160,107052,1,8,0:0:0:0:
224,224,107161,5,0,0:0:0:0:
224,160,108475,5,8,0:0:0:0:
224,160,108548,1,8,0:0:0:0:
224,160,108621,1,8,0:0:0:0:
224,160,108694,1,8,0:0:0:0:
224,224,108913,5,0,0:0:0:0:
224,224,109241,1,0,0:0:0:0:
224,160,109351,1,8,0:0:0:0:
224,160,109570,1,8,0:0:0:0:
224,224,109789,1,0,0:0:0:0:
224,224,110008,1,0,0:0:0:0:
224,160,110227,1,8,0:0:0:0:
224,160,110446,1,8,0:0:0:0:
224,160,110555,1,8,0:0:0:0:
224,224,110665,1,0,0:0:0:0:
224,224,110884,1,0,0:0:0:0:
224,160,111103,1,8,0:0:0:0:
224,224,111322,1,0,0:0:0:0:
224,224,111760,1,0,0:0:0:0:
224,160,111979,1,8,0:0:0:0:
224,224,112198,1,0,0:0:0:0:
224,224,112307,1,0,0:0:0:0:
224,160,112417,1,8,0:0:0:0:
224,224,112636,1,0,0:0:0:0:
224,224,112745,1,0,0:0:0:0:
224,160,112855,1,8,0:0:0:0:
224,224,113074,1,0,0:0:0:0:
224,160,113293,1,8,0:0:0:0:
224,224,113512,1,0,0:0:0:0:
224,160,113731,1,8,0:0:0:0:
224,224,113950,1,0,0:0:0:0:
224,160,114059,1,8,0:0:0:0:
224,224,114169,1,0,0:0:0:0:
224,224,114388,1,0,0:0:0:0:
224,224,114497,1,0,0:0:0:0:
224,160,114607,1,8,0:0:0:0:
224,224,114826,1,0,0:0:0:0:
224,160,115045,1,8,0:0:0:0:
224,224,115264,1,0,0:0:0:0:
224,160,115483,1,8,0:0:0:0:
224,160,115702,1,8,0:0:0:0:
224,160,115811,1,8,0:0:0:0:
224,224,115921,5,0,0:0:0:0:
224,224,116249,1,0,0:0:0:0:
224,160,116359,1,8,0:0:0:0:
224,224,116578,1,0,0:0:0:0:
224,160,116797,1,8,0:0:0:0:
224,160,117016,1,8,0:0:0:0:
224,224,117235,1,0,0:0:0:0:
224,160,117454,1,8,0:0:0:0:
224,160,117563,1,8,0:0:0:0:
224,224,117673,1,0,0:0:0:0:
224,160,118986,1,8,0:0:0:0:
224,160,119059,1,8,0:0:0:0:
224,160,119132,1,8,0:0:0:0:
224,160,119205,1,8,0:0:0:0:
224,224,119425,5,0,0:0:0:0:
224,224,119753,1,0,0:0:0:0:
224,160,119863,1,8,0:0:0:0:
224,160,120082,1,8,0:0:0:0:
224,224,120299,1,0,0:0:0:0:
224,224,120518,1,0,0:0:0:0:
224,160,120737,1,8,0:0:0:0:
224,224,120956,1,0,0:0:0:0:
224,160,121067,1,8,0:0:0:0:
224,224,121175,1,0,0:0:0:0:
224,160,122490,1,8,0:0:0:0:
224,160,122563,1,8,0:0:0:0:
224,160,122636,1,8,0:0:0:0:
224,160,122709,1,8,0:0:0:0:
224,224,122928,5,0,0:0:0:0:
224,224,123256,1,0,0:0:0:0:
224,160,123366,1,8,0:0:0:0:
224,224,123585,1,0,0:0:0:0:
224,160,123804,1,8,0:0:0:0:
224,224,124023,1,0,0:0:0:0:
224,160,124242,1,8,0:0:0:0:
224,160,124461,1,8,0:0:0:0:
224,160,124570,1,8,0:0:0:0:
224,224,124680,1,0,0:0:0:0:
224,224,124899,1,0,0:0:0:0:
224,224,125009,1,0,0:0:0:0:
224,160,125118,1,8,0:0:0:0:
224,224,125337,1,0,0:0:0:0:
224,160,125556,1,8,0:0:0:0:
224,224,125775,1,0,0:0:0:0:
224,160,125994,1,8,0:0:0:0:
224,160,126213,1,8,0:0:0:0:
224,160,126322,1,8,0:0:0:0:
224,224,126432,1,0,0:0:0:0:
224,224,126651,1,0,0:0:0:0:
224,224,126760,1,0,0:0:0:0:
224,160,126870,1,8,0:0:0:0:
224,224,127089,1,0,0:0:0:0:
224,160,127308,1,8,0:0:0:0:
224,224,127527,1,0,0:0:0:0:
224,160,127746,1,8,0:0:0:0:
224,224,127965,1,0,0:0:0:0:
224,160,128074,1,8,0:0:0:0:
224,224,128184,1,0,0:0:0:0:
224,224,128403,1,0,0:0:0:0:
224,224,128512,1,0,0:0:0:0:
224,160,128622,1,8,0:0:0:0:
224,224,128841,5,0,0:0:0:0:
224,160,129060,1,8,0:0:0:0:
224,224,129279,1,0,0:0:0:0:
224,160,129498,1,8,0:0:0:0:
224,160,129717,1,8,0:0:0:0:
224,160,129826,1,8,0:0:0:0:
224,224,129935,5,0,0:0:0:0:
224,160,130154,1,8,0:0:0:0:
224,224,130263,1,0,0:0:0:0:
224,160,130372,1,8,0:0:0:0:
224,224,130591,1,0,0:0:0:0:
224,160,130810,1,8,0:0:0:0:
224,224,131029,1,0,0:0:0:0:
224,160,131248,1,8,0:0:0:0:
224,160,131467,1,8,0:0:0:0:
224,160,131577,1,8,0:0:0:0:
224,224,131686,1,0,0:0:0:0:
224,224,131905,1,0,0:0:0:0:
224,224,132015,1,0,0:0:0:0:
224,160,132124,1,8,0:0:0:0:
224,224,132343,1,0,0:0:0:0:
224,224,132562,1,0,0:0:0:0:
224,160,132781,1,8,0:0:0:0:
224,160,132891,1,8,0:0:0:0:
224,224,133000,1,0,0:0:0:0:
224,160,133219,1,8,0:0:0:0:
224,160,133329,1,8,0:0:0:0:
224,224,133438,1,0,0:0:0:0:
224,160,133657,1,8,0:0:0:0:
224,224,133766,1,0,0:0:0:0:
224,160,133875,1,8,0:0:0:0:
224,224,134094,1,0,0:0:0:0:
224,160,134313,1,8,0:0:0:0:
224,224,134532,1,0,0:0:0:0:
224,160,134751,1,8,0:0:0:0:
224,160,134970,1,8,0:0:0:0:
224,160,135080,1,8,0:0:0:0:
224,224,135189,1,0,0:0:0:0:
224,224,135408,1,0,0:0:0:0:
224,224,135518,1,0,0:0:0:0:
224,160,135627,1,8,0:0:0:0:
224,224,135846,1,0,0:0:0:0:
224,160,136065,1,8,0:0:0:0:
224,224,136284,1,0,0:0:0:0:
224,160,136503,1,8,0:0:0:0:
224,160,136722,1,8,0:0:0:0:
224,160,136832,1,8,0:0:0:0:
224,224,136942,1,0,0:0:0:0:
224,160,137161,1,8,0:0:0:0:
224,224,137270,1,0,0:0:0:0:
224,160,137379,1,8,0:0:0:0:
224,224,137598,1,0,0:0:0:0:
224,160,137817,1,8,0:0:0:0:
224,224,138036,1,0,0:0:0:0:
224,160,138255,1,8,0:0:0:0:
224,160,138474,1,8,0:0:0:0:
224,160,138584,1,8,0:0:0:0:
224,224,138693,1,0,0:0:0:0:
224,224,138912,1,0,0:0:0:0:
224,224,139022,1,0,0:0:0:0:
224,160,139131,1,8,0:0:0:0:
224,224,139350,1,0,0:0:0:0:
224,224,139569,1,0,0:0:0:0:
224,160,139788,1,8,0:0:0:0:
224,160,139898,1,8,0:0:0:0:
224,224,140007,1,0,0:0:0:0:
224,160,140226,1,8,0:0:0:0:
224,160,140336,1,8,0:0:0:0:
224,224,140445,1,0,0:0:0:0:
224,160,140664,1,8,0:0:0:0:
224,224,140773,1,0,0:0:0:0:
224,160,140882,1,8,0:0:0:0:
224,224,141101,1,0,0:0:0:0:
224,160,141320,1,8,0:0:0:0:
224,224,141539,1,0,0:0:0:0:
224,160,141758,1,8,0:0:0:0:
224,160,141977,1,8,0:0:0:0:
224,160,142087,1,8,0:0:0:0:
224,224,142197,5,0,0:0:0:0:
224,224,142417,5,0,0:0:0:0:
224,224,142526,5,0,0:0:0:0:
224,160,142635,5,8,0:0:0:0:
224,224,142854,5,0,0:0:0:0:
224,160,143073,5,8,0:0:0:0:
224,224,143292,5,0,0:0:0:0:
224,224,143402,5,0,0:0:0:0:
224,160,143511,5,8,0:0:0:0:
224,160,143621,5,8,0:0:0:0:
224,224,143730,5,0,0:0:0:0:
224,224,143840,5,0,0:0:0:0:
256,192,143949,12,0,144387,0:0:0:0:
