osu file format v14

[General]
AudioFilename: audio.mp3
AudioLeadIn: 0
PreviewTime: 30741
Countdown: 0
SampleSet: Soft
StackLeniency: 0.8
Mode: 0
LetterboxInBreaks: 0
WidescreenStoryboard: 1

[Editor]
Bookmarks: 2018,31698,53081,73507,92975,111805,134783
DistanceSpacing: 1.3
BeatDivisor: 8
GridSize: 4
TimelineZoom: 1

[Metadata]
Title:Medicina
TitleUnicode:Medicina
Artist:Anitta
ArtistUnicode:Anitta
Creator:MkGuh
Version:Medio de Rocket
Source:
Tags:Synitri Larissa de Macedo Machado funk pop spanish brazil espanol brasil br irreversible voli happyrocket88
BeatmapID:1813609
BeatmapSetID:863183

[Difficulty]
HPDrainRate:3
CircleSize:2.5
OverallDifficulty:4
ApproachRate:4
SliderMultiplier:1.45
SliderTickRate:2

[Events]
//Background and Video events
0,0,"bg rocket (2).jpg",0,0
Video,-564,"anita la huerfanita.mp4"
//Break Periods
2,60955,61988
2,83934,84967
//Storyboard Layer 0 (Background)
//Storyboard Layer 1 (Fail)
//Storyboard Layer 2 (Pass)
//Storyboard Layer 3 (Foreground)
//Storyboard Layer 4 (Overlay)
//Storyboard Sound Samples

[TimingPoints]
2032,638.297872340426,4,2,1,60,1,0
6819,-100,4,2,1,60,0,0
7138,-100,4,2,1,60,0,0
11446,-100,4,2,1,60,0,0
12244,-100,4,2,1,75,0,0
12484,-100,4,2,1,5,0,0
12563,-100,4,2,1,65,0,0
14478,-100,4,2,1,65,0,0
14797,-100,4,2,1,65,0,0
17032,-100,4,2,1,65,0,0
17191,-100,4,2,1,55,0,0
17351,-100,4,2,1,45,0,0
17670,-100,4,2,1,65,0,0
20542,-100,4,2,1,50,0,0
20861,-100,4,2,1,30,0,0
21180,-100,4,2,1,55,0,0
22457,-83.3333333333333,4,2,1,80,0,1
31393,-100,4,2,1,65,0,1
31633,-100,4,2,1,5,0,1
31712,-100,4,2,1,70,0,1
32670,-100,4,2,1,70,0,0
32989,-100,4,2,1,70,0,0
33308,-100,4,2,1,70,0,0
35542,-100,4,2,1,70,0,0
35861,-100,4,2,1,70,0,0
38095,-100,4,2,1,70,0,0
38414,-100,4,2,1,70,0,0
42883,-100,4,2,1,70,0,0
53095,-100,4,2,1,70,0,0
54771,-100,4,2,1,5,0,0
54851,-100,4,2,1,70,0,0
57324,-100,4,2,1,5,0,0
57404,-100,4,2,1,70,0,0
59877,-100,4,2,1,5,0,0
59957,-100,4,2,1,70,0,0
62032,-100,4,2,1,70,0,0
62670,-100,4,2,1,70,0,0
63308,-100,4,2,1,70,0,0
63946,-100,4,2,1,70,0,0
64585,-100,4,2,1,70,0,0
65223,-100,4,2,1,70,0,0
65861,-100,4,2,1,70,0,0
66499,-100,4,2,1,70,0,0
67138,-100,4,2,1,70,0,0
67776,-100,4,2,1,70,0,0
68414,-100,4,2,1,70,0,0
69052,-100,4,2,1,70,0,0
69691,-100,4,2,1,70,0,0
72723,-100,4,2,1,70,0,0
73521,-83.3333333333333,4,2,1,80,0,1
83734,-100,4,2,1,70,0,0
86287,-83.3333333333333,4,2,1,80,0,1
93946,-100,4,2,1,70,0,0
114372,-83.3333333333333,4,2,1,80,0,1
134797,-100,4,2,1,70,0,0

[Colours]
Combo1 : 239,209,105
Combo2 : 250,205,175
Combo3 : 235,151,139

[HitObjects]
215,271,2032,6,0,P|225:210|172:146,1,145,2|0,0:0|0:0,0:0:0:0:
90,109,2989,1,2,0:3:0:0:
60,197,3308,2,0,P|66:258|133:306,1,145,2|0,0:0|0:0,0:0:0:0:
219,278,4266,1,2,0:3:0:0:
301,324,4585,6,0,B|346:344|346:344|389:327|389:327|445:347,1,145,2|0,0:0|0:0,0:0:0:0:
504,278,5542,1,2,0:3:0:0:
436,212,5861,2,0,P|426:172|437:140,1,72.5,2|2,0:0|0:0,0:0:0:0:
460,52,6500,1,0,0:0:0:0:
369,76,6819,1,2,0:3:0:0:
295,16,7138,5,2,0:0:0:0:
295,16,7457,2,0,P|269:85|307:154,1,145,2|2,0:0|0:3,0:0:0:0:
364,212,8414,1,2,0:0:0:0:
364,212,8734,2,0,P|402:273|382:344,1,145,2|8,0:0|0:0,0:0:0:0:
303,292,9691,5,2,0:0:0:0:
303,292,10010,2,0,B|229:274|229:274|160:304,1,145,2|2,0:0|0:3,0:0:0:0:
95,364,10968,1,2,0:0:0:0:
95,364,11287,2,0,P|72:292|108:229,1,145,2|2,0:0|0:3,0:0:0:0:
176,175,12244,5,6,3:1:0:0:
262,213,12563,1,2,0:0:0:0:
333,150,12883,2,0,P|350:129|356:77,1,72.5,4|8,3:0|0:0,0:0:0:0:
289,20,13521,2,0,P|272:41|266:93,1,72.5,4|2,3:0|0:0,0:0:0:0:
333,150,14159,2,0,B|361:176|397:174|397:174|390:214|411:249,1,145,4|4,3:0|3:0,0:0:0:0:
439,335,15117,5,2,0:0:0:0:
346,350,15436,2,0,B|307:359|307:359|276:343,1,72.5,4|8,3:0|0:0,0:0:0:0:
248,254,16074,2,0,B|287:245|287:245|318:261,2,72.5,4|8|4,3:0|0:0|3:0,0:0:0:0:
164,298,17032,1,8,0:0:0:0:
86,244,17351,6,0,P|59:184|100:108,1,145,4|4,3:0|3:0,0:0:0:0:
151,44,18308,1,8,0:0:0:0:
208,118,18627,2,0,P|244:132|279:122,1,72.5,4|2,3:0|0:0,0:0:0:0:
351,68,19266,2,0,P|389:54|426:70,1,72.5,4|8,0:3|0:0,0:0:0:0:
481,134,19904,5,4,3:0:0:0:
481,134,21180,5,12,3:0:0:0:
439,218,21500,1,12,3:0:0:0:
393,301,21819,1,12,3:0:0:0:
344,381,22138,1,2,3:0:0:0:
245,325,22457,6,0,B|199:315|164:338|164:338|114:367,2,130.499996017456,4|0|8,1:0|1:0|1:2,0:0:0:0:
349,281,23734,2,0,B|361:232|398:213|398:213|448:184,2,130.499996017456,0|8|8,1:0|1:2|1:2,0:0:0:0:
251,216,25010,6,0,L|205:131,1,86.9999973449708,0|8,1:0|1:2,0:0:0:0:
111,82,25649,1,6,1:0:0:0:
111,195,25968,1,8,0:0:0:0:
209,139,26287,2,0,P|241:112|299:119,1,86.9999973449708,0|0,1:0|1:0,0:0:0:0:
390,150,26925,2,0,P|418:148|466:113,1,86.9999973449708,0|0,1:0|1:0,0:0:0:0:
375,45,27563,6,0,L|315:180,2,130.499996017456,4|0|8,1:0|1:0|1:2,0:0:0:0:
261,54,28840,2,0,L|204:184,2,130.499996017456,0|8|8,1:0|1:2|1:2,0:0:0:0:
149,76,30117,6,0,P|104:88|58:66,1,86.9999973449708,0|8,1:0|1:2,0:0:0:0:
97,183,30755,2,0,B|121:237|121:237|94:352,1,173.999994689942,2|4,1:2|1:0,0:0:0:0:
186,368,31712,1,8,0:0:0:0:
272,324,32032,1,4,3:0:0:0:
356,365,32351,1,4,3:0:0:0:
450,360,32670,6,0,P|413:292|340:276,1,145,4|4,3:0|3:0,0:0:0:0:
259,291,33627,1,8,0:0:0:0:
259,291,33946,2,0,P|196:259|177:190,1,145,4|4,3:1|3:0,0:0:0:0:
233,115,34904,1,8,0:1:0:0:
233,115,35223,6,0,B|168:147|168:147|91:131,1,145,4|6,3:0|1:0,0:0:0:0:
81,225,36180,1,8,0:0:0:0:
81,225,36500,2,0,B|152:242|152:242|196:301,1,145,4|4,3:0|3:0,0:0:0:0:
287,280,37457,1,8,0:0:0:0:
287,280,37776,6,0,P|330:225|310:145,1,145,4|4,3:0|3:0,0:0:0:0:
264,75,38734,1,8,0:0:0:0:
264,75,39053,2,0,P|221:142|234:205,1,145,0|4,3:0|3:0,0:0:0:0:
308,266,40010,1,8,0:0:0:0:
231,320,40329,6,0,B|161:319|161:319|122:299|77:325,2,145,4|4|12,3:0|3:0|3:0,0:0:0:0:
296,252,41925,1,12,3:0:0:0:
375,302,42244,1,12,3:0:0:0:
311,371,42563,1,6,3:0:0:0:
231,320,42883,5,4,0:1:0:0:
296,252,43202,2,0,L|346:190,1,72.5,2|4,3:0|3:0,0:0:0:0:
406,127,43840,1,8,0:0:0:0:
313,107,44159,2,0,P|265:90|237:31,2,108.75,4|8|8,3:0|0:1|0:1,0:0:0:0:
378,38,45436,5,0,3:0:0:0:
406,127,45755,2,0,L|431:200,1,72.5,2|4,3:0|3:0,0:0:0:0:
471,279,46393,1,8,0:0:0:0:
392,331,46712,2,0,B|356:356|356:356|292:356,2,108.75,4|8|8,3:0|0:1|0:0,0:0:0:0:
327,262,47989,6,0,L|248:263,1,72.5,4|2,3:0|3:0,0:0:0:0:
180,321,48627,1,4,3:0:0:0:
102,267,48946,1,8,0:0:0:0:
174,206,49266,2,0,P|175:150|148:107,2,108.75,4|8|8,3:0|0:1|0:0,0:0:0:0:
84,176,50542,6,0,L|149:34,2,145,2|2|4,3:0|3:0|3:0,0:0:0:0:
45,262,52138,1,8,0:0:0:0:
1,345,52457,1,4,3:0:0:0:
94,354,52776,1,8,0:0:0:0:
188,356,53095,6,0,P|168:296|120:264,2,108.75,4|8|8,3:0|0:0|0:0,0:0:0:0:
282,356,54372,2,0,P|302:295|350:263,2,108.75,2|8|8,3:0|0:0|0:0,0:0:0:0:
234,274,55649,6,0,L|235:158,2,108.75,4|8|8,3:0|0:0|0:0,0:0:0:0:
311,216,56925,2,0,P|327:159|307:105,2,108.75,2|8|4,3:0|0:0|3:0,0:0:0:0:
234,165,58202,6,0,P|218:108|238:54,2,108.75,8|8|8,0:0|0:0|0:0,0:0:0:0:
313,114,59478,2,0,B|366:114|366:114|374:119|374:119|425:117,2,108.75,2|8|8,3:0|0:0|0:0,0:0:0:0:
232,62,60755,5,4,3:0:0:0:
483,235,63308,6,0,P|448:197|348:200,1,145,4|4,3:0|3:0,0:0:0:0:
285,252,64266,1,8,0:0:0:0:
198,207,64585,2,0,P|172:157|176:129,1,72.5,4|0,3:0|0:0,0:0:0:0:
239,75,65223,2,0,P|265:125|261:153,1,72.5,4|8,3:0|0:0,0:0:0:0:
293,228,65861,6,0,P|350:271|426:253,2,145,4|4|4,3:0|3:0|3:0,0:0:0:0:
264,139,67457,1,4,3:0:0:0:
198,207,67776,2,0,B|184:241|184:241|189:283,1,72.5,4|8,3:0|0:0,0:0:0:0:
98,306,68414,6,0,B|91:228|91:228|119:160,2,145,4|4|4,3:0|3:0|3:0,0:0:0:0:
173,362,70010,1,8,0:0:0:0:
246,303,70329,1,4,3:0:0:0:
324,355,70649,1,8,0:0:0:0:
408,308,70968,6,0,B|415:230|415:230|387:162,2,145,2|2|2,0:0|0:0|0:0,0:0:0:0:
324,355,72563,1,4,3:0:0:0:
246,303,72883,1,4,3:0:0:0:
173,362,73202,1,4,3:0:0:0:
170,248,73521,6,0,B|200:208|251:208|251:208|272:160,2,130.499996017456,4|0|8,1:0|1:0|0:0,0:0:0:0:
223,347,74797,2,0,B|272:341|298:296|298:296|350:302,2,130.499996017456,0|8|8,1:0|1:2|0:0,0:0:0:0:
117,304,76074,6,0,P|91:257|98:212,1,86.9999973449708,6|8,1:0|0:0,0:0:0:0:
107,170,76553,1,8,1:2:0:0:
128,118,76712,2,0,P|136:70|119:28,1,86.9999973449708,0|8,1:0|0:0,0:0:0:0:
230,0,77351,2,0,P|243:41|274:70,1,86.9999973449708,4|8,3:0|0:0,0:0:0:0:
322,102,77829,1,0,1:0:0:0:
365,138,77989,2,0,P|389:173|390:216,1,86.9999973449708,4|12,3:0|3:0,0:0:0:0:
277,226,78627,6,0,L|239:91,2,130.499996017456,4|0|8,1:0|1:0|0:0,0:0:0:0:
368,169,79904,2,0,L|334:33,2,130.499996017456,0|8|8,1:0|1:2|0:0,0:0:0:0:
268,220,81180,6,0,B|224:214|224:214|180:237,1,86.9999973449708,0|8,1:0|0:0,0:0:0:0:
147,274,81659,1,0,1:0:0:0:
187,314,81819,2,0,B|230:334|230:334|288:320,1,86.9999973449708,4|8,3:0|0:0,0:0:0:0:
305,218,82457,1,12,3:0:0:0:
417,209,82776,1,4,3:0:0:0:
468,309,83095,1,12,3:0:0:0:
372,370,83414,1,12,3:0:0:0:
268,324,83734,5,6,0:0:0:0:
267,326,86287,6,0,L|170:325,1,86.9999973449708,6|8,1:0|0:0,0:0:0:0:
123,323,86766,1,8,1:2:0:0:
145,271,86925,2,0,P|169:226|210:205,1,86.9999973449708,4|8,3:0|0:0,0:0:0:0:
312,175,87563,2,0,P|348:151|367:113,1,86.9999973449708,4|8,3:0|0:0,0:0:0:0:
383,58,88042,1,0,1:0:0:0:
326,57,88202,2,0,L|225:57,1,86.9999973449708,4|12,3:0|3:0,0:0:0:0:
138,108,88840,6,0,B|117:144|130:181|130:181|146:238,2,130.499996017456,4|0|8,1:0|1:0|0:0,0:0:0:0:
241,155,90117,2,0,B|255:207|255:207|268:244|247:280,2,130.499996017456,0|8|8,1:0|1:2|0:0,0:0:0:0:
351,129,91393,6,0,B|366:181|366:181|374:219|411:239,2,130.499996017456,0|8|8,1:0|1:2|0:0,0:0:0:0:
412,35,92670,2,0,B|448:54|457:92|457:92|472:145,2,130.499996017456,12|0|8,3:0|0:0|1:0,0:0:0:0:
337,92,93946,5,4,3:0:0:0:
256,42,94266,1,2,1:0:0:0:
174,88,94585,1,4,3:0:0:0:
93,39,94904,1,8,0:0:0:0:
46,120,95223,2,0,B|50:160|80:186|80:186|47:214|47:259,1,145,4|4,3:1|3:0,0:0:0:0:
104,320,96180,1,8,0:0:0:0:
182,267,96500,5,6,1:0:0:0:
253,328,96819,1,2,1:1:0:0:
330,267,97138,1,4,3:0:0:0:
408,320,97458,1,8,0:0:0:0:
464,245,97776,2,0,B|465:214|432:186|432:186|462:160|466:120,1,145,4|4,3:0|3:0,0:0:0:0:
424,35,98734,1,8,0:0:0:0:
355,99,99053,6,0,P|317:105|280:89,2,72.5,4|2|4,3:0|1:1|3:0,0:0:0:0:
330,7,100010,1,8,0:0:0:0:
236,13,100329,2,0,P|208:42|196:79,2,72.5,4|8|4,3:0|0:0|3:0,0:0:0:0:
285,93,101287,1,8,0:0:0:0:
218,160,101606,6,0,L|105:61,2,145,4|4|12,3:0|3:0|3:0,0:0:0:0:
291,219,103202,1,8,0:0:0:0:
202,252,103521,1,12,3:0:0:0:
276,310,103840,1,2,0:0:0:0:
188,345,104159,6,0,L|77:378,2,108.75,4|8|8,3:0|0:0|0:0,0:0:0:0:
276,310,105436,2,0,L|379:271,2,108.75,4|8|8,3:0|0:0|0:0,0:0:0:0:
195,261,106712,6,0,P|181:207|198:153,2,108.75,4|8|8,3:0|0:0|0:0,0:0:0:0:
274,210,107989,2,0,B|331:189|331:189|342:169|342:169|398:145,1,145,4|4,3:0|3:0,0:0:0:0:
444,63,108946,1,8,0:0:0:0:
373,0,109266,6,0,P|350:67|369:114,2,108.75,4|8|8,3:0|0:0|0:0,0:0:0:0:
444,63,110542,2,0,P|456:111|422:174,2,108.75,4|8|8,3:0|0:0|0:0,0:0:0:0:
360,101,111819,5,4,3:0:0:0:
256,192,112457,12,4,114372,1:0:0:0:
197,172,115649,6,0,B|259:147|259:147|319:170,2,130.499996017456,0|0|8,1:0|1:0|1:2,0:0:0:0:
271,257,116925,2,0,P|328:274|354:264,1,86.9999973449708,4|8,1:0|1:2,0:0:0:0:
396,230,117404,1,0,1:0:0:0:
420,179,117563,2,0,P|412:126|385:93,1,86.9999973449708,4|8,3:0|1:2,0:0:0:0:
279,93,118202,6,0,B|235:105|235:105|193:84,1,86.9999973449708,0|8,1:0|0:0,0:0:0:0:
147,61,118680,1,0,1:0:0:0:
91,72,118840,2,0,P|64:106|66:157,1,86.9999973449708,4|0,3:0|1:0,0:0:0:0:
118,246,119478,6,0,B|147:290|147:290|187:269|236:295,2,130.499996017456,4|0|8,1:0|1:0|1:2,0:0:0:0:
5,261,120755,2,0,L|87:386,2,130.499996017456,0|0|8,1:0|1:0|1:2,0:0:0:0:
72,170,122032,6,0,P|121:142|159:150,1,86.9999973449708,0|8,1:0|1:2,0:0:0:0:
201,165,122510,1,0,1:0:0:0:
256,175,122670,2,0,P|300:171|327:137,1,86.9999973449708,4|0,3:0|1:0,0:0:0:0:
337,27,123308,1,12,3:0:0:0:
425,97,123627,1,12,3:0:0:0:
506,175,123946,1,12,3:0:0:0:
440,267,124266,1,12,3:0:0:0:
361,348,124585,6,0,L|259:252,2,130.499996017456,4|0|8,1:0|1:0|1:2,0:0:0:0:
440,267,125861,2,0,L|337:171,2,130.499996017456,0|0|8,1:0|1:0|1:2,0:0:0:0:
361,348,127138,6,0,P|320:367|275:348,1,86.9999973449708,6|8,1:0|1:2,0:0:0:0:
191,287,127776,1,2,1:2:0:0:
246,188,128095,1,0,1:0:0:0:
174,100,128414,2,0,P|133:87|95:106,2,86.9999973449708,12|8|12,3:0|1:2|3:0,0:0:0:0:
246,188,129372,1,12,3:0:0:0:
306,283,129691,6,0,B|263:306|263:306|219:297|221:297,1,86.9999973449708,4|8,1:0|0:0,0:0:0:0:
183,260,130170,1,0,0:0:0:0:
128,275,130329,2,0,B|83:266|83:266|57:232,1,86.9999973449708,4|8,3:0|1:2,0:0:0:0:
85,123,130968,6,0,B|128:100|128:100|172:109|170:109,1,86.9999973449708,0|8,1:0|1:2,0:0:0:0:
208,146,131447,1,0,1:0:0:0:
263,131,131606,2,0,B|308:140|308:140|334:174,1,86.9999973449708,4|8,3:0|1:2,0:0:0:0:
356,283,132244,6,0,P|409:313|478:287,2,130.499996017456,4|0|0,1:0|1:0|1:0,0:0:0:0:
278,200,133521,1,12,3:0:0:0:
213,293,133840,1,12,3:0:0:0:
136,376,134159,1,12,3:0:0:0:
105,267,134478,1,12,3:0:0:0:
162,175,134797,6,0,B|170:130|170:130|223:86,2,108.75,4|2|2,0:3|3:1|3:1,0:0:0:0:
105,267,136074,2,0,B|113:312|113:312|166:356,2,108.75,4|2|8,3:0|3:1|0:1,0:0:0:0:
162,175,137351,5,6,1:0:0:0:
