osu file format v14

[General]
AudioFilename: audio.mp3
AudioLeadIn: 0
PreviewTime: 30741
Countdown: 0
SampleSet: Soft
StackLeniency: 0.3
Mode: 0
LetterboxInBreaks: 0
WidescreenStoryboard: 0

[Editor]
Bookmarks: 2018,31698,53081,73507,92975,111805,134783
DistanceSpacing: 1.5
BeatDivisor: 8
GridSize: 4
TimelineZoom: 1

[Metadata]
Title:Medicina
TitleUnicode:Medicina
Artist:Anitta
ArtistUnicode:Anitta
Creator:MkGuh
Version:Gelatina ft. Irreversible & Synitri
Source:
Tags:Synitri Larissa de Macedo Machado funk pop spanish brazil espanol brasil br irreversible voli happyrocket88
BeatmapID:1805552
BeatmapSetID:863183

[Difficulty]
HPDrainRate:5.5
CircleSize:4.2
OverallDifficulty:8.5
ApproachRate:9
SliderMultiplier:2.85
SliderTickRate:2

[Events]
//Background and Video events
0,0,"si te pegas por atras.jpg",0,0
Video,-564,"anita la huerfanita.mp4"
//Break Periods
//Storyboard Layer 0 (Background)
//Storyboard Layer 1 (Fail)
//Storyboard Layer 2 (Pass)
//Storyboard Layer 3 (Foreground)
//Storyboard Layer 4 (Overlay)
//Storyboard Sound Samples

[TimingPoints]
2032,638.297872340426,4,2,1,60,1,0
6819,-200,4,2,1,60,0,0
7138,-100,4,2,1,60,0,0
9212,-200,4,2,1,60,0,0
9691,-100,4,2,1,60,0,0
11446,-200,4,2,1,60,0,0
12244,-66.6666666666667,4,2,1,75,0,0
12484,-66.6666666666667,4,2,1,5,0,0
12563,-100,4,2,1,65,0,0
14478,-200,4,2,1,65,0,0
14797,-100,4,2,1,65,0,0
17032,-200,4,2,1,65,0,0
17191,-200,4,2,1,55,0,0
17351,-200,4,2,1,45,0,0
17670,-100,4,2,1,65,0,0
20542,-200,4,2,1,50,0,0
20861,-400,4,2,1,30,0,0
21180,-400,4,2,1,55,0,0
22457,-125,4,2,1,80,0,1
31393,-250,4,2,1,65,0,1
31633,-250,4,2,1,5,0,1
31712,-100,4,2,1,70,0,1
32670,-100,4,2,1,70,0,0
32989,-200,4,2,1,70,0,0
33308,-100,4,2,1,70,0,0
35542,-200,4,2,1,70,0,0
35861,-100,4,2,1,70,0,0
38095,-200,4,2,1,70,0,0
38414,-100,4,2,1,70,0,0
42883,-100,4,2,1,70,0,0
53095,-166.666666666667,4,2,1,70,0,0
54771,-166.666666666667,4,2,1,5,0,0
54851,-166.666666666667,4,2,1,70,0,0
57324,-166.666666666667,4,2,1,5,0,0
57404,-166.666666666667,4,2,1,70,0,0
59877,-166.666666666667,4,2,1,5,0,0
59957,-166.666666666667,4,2,1,70,0,0
62032,-66.6666666666667,4,2,1,70,0,0
62670,-500,4,2,1,70,0,0
63308,-166.666666666667,4,2,1,70,0,0
63946,-125,4,2,1,70,0,0
64585,-100,4,2,1,70,0,0
65223,-166.666666666667,4,2,1,70,0,0
65861,-166.666666666667,4,2,1,70,0,0
66499,-125,4,2,1,70,0,0
67138,-100,4,2,1,70,0,0
67776,-166.666666666667,4,2,1,70,0,0
68414,-166.666666666667,4,2,1,70,0,0
69052,-125,4,2,1,70,0,0
69691,-100,4,2,1,70,0,0
72723,-166.666666666667,4,2,1,70,0,0
73521,-125,4,2,1,80,0,1
76074,-250,4,2,1,90,0,1
76712,-125,4,2,1,80,0,1
77032,-250,4,2,1,80,0,1
77989,-125,4,2,1,80,0,1
83734,-125,4,2,1,70,0,0
86287,-250,4,2,1,90,0,1
86925,-125,4,2,1,80,0,1
87244,-250,4,2,1,80,0,1
87563,-125,4,2,1,80,0,1
92032,-125,4,2,1,60,0,1
92271,-125,4,2,1,5,0,1
92351,-125,4,2,1,75,0,1
92670,-200,4,2,1,83,0,1
92909,-200,4,2,1,5,0,1
92989,-100,4,2,1,83,0,1
93946,-125,4,2,1,70,0,0
94266,-200,4,2,1,70,0,0
94585,-100,4,2,1,70,0,0
96819,-200,4,2,1,70,0,0
97138,-100,4,2,1,70,0,0
99372,-200,4,2,1,70,0,0
99691,-100,4,2,1,70,0,0
104159,-166.666666666667,4,2,1,70,0,0
104797,-125,4,2,1,70,0,0
105436,-100,4,2,1,70,0,0
106074,-166.666666666667,4,2,1,70,0,0
106712,-166.666666666667,4,2,1,70,0,0
107350,-125,4,2,1,70,0,0
107989,-100,4,2,1,70,0,0
108627,-166.666666666667,4,2,1,70,0,0
109265,-166.666666666667,4,2,1,70,0,0
109903,-125,4,2,1,70,0,0
110542,-100,4,2,1,70,0,0
114372,-66.6666666666667,4,2,1,80,0,1
115649,-100,4,2,1,80,0,1
117085,-100,4,2,1,90,0,1
117244,-100,4,2,1,80,0,1
119478,-66.6666666666667,4,2,1,80,0,1
120755,-100,4,2,1,80,0,1
124266,-100,4,2,1,80,0,0
124585,-66.6666666666667,4,2,1,80,0,1
125861,-100,4,2,1,80,0,1
127297,-100,4,2,1,90,0,1
127457,-100,4,2,1,80,0,1
133840,-200,4,2,1,80,0,1
134797,-100,4,2,1,45,0,0
135276,-1000,4,2,1,45,0,0
137351,-1000,4,2,1,80,0,0
137510,-16.6666666666667,4,2,1,70,0,0
137590,-15.220700152207,4,2,1,5,0,0

[Colours]
Combo1 : 239,209,105
Combo2 : 250,205,175
Combo3 : 235,151,139

[HitObjects]
126,44,2032,6,0,P|158:75|139:169,1,142.5,2|2,0:0|0:0,0:0:0:0:
22,117,2510,2,0,L|113:111,1,71.25,2|0,0:3|0:0,0:0:0:0:
211,244,2829,1,0,0:0:0:0:
140,280,2989,2,0,L|52:271,1,71.25,2|0,0:3|0:0,0:0:0:0:
93,112,3308,5,2,0:0:0:0:
170,157,3468,1,0,0:0:0:0:
239,105,3627,1,2,0:0:0:0:
163,51,3787,1,2,0:3:0:0:
163,51,3946,1,0,0:0:0:0:
321,232,4266,1,2,0:3:0:0:
411,106,4425,1,8,0:0:0:0:
311,158,4585,6,0,P|368:175|381:270,1,142.5,2|2,0:0|0:0,0:0:0:0:
241,191,5063,2,0,P|237:141|261:100,1,71.25,2|0,0:3|0:0,0:0:0:0:
106,218,5383,1,0,0:0:0:0:
149,293,5542,2,0,P|187:280|229:288,1,71.25,2|0,0:3|0:0,0:0:0:0:
319,279,5861,5,2,0:0:0:0:
381,327,6021,1,0,0:0:0:0:
454,299,6180,1,2,0:0:0:0:
413,164,6340,2,0,P|401:207|403:238,1,71.25,2|0,0:3|0:0,0:0:0:0:
489,127,6659,1,0,0:0:0:0:
423,78,6819,2,0,L|386:87,1,35.625,2|0,0:3|0:0,0:0:0:0:
250,166,7138,6,0,B|229:130|229:130|245:13,1,142.5,2|2,0:0|0:0,0:0:0:0:
313,104,7617,1,2,0:3:0:0:
250,166,7776,1,0,0:0:0:0:
151,42,7936,1,0,0:0:0:0:
79,99,8095,1,2,0:3:0:0:
79,99,8255,1,0,0:0:0:0:
136,258,8414,6,0,L|152:189,1,71.25,2|0,0:0|0:0,0:0:0:0:
92,333,8734,1,2,0:0:0:0:
0,229,8893,2,0,L|16:298,1,71.25,2|0,0:3|0:0,0:0:0:0:
254,223,9212,5,0,0:0:0:0:
236,137,9372,1,8,0:0:0:0:
160,96,9532,1,8,0:0:0:0:
367,128,9691,6,0,P|414:147|498:103,1,142.5,2|2,0:0|0:0,0:0:0:0:
367,128,10170,2,0,P|350:177|354:210,1,71.25,2|0,0:3|0:0,0:0:0:0:
360,353,10489,1,0,0:0:0:0:
273,278,10649,2,0,P|308:283|352:271,1,71.25,2|0,0:3|0:0,0:0:0:0:
220,199,10968,5,2,0:0:0:0:
152,252,11127,1,0,0:0:0:0:
71,218,11287,1,2,0:0:0:0:
135,103,11446,6,0,L|142:152,2,35.625,2|0|0,0:3|0:0|0:0,0:0:0:0:
220,308,11925,2,0,L|231:261,1,35.625,2|0,0:3|0:0,0:0:0:0:
253,201,12244,6,0,B|214:227|214:227|67:207,1,160.312506115437,6|0,3:1|0:0,0:0:0:0:
26,199,12563,5,2,0:0:0:0:
173,58,12723,1,8,0:0:0:0:
75,46,12883,2,0,L|-7:39,1,71.25,4|0,3:0|0:0,0:0:0:0:
192,153,13202,2,0,L|275:146,1,71.25,8|0,0:0|0:0,0:0:0:0:
83,128,13521,5,4,3:0:0:0:
38,206,13680,1,0,0:0:0:0:
84,280,13840,1,2,0:0:0:0:
222,350,14000,1,8,0:0:0:0:
270,276,14160,1,4,3:0:0:0:
224,201,14319,1,0,0:0:0:0:
301,107,14478,6,8,L|261:102,1,35.625,0|8,1:0|0:0,0:0:0:0:
186,90,14797,1,4,3:0:0:0:
494,221,15117,5,2,0:0:0:0:
433,42,15276,1,8,0:0:0:0:
375,135,15436,2,0,L|361:233,1,71.25,4|0,3:0|0:0,0:0:0:0:
188,360,15755,2,0,L|180:260,1,71.25,8|0,0:0|0:0,0:0:0:0:
131,178,16074,5,4,3:0:0:0:
212,149,16234,1,0,0:0:0:0:
279,205,16393,1,8,0:0:0:0:
182,288,16553,1,8,0:1:0:0:
103,323,16713,1,4,3:0:0:0:
32,274,16872,1,0,0:0:0:0:
182,288,17032,6,0,L|185:323,2,35.625,8|2|4,0:0|0:0|3:0,0:0:0:0:
374,306,17670,6,0,P|392:251|389:211,1,71.25,2|8,0:0|0:0,0:0:0:0:
280,67,17989,2,0,P|264:124|265:155,1,71.25,4|0,3:0|0:0,0:0:0:0:
299,237,18308,1,8,0:0:0:0:
403,117,18468,1,0,0:0:0:0:
288,255,18627,6,0,L|199:238,1,71.25,4|0,3:0|0:0,0:0:0:0:
93,332,18946,2,0,L|-5:346,2,71.25,2|8|4,0:0|0:0|0:3,0:0:0:0:
107,249,19425,1,0,0:0:0:0:
188,350,19585,1,8,0:0:0:0:
196,152,19744,1,8,0:0:0:0:
288,255,19904,1,4,3:0:0:0:
9,103,20177,5,0,0:0:0:0:
111,36,20360,1,2,0:0:0:0:
174,235,21180,5,12,3:0:0:0:
217,329,21340,1,2,0:0:0:0:
385,186,21500,5,12,3:0:0:0:
337,280,21660,1,8,0:0:0:0:
206,51,21819,5,12,3:0:0:0:
255,140,21979,1,0,0:0:0:0:
424,7,22139,5,2,3:0:0:0:
375,92,22297,1,2,0:0:0:0:
34,31,22457,6,0,L|38:105,1,57,4|0,1:0|0:0,0:0:0:0:
128,83,22776,2,0,L|133:155,1,57,8|0,0:0|1:0,0:0:0:0:
224,120,23095,2,0,L|229:192,1,57,0|0,1:0|0:0,0:0:0:0:
319,22,23414,5,8,1:2:0:0:
319,22,23574,1,2,0:0:0:0:
319,22,23734,2,0,L|312:99,1,57,0|2,1:0|0:0,0:0:0:0:
403,101,24053,2,0,L|395:176,1,57,8|8,0:0|1:2,0:0:0:0:
490,175,24372,2,0,L|483:252,1,57,0|0,1:0|0:0,0:0:0:0:
328,343,24691,5,8,1:2:0:0:
328,343,24851,1,2,0:0:0:0:
328,343,25010,2,0,L|198:363,1,114,0|8,1:0|1:2,0:0:0:0:
57,219,25489,1,8,1:2:0:0:
43,307,25649,5,6,1:0:0:0:
161,235,25808,1,0,0:0:0:0:
0,144,25968,1,8,0:0:0:0:
198,11,26287,5,0,1:0:0:0:
123,133,26446,1,0,0:0:0:0:
280,122,26606,2,0,P|232:105|210:104,1,57,0|8,1:0|1:2,0:0:0:0:
338,229,26925,2,0,P|380:222|412:201,1,57,0|0,1:0|0:0,0:0:0:0:
215,198,27244,1,0,1:0:0:0:
251,324,27404,1,0,0:0:0:0:
69,236,27563,6,0,P|35:225|1:220,1,57,4|0,1:0|0:0,0:0:0:0:
77,141,27883,2,0,P|48:131|14:125,1,57,8|0,0:0|1:0,0:0:0:0:
82,46,28202,2,0,P|53:36|19:30,1,57,0|0,1:0|0:0,0:0:0:0:
183,114,28521,5,8,1:2:0:0:
183,114,28680,1,2,0:0:0:0:
183,114,28840,2,0,P|218:115|252:110,1,57,0|2,1:0|0:0,0:0:0:0:
201,207,29159,2,0,P|231:208|265:205,1,57,8|8,0:0|1:2,0:0:0:0:
229,300,29478,2,0,P|259:301|293:298,1,57,0|0,1:0|0:0,0:0:0:0:
417,239,29797,5,8,1:2:0:0:
417,239,29957,1,8,0:0:0:0:
417,239,30117,2,0,P|391:168|392:119,1,114,0|8,1:0|1:2,0:0:0:0:
417,30,30595,1,0,1:0:0:0:
280,113,30755,5,2,1:2:0:0:
82,95,31074,1,0,1:0:0:0:
104,256,31393,2,0,P|100:281|94:299,1,42.75,4|0,1:0|0:0,0:0:0:0:
74,320,31712,6,0,L|216:310,1,142.5,8|4,0:0|3:0,0:0:0:0:
291,346,32191,1,0,3:0:0:0:
372,340,32351,2,0,P|403:324|438:320,1,71.25,4|0,3:0|0:0,0:0:0:0:
419,131,32670,6,0,P|434:99|438:64,1,71.25,4|2,3:0|0:0,0:0:0:0:
416,112,32989,6,0,P|423:96|425:78,1,35.625,2|8,0:1|0:0,0:0:0:0:
438,320,33308,6,0,P|403:324|372:340,1,71.25,4|0,3:0|0:0,0:0:0:0:
216,310,33627,2,0,P|180:306|149:290,1,71.25,8|0,0:0|0:0,0:0:0:0:
71,63,33946,6,0,P|103:102|61:76,1,142.5,4|2,3:1|0:0,0:0:0:0:
84,224,34425,5,8,0:0:0:0:
149,290,34585,2,0,P|180:306|216:310,1,71.25,4|0,3:0|0:0,0:0:0:0:
362,93,34904,2,0,P|331:77|295:74,1,71.25,8|8,0:1|0:0,0:0:0:0:
428,320,35223,6,0,L|418:249,1,71.25,4|2,3:0|0:0,0:0:0:0:
440,300,35542,6,0,L|435:264,1,35.625,2|8,0:1|0:0,0:0:0:0:
232,284,35861,5,6,1:0:0:0:
163,339,36021,1,0,0:0:0:0:
245,370,36180,1,8,0:0:0:0:
308,317,36340,1,0,0:0:0:0:
136,176,36500,6,0,P|66:168|13:212,1,142.5,4|8,3:0|0:0,0:0:0:0:
136,176,36978,1,8,0:1:0:0:
256,48,37138,2,0,L|172:40,1,71.25,4|0,3:0|0:0,0:0:0:0:
391,113,37457,2,0,L|475:105,1,71.25,8|0,0:0|0:0,0:0:0:0:
232,288,37776,6,0,P|227:252|239:219,1,71.25,4|2,3:0|0:0,0:0:0:0:
244,272,38095,6,0,P|241:254|247:237,1,35.625,10|8,0:1|0:0,0:0:0:0:
461,106,38414,6,0,L|390:112,1,71.25,4|0,3:0|0:0,0:0:0:0:
256,48,38734,1,8,0:0:0:0:
344,36,38893,1,0,0:0:0:0:
239,218,39053,6,0,P|203:221|170:209,1,71.25,0|2,3:0|0:0,0:0:0:0:
101,128,39372,1,8,0:0:0:0:
256,48,39532,1,8,0:1:0:0:
101,128,39691,2,0,P|94:93|75:64,1,71.25,4|0,3:0|0:0,0:0:0:0:
63,228,40010,2,0,P|36:251|21:283,1,71.25,8|0,0:0|0:0,0:0:0:0:
240,344,40329,5,4,3:0:0:0:
150,356,40489,1,2,0:0:0:0:
21,282,40808,5,8,0:0:0:0:
240,344,40968,5,4,3:0:0:0:
150,356,41127,1,2,0:0:0:0:
21,282,41446,5,2,2:0:0:0:
240,344,41606,5,12,3:0:0:0:
150,356,41766,1,0,0:0:0:0:
361,300,41925,5,12,3:0:0:0:
308,372,42085,1,8,0:0:0:0:
417,183,42244,5,12,3:0:0:0:
430,272,42404,1,0,0:0:0:0:
374,61,42563,6,0,L|346:18,1,35.625,6|0,3:0|0:0,0:0:0:0:
446,114,42723,2,0,L|456:64,1,35.625,6|0,3:0|0:0,0:0:0:0:
200,192,42883,6,0,L|56:200,1,142.5,4|2,0:1|3:0,0:0:0:0:
4,128,43361,1,8,0:0:0:0:
63,56,43521,2,0,P|99:54|131:69,1,71.25,4|0,3:0|0:0,0:0:0:0:
222,257,43840,2,0,P|203:227|199:191,1,71.25,8|0,0:0|0:0,0:0:0:0:
271,70,44159,6,0,L|413:77,1,142.5,4|8,3:0|0:0,0:0:0:0:
413,77,44638,1,8,0:1:0:0:
332,264,44797,6,0,L|320:340,1,71.25,10|0,0:0|0:0,0:0:0:0:
404,192,45117,2,0,L|416:268,1,71.25,8|0,0:1|0:0,0:0:0:0:
188,288,45436,6,0,P|121:267|64:312,1,142.5,0|2,3:0|3:0,0:0:0:0:
135,341,45914,1,8,0:0:0:0:
190,200,46074,2,0,P|199:165|194:130,1,71.25,4|0,3:0|0:0,0:0:0:0:
66,78,46393,2,0,P|57:113|62:148,1,71.25,8|0,0:0|0:0,0:0:0:0:
194,130,46712,5,4,3:0:0:0:
271,104,46872,1,0,0:0:0:0:
338,152,47032,1,8,0:0:0:0:
338,152,47191,1,8,0:1:0:0:
309,279,47351,5,4,3:0:0:0:
390,290,47510,1,0,0:0:0:0:
447,232,47670,1,8,0:0:0:0:
447,232,47829,1,0,0:0:0:0:
200,340,47989,6,0,L|57:334,1,142.5,4|2,3:0|3:0,0:0:0:0:
16,260,48468,1,8,0:0:0:0:
68,188,48627,2,0,P|79:154|76:119,1,71.25,4|2,3:0|0:0,0:0:0:0:
164,84,48946,2,0,P|148:52|121:28,1,71.25,8|0,0:0|0:0,0:0:0:0:
256,192,49266,6,0,L|327:189,3,71.25,4|2|8|8,3:0|0:0|0:0|0:1,0:0:0:0:
368,280,49904,1,4,3:0:0:0:
393,264,50063,1,0,0:0:0:0:
409,236,50223,1,8,0:0:0:0:
416,148,50383,1,0,0:0:0:0:
256,192,50542,5,2,3:0:0:0:
176,176,50702,1,2,3:0:0:0:
196,251,50861,6,0,L|190:343,1,71.25,8|8,0:0|0:1,0:0:0:0:
256,192,51180,5,2,3:0:0:0:
176,176,51340,1,2,3:0:0:0:
196,251,51500,1,8,3:0:0:0:
196,251,51819,6,0,L|190:343,1,71.25,4|0,3:0|0:0,0:0:0:0:
416,148,52138,6,0,L|422:240,1,71.25,8|8,0:0|0:1,0:0:0:0:
64,52,52457,6,0,L|58:144,1,71.25,4|0,3:0|0:0,0:0:0:0:
60,320,52776,5,8,0:0:0:0:
64,332,52936,1,0,0:0:0:0:
196,251,53095,6,0,P|237:259|270:285,1,85.4999973907472,6|0,3:0|0:0,0:0:0:0:
321,358,53574,1,8,0:0:0:0:
420,219,53734,1,4,3:0:0:0:
420,219,54053,2,0,L|424:176,1,42.7499986953736,8|0,0:0|0:0,0:0:0:0:
327,50,54372,6,0,B|331:41|331:41|343:143,1,106.874996738434,2|0,3:0|0:0,0:0:0:0:
342,137,54851,1,8,0:0:0:0:
287,247,55010,2,0,P|242:252|206:234,1,85.4999973907472,4|8,3:0|0:0,0:0:0:0:
260,167,55489,1,2,0:0:0:0:
170,313,55649,6,0,P|134:284|121:246,1,85.4999973907472,4|0,3:0|0:0,0:0:0:0:
207,235,56128,1,8,0:0:0:0:
40,258,56287,1,4,3:0:0:0:
40,258,56606,2,0,L|47:196,1,42.7499986953736,8|0,0:0|0:0,0:0:0:0:
99,78,56925,6,0,B|103:69|103:69|115:171,1,106.874996738434,2|0,3:0|0:0,0:0:0:0:
114,165,57404,1,8,0:0:0:0:
207,235,57563,1,4,3:0:0:0:
283,197,57723,1,2,3:0:0:0:
195,240,57883,1,4,3:0:0:0:
294,191,58042,1,2,0:0:0:0:
401,118,58202,5,8,0:0:0:0:
294,64,58362,1,8,0:0:0:0:
417,126,58522,1,8,0:0:0:0:
286,64,58681,1,8,0:0:0:0:
286,64,58760,1,8,0:0:0:0:
286,64,58840,1,4,3:0:0:0:
389,5,59000,1,2,0:0:0:0:
494,115,59159,2,0,P|495:137|490:157,1,42.7499986953736,8|0,0:0|0:0,0:0:0:0:
430,299,59478,6,0,B|425:307|425:307|414:211,1,106.874996738434,2|0,3:0|0:0,0:0:0:0:
414,211,59957,1,8,0:0:0:0:
270,348,60117,1,4,3:0:0:0:
288,220,60276,1,4,3:0:0:0:
149,253,60436,1,8,0:0:0:0:
131,125,60595,1,2,0:0:0:0:
270,348,60755,5,4,3:0:0:0:
270,348,61872,6,0,L|266:370,1,21.3749993476868,2|2,0:0|0:0,0:0:0:0:
174,269,62032,6,0,L|161:198,1,71.2500027179719,12|0,3:0|0:0,0:0:0:0:
230,82,62244,6,0,L|297:106,1,71.2500027179719,12|0,3:0|2:0,2:0:0:0:
363,224,62457,6,0,L|309:270,1,71.2500027179719,12|0,3:0|2:0,2:0:0:0:
256,184,62670,6,0,B|256:208|256:208|240:190,1,42.75,4|0,3:0|0:0,0:0:0:0:
63,71,63308,6,0,P|104:79|134:109,1,85.4999973907472,4|2,1:0|0:0,0:0:0:0:
64,154,63787,1,8,0:0:0:0:
204,23,63946,6,0,P|236:68|243:124,1,114,4|8,3:0|0:0,0:0:0:0:
134,109,64425,1,2,0:0:0:0:
381,110,64585,6,0,P|369:179|326:235,1,142.5,4|2,3:0|0:0,0:0:0:0:
405,21,65063,1,8,0:0:0:0:
481,59,65223,6,0,L|495:131,1,64.1249980430604,4|2,3:0|0:0,0:0:0:0:
478,287,65702,1,2,0:0:0:0:
365,296,65861,6,0,P|395:280|386:313,1,85.4999973907472,4|0,3:0|0:0,0:0:0:0:
438,208,66340,1,8,0:0:0:0:
200,208,66500,6,0,P|245:207|216:241,1,114,4|8,3:0|0:0,0:0:0:0:
336,142,66979,1,2,0:0:0:0:
45,80,67138,6,0,P|96:102|45:126,1,142.5,4|4,3:0|3:0,0:0:0:0:
66,296,67617,1,8,0:0:0:0:
133,249,67776,6,0,L|142:172,1,64.1249980430604,4|2,3:0|0:0,0:0:0:0:
318,121,68255,1,2,0:0:0:0:
366,182,68414,6,0,P|406:173|431:139,1,85.4999973907472,4|2,3:0|0:0,0:0:0:0:
396,61,68893,1,8,0:0:0:0:
309,270,69053,6,0,P|353:236|365:181,1,114,4|8,3:0|0:0,0:0:0:0:
319,90,69532,1,2,0:0:0:0:
396,367,69691,6,0,P|369:301|307:269,1,142.5,4|8,3:0|0:0,0:0:0:0:
264,157,70170,1,8,0:0:0:0:
295,370,70329,1,4,3:0:0:0:
134,288,70649,1,8,0:0:0:0:
134,288,70808,1,8,0:0:0:0:
100,96,70968,5,2,0:0:0:0:
181,125,71127,1,2,0:0:0:0:
100,96,71606,5,2,0:0:0:0:
181,125,71765,1,2,0:0:0:0:
100,96,72244,5,2,0:0:0:0:
264,157,72563,1,4,3:0:0:0:
181,125,72723,6,0,L|174:145,2,21.3749993476868,8|8|4,0:0|0:0|3:0,0:0:0:0:
208,46,73042,1,8,3:0:0:0:
146,220,73202,1,4,3:0:0:0:
419,322,73521,6,0,L|502:316,1,57,4|0,1:0|0:0,0:0:0:0:
358,240,73840,2,0,L|441:234,1,57,8|0,0:0|1:0,0:0:0:0:
298,155,74159,2,0,L|381:149,1,57,0|0,1:0|0:0,0:0:0:0:
228,281,74478,5,8,0:0:0:0:
228,281,74638,1,2,0:0:0:0:
228,281,74797,2,0,L|222:364,1,57,0|0,1:0|0:0,0:0:0:0:
145,220,75116,2,0,L|139:303,1,57,8|8,0:0|1:2,0:0:0:0:
61,160,75435,2,0,L|55:243,1,57,0|0,1:0|0:0,0:0:0:0:
134,74,75755,5,8,0:0:0:0:
134,74,75914,1,8,0:0:0:0:
134,74,76074,6,0,L|178:71,1,42.75,6|0,1:0|0:0,0:0:0:0:
201,68,76393,1,8,0:0:0:0:
334,1,76553,1,8,1:2:0:0:
288,215,76712,6,0,L|281:155,1,57,0|0,1:0|0:0,0:0:0:0:
419,108,77032,2,0,L|415:162,1,42.75,8|0,0:0|0:0,0:0:0:0:
415,169,77351,5,4,3:0:0:0:
290,128,77510,1,0,0:0:0:0:
259,312,77670,5,8,0:0:0:0:
374,279,77829,1,0,1:0:0:0:
179,164,77989,6,0,L|172:241,1,57,4|0,3:0|0:0,0:0:0:0:
89,96,78308,2,0,L|82:164,1,57,12|0,3:0|0:0,0:0:0:0:
46,324,78627,6,0,P|77:318|123:321,1,57,4|0,1:0|0:0,0:0:0:0:
117,227,78946,2,0,P|148:221|194:224,1,57,8|0,0:0|1:0,0:0:0:0:
202,131,79266,2,0,P|233:125|279:128,1,57,0|0,1:0|0:0,0:0:0:0:
435,39,79585,5,8,0:0:0:0:
435,39,79744,1,2,0:0:0:0:
435,39,79904,2,0,P|428:87|430:120,1,57,0|0,1:0|0:0,0:0:0:0:
332,100,80223,2,0,P|325:148|327:181,1,57,8|8,0:0|1:2,0:0:0:0:
232,177,80542,2,0,P|225:225|227:258,1,57,0|0,1:0|0:0,0:0:0:0:
299,343,80861,5,8,0:0:0:0:
299,343,81021,1,8,0:0:0:0:
299,343,81180,2,0,P|362:352|416:308,1,114,0|8,1:0|0:0,0:0:0:0:
464,244,81659,1,0,1:0:0:0:
356,162,81819,5,4,3:0:0:0:
245,191,81978,1,0,0:0:0:0:
348,136,82138,1,8,0:0:0:0:
231,170,82297,1,0,0:0:0:0:
342,52,82457,6,0,P|375:55|408:73,1,57,12|0,3:0|0:0,0:0:0:0:
293,255,82776,2,0,P|266:265|238:267,1,57,4|8,3:0|0:0,0:0:0:0:
143,45,83095,6,0,P|176:48|209:66,1,57,12|0,3:0|0:0,0:0:0:0:
94,248,83414,2,0,P|67:258|39:260,1,57,12|2,3:0|0:0,0:0:0:0:
124,143,83734,5,6,0:0:0:0:
164,325,84053,1,8,0:0:0:0:
241,343,84212,1,8,0:1:0:0:
319,356,84372,1,2,0:0:0:0:
319,356,84691,1,8,0:0:0:0:
479,247,85010,5,2,0:0:0:0:
378,90,85329,1,8,0:0:0:0:
300,101,85488,1,8,0:1:0:0:
222,114,85648,1,4,0:3:0:0:
222,114,85968,6,0,P|176:105|150:91,1,57,8|0,0:0|0:0,0:0:0:0:
293,33,86287,6,0,L|296:85,1,42.75,6|0,1:0|0:0,0:0:0:0:
299,101,86606,1,8,0:0:0:0:
468,40,86766,1,8,1:2:0:0:
419,277,86925,6,0,P|378:260|347:264,1,57,4|0,3:0|0:0,0:0:0:0:
235,340,87244,2,0,P|262:339|281:330,1,42.75,8|0,0:0|0:0,0:0:0:0:
297,317,87563,5,4,3:0:0:0:
156,261,87723,1,2,0:0:0:0:
203,106,87883,5,8,0:0:0:0:
62,162,88043,1,0,1:0:0:0:
291,217,88202,6,0,P|339:204|357:184,1,57,4|0,3:0|0:0,0:0:0:0:
424,59,88521,2,0,P|397:33|386:-5,1,57,12|0,3:0|0:0,0:0:0:0:
512,241,88840,6,0,L|509:319,1,57,4|0,1:0|0:0,0:0:0:0:
427,195,89159,2,0,L|424:273,1,57,8|0,0:0|1:0,0:0:0:0:
345,143,89478,2,0,L|342:221,1,57,0|0,1:0|0:0,0:0:0:0:
261,349,89797,5,8,0:0:0:0:
261,349,89957,1,2,0:0:0:0:
261,349,90117,2,0,L|183:346,1,57,0|0,1:0|0:0,0:0:0:0:
194,259,90436,2,0,L|116:256,1,57,8|8,0:0|1:2,0:0:0:0:
137,166,90755,2,0,L|59:163,1,57,0|0,1:0|0:0,0:0:0:0:
185,45,91074,5,8,0:0:0:0:
254,173,91234,1,8,0:0:0:0:
311,92,91393,2,0,L|318:16,1,57,0|0,1:0|0:0,0:0:0:0:
254,173,91712,5,8,0:0:0:0:
394,156,91872,1,8,1:2:0:0:
311,92,92032,1,2,1:2:0:0:
305,111,92191,1,0,0:0:0:0:
379,252,92351,1,8,0:0:0:0:
386,275,92510,1,0,0:0:0:0:
118,346,92670,5,12,3:0:0:0:
36,248,92829,1,0,0:0:0:0:
159,95,92989,6,0,L|146:250,1,142.5,12|12,3:0|3:0,0:0:0:0:
147,237,93468,1,0,0:0:0:0:
271,314,93627,1,4,3:0:0:0:
348,331,93787,2,8,L|374:336,2,17.8125
378,124,93946,6,0,P|396:102|419:85,1,57,4|2,3:0|0:0,0:0:0:0:
395,131,94266,6,0,P|407:117|422:108,1,35.625,2|8,1:0|0:0,0:0:0:0:
370,228,94585,1,4,3:0:0:0:
251,132,94744,2,0,L|223:137,4,17.8125,0|0|2|2|8,0:0|0:0|0:0|0:0|0:0,0:0:0:0:
282,213,95063,1,0,0:0:0:0:
296,56,95223,6,0,B|316:42|323:16|323:16|306:74|334:126,1,142.5,4|8,3:1|0:0,0:0:0:0:
282,213,95702,1,8,0:0:0:0:
187,338,95861,1,4,3:0:0:0:
118,348,96021,1,0,0:0:0:0:
141,268,96180,1,8,0:0:0:0:
81,232,96340,1,2,0:0:0:0:
169,33,96500,6,0,L|177:103,1,71.25,6|0,0:1|0:0,0:0:0:0:
191,53,96819,6,0,L|195:88,1,35.625,2|8,1:0|0:0,0:0:0:0:
282,213,97138,1,4,3:0:0:0:
309,115,97297,1,0,0:0:0:0:
380,187,97457,1,8,0:0:0:0:
339,313,97617,2,0,L|336:334,2,17.8125,0|0|2,0:0|0:0|0:0,0:0:0:0:
390,257,97776,6,0,L|379:186,1,71.25,4|0,3:0|0:0,0:0:0:0:
318,44,98095,2,0,L|308:115,1,71.25,8|8,0:0|0:0,0:0:0:0:
186,199,98414,1,4,3:0:0:0:
96,206,98574,1,0,0:0:0:0:
197,287,98734,1,8,0:0:0:0:
107,294,98894,1,8,0:0:0:0:
132,118,99053,6,0,P|144:78|141:37,1,71.25,4|0,3:0|0:0,0:0:0:0:
117,102,99372,6,0,P|122:85|122:67,1,35.625,2|8,1:1|0:0,0:0:0:0:
186,199,99691,1,4,3:0:0:0:
271,240,99851,1,0,0:0:0:0:
354,204,100010,1,8,0:0:0:0:
440,232,100170,1,0,0:0:0:0:
271,240,100329,21,4,3:0:0:0:
424,141,100489,1,4,3:0:0:0:
271,250,100649,1,8,0:0:0:0:
362,76,100808,1,8,0:0:0:0:
271,260,100968,5,4,3:0:0:0:
216,350,101127,1,0,0:0:0:0:
167,259,101287,2,0,L|123:267,1,35.625,8|0,0:0|0:0,0:0:0:0:
75,324,101446,2,0,L|39:317,1,35.625,8|0,0:0|0:0,0:0:0:0:
33,156,101606,5,4,3:0:0:0:
54,240,101766,1,2,0:0:0:0:
75,324,102085,5,8,0:0:0:0:
33,156,102244,5,4,3:0:0:0:
54,240,102404,1,2,0:0:0:0:
75,324,102723,5,0,0:0:0:0:
33,156,102882,5,12,3:0:0:0:
54,240,103042,1,0,0:0:0:0:
157,66,103202,5,8,0:0:0:0:
112,140,103362,1,8,0:0:0:0:
313,86,103521,5,12,3:0:0:0:
228,106,103681,1,4,3:0:0:0:
400,216,103840,5,12,3:0:0:0:
381,203,103919,1,2,0:0:0:0:
362,191,103999,1,2,0:0:0:0:
343,179,104079,1,2,0:0:0:0:
324,166,104159,6,0,P|364:149|388:115,1,85.4999973907472,4|0,3:0|0:0,0:0:0:0:
313,86,104638,1,8,0:0:0:0:
294,269,104797,6,0,P|351:271|399:242,1,114,4|8,3:0|0:0,0:0:0:0:
324,166,105276,1,2,0:0:0:0:
166,224,105436,6,0,P|156:293|186:358,1,142.5,4|2,3:0|0:0,0:0:0:0:
294,269,105915,1,8,0:0:0:0:
144,129,106074,2,0,L|74:139,2,64.1249980430604,4|2|2,3:0|0:0|0:0,0:0:0:0:
216,45,106712,6,0,L|300:57,1,85.4999973907472,4|2,3:0|0:0,0:0:0:0:
386,73,107191,1,8,0:0:0:0:
349,299,107351,6,0,L|365:186,1,114,4|8,3:0|0:0,0:0:0:0:
386,73,107830,1,2,0:0:0:0:
74,24,107989,6,0,L|220:44,1,142.5,4|8,3:0|0:0,0:0:0:0:
386,73,108468,1,8,0:0:0:0:
265,188,108627,2,0,P|264:227|281:267,2,64.1249980430604,4|2|2,3:0|0:0|0:0,0:0:0:0:
164,309,109266,6,0,P|178:268|176:226,1,85.4999973907472,4|2,3:0|0:0,0:0:0:0:
116,160,109744,1,8,0:0:0:0:
0,33,109904,6,0,P|5:89|31:139,1,114,4|8,3:0|0:0,0:0:0:0:
201,147,110382,1,2,0:0:0:0:
71,351,110542,6,0,P|54:282|-1:226,1,142.5,4|8,3:0|0:0,0:0:0:0:
116,160,111021,1,8,0:0:0:0:
201,147,111180,1,4,3:0:0:0:
146,57,111500,5,8,0:0:0:0:
171,245,111659,1,8,0:0:0:0:
116,160,111819,5,4,3:0:0:0:
116,160,112457,5,4,3:0:0:0:
200,146,112776,5,4,0:3:0:0:
200,146,112936,1,4,0:3:0:0:
116,160,113095,5,8,0:3:0:0:
200,146,113414,5,4,0:3:0:0:
116,160,113573,5,8,0:3:0:0:
116,160,113893,5,4,0:3:0:0:
200,146,114052,5,8,0:3:0:0:
200,146,114372,6,0,L|313:159,1,106.875004076958,4|0,1:0|0:0,0:0:0:0:
246,250,114691,2,0,L|359:263,1,106.875004076958,8|0,0:0|1:0,0:0:0:0:
293,356,115010,2,0,L|406:369,1,106.875004076958,0|0,1:0|0:0,0:0:0:0:
293,356,115329,1,8,1:2:0:0:
246,250,115489,1,2,0:0:0:0:
200,146,115649,6,0,L|273:154,1,71.25,0|2,1:0|0:0,0:0:0:0:
246,250,115968,2,0,L|319:258,1,71.25,8|0,1:2|1:0,0:0:0:0:
293,356,116287,2,0,L|366:364,1,71.25,0|0,1:0|0:0,0:0:0:0:
293,356,116606,1,8,1:2:0:0:
246,250,116766,1,2,0:0:0:0:
200,146,116925,5,4,1:0:0:0:
270,154,117085,2,0,L|200:146,1,71.25,2|8,0:1|1:2,0:0:0:0:
363,20,117404,5,0,1:0:0:0:
433,11,117564,2,0,L|362:19,1,71.25,4|0,3:0|0:0,0:0:0:0:
270,154,117883,2,0,L|199:145,1,71.25,8|0,1:2|0:0,0:0:0:0:
71,33,118202,5,4,3:0:0:0:
199,145,118361,1,2,0:0:0:0:
52,248,118521,2,0,L|122:239,1,71.25,8|0,0:0|1:0,0:0:0:0:
46,67,118840,5,12,3:0:0:0:
191,155,118999,1,2,0:0:0:0:
64,282,119159,2,0,L|133:262,1,71.25,12|2,1:3|0:0,0:0:0:0:
420,330,119478,6,0,P|367:334|320:312,1,106.875004076958,4|0,1:0|0:0,0:0:0:0:
470,173,119797,2,0,P|435:213|386:231,1,106.875004076958,8|0,0:0|1:0,3:0:0:0:
394,27,120117,2,0,P|398:80|376:127,1,106.875004076958,0|0,1:0|0:0,3:0:0:0:
394,27,120436,1,8,1:2:0:0:
470,173,120595,1,2,0:0:0:0:
420,327,120755,6,0,P|369:330|322:308,1,71.25,0|0,1:0|0:0,0:0:0:0:
470,173,121074,2,0,P|436:212|388:229,1,71.25,8|0,1:2|1:0,3:0:0:0:
394,27,121394,2,0,P|398:78|376:125,1,71.25,4|0,3:0|3:0,3:0:0:0:
394,27,121712,1,8,1:2:0:0:
470,173,121871,1,0,1:0:0:0:
420,327,122032,5,0,1:0:0:0:
126,231,122351,5,8,1:2:0:0:
120,248,122510,1,0,1:0:0:0:
42,173,122670,5,4,3:0:0:0:
153,137,122829,1,2,0:0:0:0:
255,193,122989,1,0,1:0:0:0:
285,260,123149,1,2,0:0:0:0:
354,285,123308,5,12,3:0:0:0:
372,281,123467,1,2,0:0:0:0:
346,386,123627,5,12,3:0:0:0:
255,193,123787,1,0,1:0:0:0:
354,98,123946,5,12,3:0:0:0:
372,102,124105,1,0,0:0:0:0:
153,137,124266,5,12,3:0:0:0:
135,140,124425,1,0,0:0:0:0:
256,344,124585,6,0,B|271:280|271:280|257:242,1,106.875004076958,4|0,1:0|0:0,0:0:0:0:
387,116,124904,6,0,B|324:135|324:135|298:166,1,106.875004076958,8|0,0:0|1:0,0:0:0:0:
124,115,125223,6,0,B|172:160|172:160|212:167,1,106.875004076958,4|0,3:0|0:0,0:0:0:0:
124,115,125542,5,8,1:2:0:0:
387,116,125702,5,2,0:0:0:0:
256,344,125861,6,0,B|265:301|265:301|256:276,1,71.25,0|2,1:0|0:0,0:0:0:0:
387,116,126180,2,0,B|345:128|345:128|327:149,1,71.25,8|0,1:2|1:0,0:0:0:0:
124,115,126499,2,0,B|155:144|155:144|182:149,1,71.25,0|0,1:0|0:0,0:0:0:0:
124,115,126819,5,8,1:2:0:0:
387,116,126979,5,2,0:0:0:0:
256,332,127138,5,4,1:0:0:0:
257,263,127297,2,0,B|266:288|266:288|256:330,1,71.25,2|8,0:1|1:2,0:0:0:0:
72,344,127617,5,0,1:0:0:0:
62,273,127776,2,0,B|74:365,1,71.25,2|0,1:2|0:0,0:0:0:0:
166,140,128095,2,0,B|175:69,1,71.25,0|0,1:0|0:0,0:0:0:0:
72,124,128414,5,12,3:0:0:0:
254,227,128574,1,2,0:0:0:0:
378,111,128734,2,0,B|308:102,1,71.25,8|0,1:2|1:0,0:0:0:0:
73,118,129053,5,12,3:0:0:0:
251,227,129213,1,2,0:0:0:0:
379,116,129373,2,0,B|309:104,1,71.25,8|0,1:2|1:0,0:0:0:0:
72,344,129691,5,4,1:0:0:0:
108,268,130010,1,8,0:0:0:0:
72,344,130329,1,4,3:0:0:0:
72,344,130648,5,8,1:2:0:0:
108,268,130808,5,2,0:0:0:0:
72,344,130968,5,0,1:0:0:0:
108,268,131287,1,8,1:2:0:0:
72,344,131606,1,4,3:0:0:0:
72,344,131925,5,8,1:2:0:0:
108,268,132085,5,0,1:0:0:0:
72,344,132244,5,4,1:0:0:0:
72,344,132563,5,8,1:2:0:0:
72,344,132883,5,4,3:0:0:0:
272,288,133202,5,0,1:0:0:0:
364,304,133521,5,12,3:0:0:0:
428,264,133840,6,0,L|432:222,2,35.625,12|2|12,3:0|0:0|3:0,0:0:0:0:
116,247,134478,2,0,P|101:237|84:230,1,35.625,2|8,0:0|0:0,0:0:0:0:
60,340,134797,1,4,0:3:0:0:
364,80,135117,5,8,1:0:0:0:
442,246,135276,2,0,L|439:268,1,21.375,2|2,3:1|3:1,0:0:0:0:
364,80,136393,5,8,1:0:0:0:
442,246,136553,2,0,L|439:268,1,21.375,2|8,3:1|0:1,0:0:0:0:
364,80,137351,5,6,1:0:0:0:
465,237,137510,2,0,P|410:287|459:231,1,213.750008153916,2|0,0:1|0:1,0:0:0:0:
