osu file format v14

[General]
AudioFilename: audio.mp3
AudioLeadIn: 0
PreviewTime: 30741
Countdown: 0
SampleSet: Soft
StackLeniency: 0.7
Mode: 0
LetterboxInBreaks: 0
WidescreenStoryboard: 1

[Editor]
Bookmarks: 2018,31698,53081,73507,92975,111805,134783
DistanceSpacing: 1.4
BeatDivisor: 4
GridSize: 4
TimelineZoom: 1

[Metadata]
Title:Medicina
TitleUnicode:Medicina
Artist:Anitta
ArtistUnicode:Anitta
Creator:MkGuh
Version:Dificil
Source:
Tags:Synitri Larissa de Macedo Machado funk pop spanish brazil espanol brasil br irreversible voli happyrocket88
BeatmapID:2729814
BeatmapSetID:863183

[Difficulty]
HPDrainRate:4.5
CircleSize:3.8
OverallDifficulty:7.5
ApproachRate:7.5
SliderMultiplier:2.5
SliderTickRate:4

[Events]
//Background and Video events
Video,-564,"anita la huerfanita.mp4"
0,0,"si te pegas por atras.jpg",0,0
//Break Periods
//Storyboard Layer 0 (Background)
//Storyboard Layer 1 (Fail)
//Storyboard Layer 2 (Pass)
//Storyboard Layer 3 (Foreground)
//Storyboard Layer 4 (Overlay)
//Storyboard Sound Samples

[TimingPoints]
2032,638.297872340426,4,2,1,60,1,0
2032,-111.111111111111,4,2,1,60,0,0
6819,-100,4,2,1,60,0,0
7138,-111.111111111111,4,2,1,60,0,0
9212,-100,4,2,1,60,0,0
9691,-111.111111111111,4,2,1,60,0,0
11446,-111.111111111111,4,2,1,60,0,0
12244,-66.6666666666667,4,2,1,75,0,0
12484,-100,4,2,1,5,0,0
12563,-100,4,2,1,65,0,0
14478,-100,4,2,1,65,0,0
14797,-100,4,2,1,65,0,0
17032,-166.666666666667,4,2,1,65,0,0
17191,-100,4,2,1,55,0,0
17351,-100,4,2,1,45,0,0
17670,-100,4,2,1,65,0,0
20223,-125,4,2,1,65,0,0
20542,-166.666666666667,4,2,1,50,0,0
20861,-100,4,2,1,30,0,0
21180,-83.3333333333333,4,2,1,70,0,0
21420,-83.3333333333333,4,2,1,5,0,0
21500,-83.3333333333333,4,2,1,70,0,0
22058,-83.3333333333333,4,2,1,5,0,0
22138,-83.3333333333333,4,2,1,70,0,0
22457,-100,4,2,1,80,0,1
30994,-100,4,2,1,5,0,1
31074,-142.857142857143,4,2,1,80,0,1
31313,-142.857142857143,4,2,1,5,0,1
31393,-100,4,2,1,65,0,1
31633,-100,4,2,1,5,0,1
31712,-100,4,2,1,70,0,1
32271,-100,4,2,1,5,0,1
32351,-166.666666666667,4,2,1,70,0,1
32590,-166.666666666667,4,2,1,5,0,1
32670,-100,4,2,1,70,0,0
32989,-100,4,2,1,70,0,0
33308,-100,4,2,1,70,0,0
35542,-100,4,2,1,70,0,0
35861,-71.4285714285714,4,2,1,80,0,0
36180,-100,4,2,1,70,0,0
38095,-100,4,2,1,70,0,0
38414,-100,4,2,1,70,0,0
41845,-100,4,2,1,5,0,0
41925,-100,4,2,1,70,0,0
42164,-100,4,2,1,5,0,0
42244,-100,4,2,1,70,0,0
42484,-100,4,2,1,5,0,0
42563,-100,4,2,1,70,0,0
42883,-100,4,2,1,70,0,0
53095,-133.333333333333,4,2,1,70,0,0
54771,-100,4,2,1,5,0,0
54851,-100,4,2,1,70,0,0
57324,-100,4,2,1,5,0,0
57404,-100,4,2,1,70,0,0
59877,-100,4,2,1,5,0,0
59957,-100,4,2,1,70,0,0
62032,-100,4,2,1,70,0,0
62670,-125,4,2,1,70,0,0
63308,-100,4,2,1,70,0,0
63946,-100,4,2,1,70,0,0
64585,-100,4,2,1,70,0,0
65223,-100,4,2,1,70,0,0
65861,-100,4,2,1,70,0,0
66499,-100,4,2,1,70,0,0
67138,-100,4,2,1,70,0,0
67776,-100,4,2,1,70,0,0
68414,-100,4,2,1,70,0,0
69052,-100,4,2,1,70,0,0
69691,-100,4,2,1,70,0,0
72723,-100,4,2,1,70,0,0
73521,-100,4,2,1,80,0,1
76074,-100,4,2,1,90,0,1
76712,-100,4,2,1,80,0,1
77032,-100,4,2,1,80,0,1
77989,-100,4,2,1,80,0,1
83734,-133.333333333333,4,2,1,70,0,0
86287,-83.3333333333333,4,2,1,90,0,1
86925,-100,4,2,1,80,0,1
87244,-100,4,2,1,80,0,1
87563,-100,4,2,1,80,0,1
92032,-133.333333333333,4,2,1,60,0,1
92271,-100,4,2,1,5,0,1
92351,-100,4,2,1,75,0,1
92670,-100,4,2,1,83,0,1
92909,-100,4,2,1,5,0,1
92989,-133.333333333333,4,2,1,83,0,1
93946,-100,4,2,1,70,0,0
94266,-100,4,2,1,70,0,0
94585,-100,4,2,1,70,0,0
96819,-100,4,2,1,70,0,0
97138,-100,4,2,1,70,0,0
99372,-100,4,2,1,70,0,0
99691,-100,4,2,1,70,0,0
104159,-100,4,2,1,70,0,0
104797,-100,4,2,1,70,0,0
105436,-100,4,2,1,70,0,0
106074,-100,4,2,1,70,0,0
106712,-100,4,2,1,70,0,0
107350,-100,4,2,1,70,0,0
107989,-100,4,2,1,70,0,0
108627,-100,4,2,1,70,0,0
109265,-100,4,2,1,70,0,0
109903,-100,4,2,1,70,0,0
110542,-100,4,2,1,70,0,0
112457,-125,4,2,1,60,0,0
114372,-100,4,2,1,80,0,1
115649,-100,4,2,1,80,0,1
117085,-100,4,2,1,90,0,1
117244,-100,4,2,1,80,0,1
119478,-100,4,2,1,80,0,1
120755,-100,4,2,1,80,0,1
124266,-100,4,2,1,80,0,0
124585,-100,4,2,1,80,0,1
125861,-100,4,2,1,80,0,1
127297,-100,4,2,1,90,0,1
127457,-100,4,2,1,80,0,1
134797,-100,4,2,1,45,0,0
135276,-100,4,2,1,45,0,0
137351,-100,4,2,1,80,0,0
137510,-100,4,2,1,70,0,0
137590,-100,4,2,1,5,0,0

[Colours]
Combo1 : 239,209,105
Combo2 : 250,205,175
Combo3 : 235,151,139

[HitObjects]
84,246,2032,6,0,B|93:212|80:193|66:175|80:127,1,112.499996566773,2|2,0:0|0:0,0:0:0:0:
134,80,2510,2,0,P|168:80|225:139,1,112.499996566773,2|0,0:3|0:0,0:0:0:0:
293,175,2989,1,2,0:3:0:0:
293,175,3149,1,0,0:0:0:0:
366,152,3308,6,0,B|386:190|386:190|375:271,1,112.499996566773,2|2,0:0|0:0,0:0:0:0:
351,333,3787,1,2,0:3:0:0:
278,301,3946,2,0,L|218:312,1,56.2499982833863,0|0,0:0|0:0,0:0:0:0:
171,253,4266,1,2,3:0:0:0:
171,253,4425,1,8,0:0:0:0:
235,195,4585,6,0,P|246:145|210:98,1,112.499996566773,2|2,0:0|0:0,0:0:0:0:
142,60,5063,2,0,L|271:57,1,112.499996566773,2|0,0:3|0:0,0:0:0:0:
326,89,5542,1,2,0:3:0:0:
393,48,5702,1,0,0:0:0:0:
449,102,5861,6,0,L|437:169,1,56.2499982833863,2|0,0:0|0:0,0:0:0:0:
475,227,6180,2,0,L|484:290,1,56.2499982833863,2|2,0:0|0:3,0:0:0:0:
424,336,6500,2,0,L|356:326,1,56.2499982833863,0|0,0:0|0:0,0:0:0:0:
285,298,6819,2,0,L|211:312,1,62.5,2|0,0:3|0:0,0:0:0:0:
147,286,7138,6,0,P|126:227|149:175,1,112.499996566773,2|2,0:0|0:0,0:0:0:0:
202,130,7617,2,0,B|159:144|159:144|85:115,1,112.499996566773,2|0,0:3|0:0,0:0:0:0:
29,77,8095,1,2,0:3:0:0:
89,25,8255,1,0,0:0:0:0:
167,66,8414,5,2,0:0:0:0:
167,66,8574,1,0,0:0:0:0:
240,38,8734,2,0,P|273:47|302:42,1,56.2499982833863,2|2,0:0|0:3,0:0:0:0:
340,110,9053,2,0,P|381:98|407:105,1,56.2499982833863,0|0,0:0|0:0,0:0:0:0:
485,33,9372,1,8,0:0:0:0:
485,33,9532,1,8,0:0:0:0:
485,33,9691,6,0,P|494:95|454:141,1,112.499996566773,2|2,0:0|0:0,0:0:0:0:
487,210,10170,2,0,L|359:220,1,112.499996566773,2|0,0:3|0:0,0:0:0:0:
302,190,10649,1,2,0:3:0:0:
302,190,10808,1,0,0:0:0:0:
200,278,10968,6,0,P|143:294|78:264,1,112.499996566773,2|2,0:0|0:0,0:0:0:0:
28,235,11446,2,0,L|37:118,1,112.499996566773,2|0,0:3|0:0,0:0:0:0:
78,56,11925,2,0,P|117:75|144:77,1,56.2499982833863,2|0,0:3|0:0,0:0:0:0:
129,76,12244,6,0,B|171:61|203:79|203:85|203:90|236:107|272:91,1,140.625005364418,6|0,3:1|0:0,0:0:0:0:
297,81,12563,6,0,P|315:129|310:163,1,62.5,2|8,0:0|0:0,0:0:0:0:
385,179,12883,2,0,L|370:325,1,125,4|8,3:0|0:0,0:0:0:0:
204,356,13521,5,4,3:0:0:0:
178,273,13680,1,0,0:0:0:0:
239,205,13840,1,2,0:0:0:0:
265,288,14000,1,8,0:0:0:0:
178,273,14159,2,0,P|113:225|107:169,1,125,4|0,3:0|1:0,0:0:0:0:
116,98,14638,1,8,0:0:0:0:
200,59,14797,6,0,L|328:72,1,125,4|2,3:0|0:0,0:0:0:0:
361,156,15276,1,8,0:0:0:0:
442,192,15436,2,0,L|446:271,2,62.5,4|0|8,3:0|0:0|0:0,0:0:0:0:
492,121,15914,1,0,0:0:0:0:
413,80,16074,2,0,L|423:12,1,62.5,4|0,3:0|0:0,0:0:0:0:
329,94,16393,2,0,L|339:26,1,62.5,8|8,0:0|0:1,0:0:0:0:
246,118,16712,2,0,L|256:48,1,62.5,4|0,3:0|0:0,0:0:0:0:
164,115,17032,6,0,L|169:163,2,37.4999988555909,8|2|4,0:0|0:0|3:0,0:0:0:0:
76,266,17670,5,2,0:0:0:0:
150,311,17829,1,8,0:0:0:0:
227,269,17989,2,0,P|285:250|344:270,1,125,4|8,3:0|0:0,0:0:0:0:
437,291,18468,1,2,0:0:0:0:
488,202,18627,2,0,P|485:164|493:131,1,62.5,4|0,3:0|0:0,0:0:0:0:
409,92,18946,2,0,P|415:58|405:18,1,62.5,2|8,0:0|0:0,0:0:0:0:
325,16,19266,2,0,L|191:28,1,125,4|8,0:3|0:0,0:0:0:0:
143,92,19744,1,8,0:0:0:0:
69,43,19904,5,4,3:0:0:0:
5,197,20223,2,0,L|16:253,1,50,0|2,0:0|0:0,0:0:0:0:
93,213,20542,6,0,L|119:332,1,112.499996566773,0|0,0:0|0:0,0:0:0:0:
217,344,21180,6,0,B|277:334|273:365|332:352,1,112.499996566773,12|0,3:0|0:0,0:0:0:0:
363,334,21500,1,12,3:0:0:0:
315,260,21659,1,8,0:0:0:0:
394,213,21819,2,0,P|414:157|387:103,1,112.499996566773,12|0,3:0|0:0,0:0:0:0:
369,81,22138,1,2,3:0:0:0:
290,121,22297,1,2,0:0:0:0:
213,66,22457,6,0,L|127:75,1,62.5,4|0,1:0|0:0,0:0:0:0:
130,157,22776,2,0,L|43:167,1,62.5,8|0,0:0|1:0,0:0:0:0:
62,251,23095,2,0,L|-24:260,1,62.5,0|0,1:0|0:0,0:0:0:0:
165,334,23414,5,8,1:2:0:0:
165,334,23574,1,2,0:0:0:0:
165,334,23734,2,0,L|174:266,1,62.5,0|2,1:0|0:0,0:0:0:0:
259,285,24053,2,0,L|269:203,1,62.5,8|8,0:0|1:2,0:0:0:0:
353,231,24372,2,0,L|362:156,1,62.5,0|0,1:0|0:0,0:0:0:0:
322,90,24691,1,8,1:2:0:0:
243,128,24851,1,2,0:0:0:0:
166,85,25010,2,0,P|95:65|37:98,1,125,0|8,1:0|1:2,0:0:0:0:
108,152,25489,1,8,1:2:0:0:
40,269,25649,5,6,1:0:0:0:
25,180,25808,2,0,L|34:253,1,62.5,0|8,0:0|0:0,0:0:0:0:
265,291,26287,6,0,L|275:225,2,62.5,0|0|0,1:0|0:0|1:0,0:0:0:0:
349,351,26766,1,8,1:2:0:0:
399,257,26925,2,0,L|384:196,1,62.5,0|0,1:0|0:0,0:0:0:0:
472,95,27244,2,0,L|487:158,1,62.5,0|0,1:0|0:0,0:0:0:0:
271,201,27563,6,0,P|233:198|204:185,1,62.5,4|0,1:0|0:0,0:0:0:0:
146,249,27883,2,0,P|125:205|124:172,1,62.5,8|0,0:0|1:0,0:0:0:0:
35,198,28202,2,0,P|45:149|62:124,1,62.5,0|0,1:0|0:0,0:0:0:0:
170,70,28521,5,8,1:2:0:0:
170,70,28680,1,2,0:0:0:0:
170,70,28840,2,0,P|211:61|234:41,1,62.5,0|2,1:0|0:0,0:0:0:0:
286,113,29159,2,0,P|313:75|317:36,1,62.5,8|8,0:0|1:2,0:0:0:0:
401,81,29478,2,0,P|401:35|386:3,1,62.5,0|0,1:0|0:0,0:0:0:0:
477,123,29797,1,8,1:2:0:0:
405,173,29957,1,8,0:0:0:0:
456,245,30117,2,0,P|400:223|333:253,1,125,0|8,1:0|1:2,0:0:0:0:
270,292,30595,1,0,1:0:0:0:
228,158,30755,6,0,P|195:223|210:267,1,93.75,2|0,1:2|0:0,0:0:0:0:
192,278,31074,2,0,P|153:258|115:260,1,65.624997997284,0|0,1:0|0:0,0:0:0:0:
94,271,31393,6,0,L|100:347,1,62.5,4|0,1:0|0:0,0:0:0:0:
8,314,31712,2,0,L|14:389,1,62.5,8|0,0:0|0:0,0:0:0:0:
60,186,32032,2,0,L|69:111,1,62.5,4|0,3:0|3:0,0:0:0:0:
11,44,32351,1,4,3:0:0:0:
11,44,32510,1,0,0:0:0:0:
152,132,32670,6,0,L|235:121,1,62.5,4|2,3:0|0:0,0:0:0:0:
293,68,32989,1,2,0:1:0:0:
293,68,33149,1,8,0:0:0:0:
309,173,33308,2,0,B|324:145|324:145|390:137|390:137|411:162,1,125,4|8,3:0|0:0,0:0:0:0:
376,319,33946,6,0,P|334:339|307:268,1,125,4|2,3:1|0:0,0:0:0:0:
376,229,34425,1,8,0:0:0:0:
452,285,34585,2,0,P|457:331|443:366,1,62.5,4|0,3:0|0:0,0:0:0:0:
376,229,34904,2,0,P|371:183|385:148,1,62.5,8|8,0:1|0:0,0:0:0:0:
481,133,35223,6,0,P|472:177|446:211,1,62.5,4|2,3:0|0:0,0:0:0:0:
298,282,35542,1,2,0:1:0:0:
298,282,35702,1,8,0:0:0:0:
266,186,35861,6,0,B|301:192|340:150|340:150|341:207|388:238,1,174.999994659424,6|8,1:0|0:0,0:0:0:0:
192,271,36500,6,0,P|176:316|123:283,1,125,4|8,3:0|0:0,0:0:0:0:
33,201,36978,1,8,0:1:0:0:
122,156,37138,2,0,B|130:122|130:122|122:94,1,62.5,4|0,3:0|0:0,0:0:0:0:
33,201,37457,2,0,B|24:228|24:228|31:261,1,62.5,8|0,0:0|0:0,0:0:0:0:
162,313,37776,6,0,P|195:307|238:299,1,62.5,4|2,3:0|0:0,0:0:0:0:
313,277,38095,1,10,0:1:0:0:
246,203,38255,1,8,0:0:0:0:
288,364,38414,2,0,L|429:335,1,125,4|8,3:0|0:0,0:0:0:0:
351,94,39053,6,0,P|334:129|342:178,1,62.5,0|2,3:0|0:0,0:0:0:0:
396,230,39372,2,0,P|431:231|459:217,1,62.5,8|8,0:0|0:1,0:0:0:0:
494,126,39691,2,0,P|483:96|461:75,1,62.5,4|0,3:0|0:0,0:0:0:0:
351,94,40010,1,8,0:0:0:0:
351,94,40170,1,0,0:0:0:0:
220,44,40329,5,4,3:0:0:0:
201,146,40489,1,2,0:0:0:0:
370,196,40808,5,8,0:0:0:0:
351,94,40968,1,4,3:0:0:0:
373,212,41127,1,2,0:0:0:0:
143,371,41446,5,2,2:0:0:0:
228,336,41606,2,0,L|239:227,1,93.75,12|0,3:0|0:0,0:0:0:0:
296,259,41925,2,0,L|284:160,1,93.75,12|0,3:0|0:0,0:0:0:0:
236,155,42244,2,0,L|245:47,1,93.75,12|0,3:0|0:0,0:0:0:0:
337,49,42563,2,0,L|332:15,3,31.25,6|0|6|0,3:0|0:0|3:0|0:0,0:0:0:0:
243,61,42883,6,0,B|185:74|183:41|117:55,1,125,4|2,0:1|3:0,0:0:0:0:
25,85,43361,1,8,0:0:0:0:
55,182,43521,2,0,B|118:195|120:162|178:175,1,125,4|8,3:0|0:0,0:0:0:0:
398,262,44159,2,0,P|400:312|386:341,1,62.5,4|0,3:0|0:0,0:0:0:0:
284,261,44478,2,0,P|282:215|295:182,1,62.5,8|8,0:0|0:1,0:0:0:0:
419,262,44797,2,0,P|421:312|407:341,1,62.5,4|0,3:0|0:0,0:0:0:0:
266,264,45117,2,0,P|264:218|277:185,1,62.5,8|0,0:0|0:1,0:0:0:0:
340,143,45436,1,4,3:0:0:0:
251,356,45755,5,2,3:0:0:0:
182,298,45914,1,8,0:0:0:0:
110,356,46074,2,0,P|52:357|-1:298,1,125,4|8,3:0|0:0,0:0:0:0:
139,79,46712,2,0,P|147:107|133:151,1,62.5,4|0,3:0|0:0,0:0:0:0:
50,113,47032,1,8,0:0:0:0:
50,113,47191,1,8,0:1:0:0:
139,79,47351,6,0,P|176:71|221:92,1,62.5,4|0,3:0|0:0,0:0:0:0:
267,143,47670,2,0,P|297:148|327:140,1,62.5,8|0,0:0|0:0,0:0:0:0:
411,207,47989,1,4,3:0:0:0:
411,207,48308,6,0,L|359:264,1,62.5,2|8,3:0|0:0,0:0:0:0:
327,139,48627,2,0,L|379:83,1,62.5,4|0,3:0|0:0,0:0:0:0:
428,28,48946,1,8,0:0:0:0:
505,192,49266,5,4,3:0:0:0:
505,192,49425,1,2,0:0:0:0:
477,281,49585,2,0,L|422:339,1,62.5,8|8,0:0|0:1,0:0:0:0:
313,271,49904,2,0,P|257:248|182:288,1,125,4|8,3:0|0:0,0:0:0:0:
52,247,50542,5,2,3:0:0:0:
1,175,50702,1,2,3:0:0:0:
88,167,50861,2,0,L|104:106,1,62.5,8|8,0:0|0:1,0:0:0:0:
0,194,51180,5,2,3:0:0:0:
54,264,51340,1,2,3:0:0:0:
141,247,51500,2,0,L|159:336,1,62.5,8|0,3:0|0:0,0:0:0:0:
286,360,51819,6,0,L|372:352,1,62.5,4|0,3:0|0:0,0:0:0:0:
478,273,52138,2,0,L|408:267,1,62.5,8|8,0:0|0:1,0:0:0:0:
241,184,52457,2,0,B|269:184|269:184|294:170|294:170|373:184,1,125,4|8,3:0|0:0,0:0:0:0:
203,66,53095,6,0,P|156:84|126:180,1,140.625005364418,6|8,3:0|0:0,0:0:0:0:
107,254,53734,2,0,P|183:234|197:210,1,93.7500035762788,4|8,3:0|0:0,0:0:0:0:
255,155,54212,1,0,0:0:0:0:
322,225,54372,2,0,P|358:253|456:237,1,140.625005364418,2|8,3:0|0:0,0:0:0:0:
512,164,55010,6,0,L|491:50,2,93.75,4|0|2,3:0|0:0|0:0,0:0:0:0:
448,244,55649,2,0,L|427:357,2,93.75,4|0|8,3:0|0:0|0:0,0:0:0:0:
301,157,56287,2,0,L|399:151,2,93.75,4|0|0,3:0|0:0|0:0,0:0:0:0:
249,248,56925,2,0,L|102:224,1,125,2|0,3:0|0:0,0:0:0:0:
56,149,57404,1,8,0:0:0:0:
125,88,57563,2,0,P|158:79|195:92,1,62.5,4|2,3:0|3:0,0:0:0:0:
59,173,57883,2,0,P|26:182|-11:169,1,62.5,4|2,3:0|0:0,0:0:0:0:
163,167,58202,5,8,0:0:0:0:
120,255,58361,2,0,L|128:287,2,31.25,8|0|8,0:0|0:0|0:0,0:0:0:0:
163,167,58680,1,8,0:0:0:0:
235,238,58840,2,0,P|290:260|362:231,1,125,4|8,3:0|0:0,0:0:0:0:
430,182,59319,1,0,0:0:0:0:
340,136,59478,2,0,P|323:74|421:1,1,187.5,2|8,3:0|0:0,0:0:0:0:
430,182,60117,6,0,L|443:255,1,62.5,4|4,3:0|3:0,0:0:0:0:
339,311,60436,2,0,L|323:228,1,62.5,8|2,0:0|0:0,0:0:0:0:
443,351,60755,5,4,3:0:0:0:
138,54,61872,5,2,0:0:0:0:
132,66,61952,1,2,0:0:0:0:
125,78,62032,2,0,B|96:78|96:78|82:70|82:70|18:84,2,83.3333333333333,12|4|12,3:0|3:0|3:0,0:0:0:0:
169,150,62670,2,0,P|199:165|301:115,1,150,4|0,3:0|0:0,0:0:0:0:
304,34,63308,6,0,P|351:44|388:120,1,125,4|0,1:0|0:0,0:0:0:0:
446,177,63787,1,8,0:0:0:0:
361,214,63946,2,0,L|347:361,1,125,4|8,3:0|0:0,0:0:0:0:
262,374,64425,1,2,0:0:0:0:
157,284,64585,2,0,B|210:252|210:252|272:262,1,125,4|0,3:0|0:0,0:0:0:0:
104,358,65063,1,8,0:0:0:0:
45,278,65223,2,0,P|33:230|-3:203,2,93.75,4|0|8,3:0|0:0|0:0,0:0:0:0:
104,358,65861,6,0,P|177:373|223:332,1,125,6|0,1:0|0:0,0:0:0:0:
276,277,66340,1,8,0:0:0:0:
275,178,66500,2,0,B|334:155|334:155|410:163,1,125,4|8,3:0|0:0,0:0:0:0:
482,210,66978,1,2,0:0:0:0:
338,368,67138,2,0,L|349:223,1,125,4|4,3:0|3:0,0:0:0:0:
442,300,67617,1,8,0:0:0:0:
348,244,67776,2,0,P|289:260|266:293,2,93.75,4|0|2,3:0|0:0|0:0,0:0:0:0:
349,154,68414,6,0,P|373:109|344:36,1,125,4|0,3:0|0:0,0:0:0:0:
255,11,68893,1,8,0:0:0:0:
160,38,69053,2,0,P|135:94|166:164,1,125,4|8,3:0|0:0,0:0:0:0:
315,227,69532,1,2,0:0:0:0:
315,227,69691,2,0,P|260:203|197:230,1,125,4|8,3:0|0:0,0:0:0:0:
349,154,70170,2,0,P|373:109|344:36,1,125,8|0,0:0|0:0,0:0:0:0:
272,90,70649,1,8,0:0:0:0:
349,154,70808,1,8,0:0:0:0:
461,65,70968,6,0,L|453:2,1,62.5,2|2,0:0|0:0,0:0:0:0:
327,224,71606,2,0,L|319:161,1,62.5,2|2,0:0|0:0,0:0:0:0:
79,18,72244,6,0,L|62:96,1,62.5,2|0,0:0|0:0,0:0:0:0:
179,156,72563,2,0,L|165:225,1,62.5,4|8,3:0|0:0,0:0:0:0:
163,229,72803,1,8,0:0:0:0:
161,241,72883,1,4,3:0:0:0:
216,321,73042,1,8,3:0:0:0:
302,268,73202,2,0,L|414:264,1,93.75,4|0,3:0|0:0,0:0:0:0:
429,262,73521,6,0,L|416:182,1,62.5,4|0,1:0|0:0,0:0:0:0:
493,154,73840,2,0,L|481:73,1,62.5,8|0,0:0|1:0,0:0:0:0:
401,61,74159,2,0,L|392:-7,1,62.5,0|0,1:0|0:0,0:0:0:0:
312,96,74478,5,8,0:0:0:0:
312,96,74638,1,2,0:0:0:0:
312,96,74797,2,0,L|232:109,1,62.5,0|0,1:0|0:0,0:0:0:0:
204,32,75117,2,0,L|123:44,1,62.5,8|8,0:0|1:2,0:0:0:0:
111,124,75436,2,0,L|43:133,1,62.5,0|0,1:0|0:0,0:0:0:0:
6,227,75755,1,8,0:0:0:0:
62,307,75914,1,8,0:0:0:0:
156,218,76074,6,0,L|148:337,1,93.75,6|0,1:0|0:0,0:0:0:0:
149,336,76393,1,8,0:0:0:0:
244,294,76553,1,8,1:2:0:0:
329,355,76712,2,0,P|366:367|446:329,1,125,0|8,1:0|0:0,0:0:0:0:
343,155,77351,6,0,P|333:192|336:239,1,62.5,4|0,3:0|0:0,0:0:0:0:
455,152,77670,2,0,P|465:114|463:68,1,62.5,8|0,0:0|1:0,0:0:0:0:
357,181,77989,6,0,P|371:227|396:257,1,62.5,4|0,3:0|0:0,0:0:0:0:
447,114,78308,2,0,P|434:65|418:44,1,62.5,12|0,3:0|0:0,0:0:0:0:
317,24,78627,6,0,P|262:25|229:13,1,62.5,4|0,1:0|0:0,0:0:0:0:
200,90,78946,2,0,P|159:59|150:39,1,62.5,8|0,0:0|1:0,0:0:0:0:
79,98,79266,2,0,P|62:59|55:21,1,62.5,0|0,1:0|0:0,0:0:0:0:
153,185,79585,5,8,0:0:0:0:
153,185,79744,1,2,0:0:0:0:
153,185,79904,2,0,P|208:186|241:174,1,62.5,0|0,1:0|0:0,0:0:0:0:
270,251,80223,2,0,P|311:220|320:200,1,62.5,8|8,0:0|1:2,0:0:0:0:
391,259,80542,2,0,P|408:220|415:182,1,62.5,0|0,1:0|0:0,0:0:0:0:
413,100,80861,1,8,0:0:0:0:
503,153,81021,1,8,0:0:0:0:
459,26,81180,6,0,P|396:16|342:47,1,125,0|8,1:0|0:0,0:0:0:0:
291,122,81659,1,0,1:0:0:0:
206,75,81819,2,0,L|201:9,2,62.5,4|0|8,3:0|0:0|0:0,0:0:0:0:
158,160,82297,1,0,0:0:0:0:
51,128,82457,6,0,L|48:195,1,62.5,12|0,3:0|0:0,0:0:0:0:
134,259,82776,2,0,L|131:329,1,62.5,4|8,3:0|0:0,0:0:0:0:
281,259,83095,2,0,L|270:191,1,62.5,12|0,3:0|0:0,0:0:0:0:
357,154,83414,2,0,L|345:84,1,62.5,12|2,3:0|0:0,0:0:0:0:
275,41,83734,6,0,B|246:45|246:45|235:37|235:37|180:51,2,93.7500035762788,6|8|2,0:0|0:0|0:0,0:0:0:0:
373,144,84691,1,8,0:0:0:0:
379,163,84851,1,0,0:0:0:0:
385,181,85010,2,0,B|414:185|414:185|425:177|425:177|480:191,2,93.7500035762788,2|8|4,0:0|0:0|0:3,0:0:0:0:
226,302,85968,1,8,0:0:0:0:
220,280,86127,1,0,0:0:0:0:
214,257,86287,6,0,L|69:248,1,112.499996566773,6|0,1:0|0:0,0:0:0:0:
81,247,86606,1,8,0:0:0:0:
150,146,86766,1,8,1:2:0:0:
55,124,86925,2,0,L|45:-2,2,125,4|8|4,3:0|0:0|3:0,0:0:0:0:
150,146,87723,1,2,0:0:0:0:
238,96,87883,2,0,P|283:87|317:88,1,62.5,8|0,0:0|1:0,0:0:0:0:
405,196,88202,6,0,P|371:185|330:177,1,62.5,4|0,3:0|0:0,0:0:0:0:
260,108,88521,2,0,P|221:113|188:122,1,62.5,12|0,3:0|0:0,0:0:0:0:
110,205,88840,6,0,L|107:283,1,62.5,4|0,1:0|0:0,0:0:0:0:
205,260,89159,2,0,L|203:335,1,62.5,8|0,0:0|1:0,0:0:0:0:
300,313,89478,2,0,L|299:382,1,62.5,0|0,1:0|0:0,0:0:0:0:
421,384,89797,5,8,0:0:0:0:
510,347,89957,1,2,0:0:0:0:
437,280,90117,2,0,L|432:202,1,62.5,0|0,1:0|0:0,0:0:0:0:
341,224,90436,2,0,L|335:147,1,62.5,8|8,0:0|1:2,0:0:0:0:
244,174,90755,2,0,L|237:106,1,62.5,0|0,1:0|0:0,0:0:0:0:
141,29,91074,1,8,0:0:0:0:
141,29,91234,1,8,0:0:0:0:
141,29,91393,6,0,B|101:53|101:53|23:48,1,125,0|8,1:0|0:0,0:0:0:0:
0,141,91872,1,8,1:2:0:0:
0,141,92032,2,0,L|13:237,1,93.7500035762788,2|8,1:2|0:0,0:0:0:0:
105,317,92670,5,12,3:0:0:0:
155,256,92829,1,0,0:0:0:0:
230,277,92989,1,12,3:0:0:0:
299,250,93149,1,0,0:0:0:0:
364,294,93308,2,0,P|373:265|377:234,1,46.8750017881394,12|0,3:0|0:0,0:0:0:0:
315,80,93627,2,0,P|307:115|307:142,1,46.8750017881394,4|8,3:0|0:0,0:0:0:0:
285,142,93867,1,8,0:0:0:0:
261,153,93946,6,0,P|214:155|176:152,1,62.5,4|2,3:0|0:0,0:0:0:0:
96,103,94266,1,2,1:0:0:0:
73,181,94425,1,8,0:0:0:0:
124,241,94585,2,0,P|144:276|139:359,1,125,4|8,3:0|0:0,0:0:0:0:
345,192,95223,6,0,P|364:222|303:218,1,125,4|8,3:1|0:0,0:0:0:0:
266,147,95702,1,8,0:0:0:0:
340,101,95861,1,4,3:0:0:0:
416,143,96021,1,0,0:0:0:0:
497,111,96180,2,0,P|505:78|497:48,1,62.5,8|0,0:0|0:0,0:0:0:0:
422,157,96500,6,0,L|437:248,1,62.5,6|0,0:1|0:0,0:0:0:0:
399,319,96819,1,2,1:0:0:0:
335,275,96978,1,8,0:0:0:0:
266,315,97138,2,0,P|214:330|135:323,1,125,4|8,3:0|0:0,0:0:0:0:
182,117,97776,6,0,P|201:171|177:246,1,125,4|8,3:0|0:0,0:0:0:0:
88,228,98255,1,8,0:0:0:0:
67,133,98414,2,0,L|72:57,1,62.5,4|0,3:0|0:0,0:0:0:0:
174,25,98734,2,0,L|167:94,1,62.5,8|8,0:0|0:0,0:0:0:0:
279,171,99053,6,0,P|326:170|355:164,1,62.5,4|0,3:0|0:0,0:0:0:0:
458,119,99372,1,2,1:1:0:0:
483,196,99532,1,8,0:0:0:0:
421,245,99691,2,0,P|393:327|399:383,1,125,4|8,3:0|0:0,0:0:0:0:
244,274,100329,6,0,L|182:291,1,62.5,4|4,3:0|3:0,0:0:0:0:
120,228,100649,2,0,L|49:221,1,62.5,8|8,0:0|0:0,0:0:0:0:
189,306,100968,6,0,L|260:291,1,62.5,4|0,3:0|0:0,0:0:0:0:
125,211,101287,2,0,L|45:204,1,62.5,8|8,0:0|0:0,0:0:0:0:
180,133,101606,6,0,P|200:86|176:13,1,125,4|2,3:0|0:0,0:0:0:0:
110,76,102085,1,8,0:0:0:0:
250,192,102244,6,0,P|271:142|247:69,1,125,4|8,3:0|0:0,0:0:0:0:
180,133,102723,1,0,0:0:0:0:
256,192,102883,12,4,104159,3:0:0:0:
348,322,104638,5,8,0:0:0:0:
413,261,104797,2,0,P|436:310|411:385,1,125,4|8,3:0|0:0,0:0:0:0:
348,322,105276,1,2,0:0:0:0:
413,261,105436,2,0,L|465:129,1,125,4|8,3:0|0:0,0:0:0:0:
402,78,105914,1,8,0:0:0:0:
338,138,106074,2,0,P|279:160|218:124,1,125,4|8,3:0|0:0,0:0:0:0:
159,70,106553,1,2,0:0:0:0:
92,126,106712,6,0,B|66:181|66:181|81:256,1,125,4|0,3:0|0:0,0:0:0:0:
128,316,107191,1,8,0:0:0:0:
200,267,107351,2,0,L|336:259,1,125,4|8,3:0|0:0,0:0:0:0:
385,322,107829,1,2,0:0:0:0:
315,372,107989,2,0,P|297:329|325:258,1,125,4|8,3:0|0:0,0:0:0:0:
392,203,108468,1,8,0:0:0:0:
450,138,108627,2,0,P|442:73|387:22,1,125,4|8,3:0|0:0,0:0:0:0:
315,24,109106,1,2,0:0:0:0:
270,99,109266,6,0,B|224:109|224:109|190:96|190:96|129:103,1,125,4|0,3:0|0:0,0:0:0:0:
72,142,109744,1,8,0:0:0:0:
132,205,109904,2,0,B|161:221|161:221|271:216,1,125,4|8,3:0|0:0,0:0:0:0:
366,156,110383,1,2,0:0:0:0:
415,230,110542,6,0,P|440:290|402:356,1,125,4|8,3:0|0:0,0:0:0:0:
306,286,111021,2,0,P|284:228|309:173,1,125,8|0,0:0|0:0,0:0:0:0:
395,105,111500,1,8,0:0:0:0:
395,105,111819,5,4,3:0:0:0:
200,186,112457,6,0,P|186:127|206:79,1,100,4|4,3:0|0:3,0:0:0:0:
266,26,112936,1,4,0:3:0:0:
350,121,113095,6,0,P|334:156|307:120,1,100,8|4,0:3|0:3,0:0:0:0:
404,50,113574,2,0,P|420:15|447:51,1,100,8|4,0:3|0:3,0:0:0:0:
496,141,114053,1,8,0:3:0:0:
480,156,114372,6,0,L|491:238,1,62.5,4|0,1:0|0:0,0:0:0:0:
374,279,114691,2,0,L|385:361,1,62.5,8|0,0:0|1:0,0:0:0:0:
462,168,115010,6,0,L|473:250,1,62.5,0|0,1:0|0:0,0:0:0:0:
397,287,115329,2,0,L|408:369,1,62.5,8|2,1:2|0:0,0:0:0:0:
277,258,115649,6,0,L|285:196,1,62.5,0|2,1:0|0:0,0:0:0:0:
212,139,115968,2,0,L|220:77,1,62.5,8|0,1:2|1:0,0:0:0:0:
296,270,116287,6,0,L|304:208,1,62.5,0|0,1:0|0:0,0:0:0:0:
189,147,116606,2,0,L|197:85,1,62.5,8|2,1:2|0:0,0:0:0:0:
344,120,116925,6,0,B|431:114|431:114|463:85,1,125,6|8,1:0|1:2,0:0:0:0:
396,27,117404,1,0,1:0:0:0:
311,48,117563,2,0,P|284:67|266:115,1,62.5,4|0,3:0|0:0,0:0:0:0:
283,179,117883,2,0,L|294:277,1,93.75,8|0,1:2|0:0,0:0:0:0:
295,315,118202,5,4,3:0:0:0:
206,278,118361,1,2,0:0:0:0:
139,355,118521,2,0,P|108:360|75:354,1,62.5,8|0,0:0|1:0,0:0:0:0:
0,269,118840,2,0,B|63:254|63:254|125:270,1,125,12|12,3:0|1:3,0:0:0:0:
206,278,119319,1,2,0:0:0:0:
143,163,119478,6,0,L|137:93,1,62.5,4|0,1:0|0:0,0:0:0:0:
268,94,119797,2,0,L|262:24,1,62.5,8|0,0:0|1:0,0:0:0:0:
156,159,120117,6,0,L|150:89,1,62.5,0|0,1:0|0:0,0:0:0:0:
250,96,120436,2,0,L|244:26,1,62.5,8|2,1:2|0:0,0:0:0:0:
351,167,120755,6,0,L|345:229,1,62.5,0|0,1:0|0:0,0:0:0:0:
443,231,121074,2,0,L|437:293,1,62.5,8|0,1:2|1:0,0:0:0:0:
335,164,121393,6,0,L|329:226,1,62.5,4|0,3:0|3:0,0:0:0:0:
461,233,121712,2,0,L|455:295,1,62.5,8|2,1:2|0:0,0:0:0:0:
337,357,122032,6,0,P|291:335|204:368,1,125,0|8,1:0|1:2,0:0:0:0:
122,327,122510,1,0,1:0:0:0:
172,233,122670,2,0,L|185:159,1,62.5,4|2,3:0|0:0,0:0:0:0:
62,118,122989,2,0,L|68:194,1,62.5,0|2,1:0|0:0,0:0:0:0:
139,103,123308,6,0,P|167:89|198:88,1,62.5,12|2,3:0|0:0,0:0:0:0:
255,171,123627,2,0,P|287:183|330:177,1,62.5,12|0,3:0|1:0,0:0:0:0:
384,96,123946,1,12,3:0:0:0:
480,114,124106,1,0,0:0:0:0:
500,211,124266,1,12,3:0:0:0:
407,189,124425,1,0,0:0:0:0:
384,323,124585,6,0,L|314:313,1,62.5,4|0,1:0|0:0,0:0:0:0:
221,227,124904,2,0,L|149:238,1,62.5,8|0,0:0|1:0,0:0:0:0:
350,344,125223,2,0,L|272:333,1,62.5,4|0,3:0|0:0,0:0:0:0:
220,197,125542,2,0,L|148:208,1,62.5,8|2,1:2|0:0,0:0:0:0:
60,301,125861,5,0,1:0:0:0:
60,301,126021,1,2,0:0:0:0:
19,204,126180,1,8,1:2:0:0:
19,204,126340,1,0,1:0:0:0:
106,133,126500,2,0,P|124:58|97:1,1,125,0|8,1:0|1:2,0:0:0:0:
30,77,126978,1,2,0:0:0:0:
106,133,127138,6,0,B|134:120|134:120|233:151,1,125,6|8,1:0|1:2,0:0:0:0:
310,177,127617,1,0,1:0:0:0:
342,59,127776,2,0,P|304:58|262:80,1,62.5,2|0,1:2|0:0,0:0:0:0:
406,145,128095,2,0,P|444:146|486:124,1,62.5,0|0,1:0|0:0,0:0:0:0:
310,177,128414,6,0,L|306:242,1,62.5,12|2,3:0|0:0,0:0:0:0:
407,263,128734,2,0,L|401:350,1,62.5,8|0,1:2|1:0,0:0:0:0:
257,346,129053,2,0,L|188:363,1,62.5,12|2,3:0|0:0,0:0:0:0:
143,271,129372,2,0,L|70:288,1,62.5,8|0,1:2|1:0,0:0:0:0:
70,94,129691,6,0,P|111:99|147:104,1,62.5,4|0,1:0|0:0,0:0:0:0:
227,183,130010,2,0,P|270:180|308:176,1,62.5,8|0,0:0|0:0,0:0:0:0:
63,112,130329,6,0,P|104:117|140:122,1,62.5,4|0,3:0|0:0,0:0:0:0:
232,204,130649,2,0,P|275:201|313:197,1,62.5,8|2,1:2|0:0,0:0:0:0:
389,112,130968,6,0,P|392:77|396:32,2,62.5,0|0|8,1:0|0:0|1:2,0:0:0:0:
462,186,131446,1,0,0:0:0:0:
382,247,131606,2,0,L|393:310,1,62.5,4|0,3:0|0:0,0:0:0:0:
296,361,131925,1,8,1:2:0:0:
296,361,132085,1,0,1:0:0:0:
222,297,132244,6,0,P|162:277|96:304,1,125,4|8,1:0|1:2,0:0:0:0:
164,374,132723,1,0,0:0:0:0:
222,297,132883,2,0,L|234:221,1,62.5,4|0,3:0|0:0,0:0:0:0:
96,115,133202,2,0,L|105:183,1,62.5,0|0,1:0|0:0,0:0:0:0:
203,138,133521,6,0,B|261:113|261:113|327:131,1,125,12|12,3:0|3:0,0:0:0:0:
271,214,134000,1,2,0:0:0:0:
367,62,134159,6,0,B|430:64|430:64|481:110,1,125,12|2,3:0|0:0,0:0:0:0:
394,160,134638,1,8,0:0:0:0:
286,23,134797,5,4,0:3:0:0:
285,41,135117,6,0,L|279:113,1,62.5,8|2,1:0|3:1,0:0:0:0:
317,197,135755,1,2,3:1:0:0:
316,215,136393,6,0,L|311:285,1,62.5,8|2,1:0|3:1,0:0:0:0:
111,205,137032,5,8,0:1:0:0:
98,100,137191,1,0,0:0:0:0:
115,230,137351,5,6,1:0:0:0:
