osu file format v14

[General]
AudioFilename: audio.mp3
AudioLeadIn: 0
PreviewTime: 52888
Countdown: 0
SampleSet: Soft
StackLeniency: 0.7
Mode: 0
LetterboxInBreaks: 0
WidescreenStoryboard: 0

[Editor]
DistanceSpacing: 0.9
BeatDivisor: 4
GridSize: 16
TimelineZoom: 2.1

[Metadata]
Title:Only for you (TV Size)
TitleUnicode:Only for you (TV Size)
Artist:Anisphia (CV: Senbongi Sayaka), Euphyllia (CV: Iwami Manaka)
ArtistUnicode:アニスフィア (CV: 千本木彩花), ユフィリア (CV: 石見舞菜香)
Creator:ckharv
Version:Precious
Source:転生王女と天才令嬢の魔法革命
Tags:Tensei Oujo to Tensai Reijou no Mahou Kakumei The Magical Revolution of the Reincarnated Princess and the Genius Young Lady tv anime ed ending japanese pop jpop j-pop yuri gay lesbian erisu
BeatmapID:3966231
BeatmapSetID:1921525

[Difficulty]
HPDrainRate:5
CircleSize:4
OverallDifficulty:8.8
ApproachRate:9.2
SliderMultiplier:1.86
SliderTickRate:1

[Events]
//Background and Video events
0,0,"yuribg5.jpg",0,0
Video,0,"yuried1.mp4"
//Break Periods
//Storyboard Layer 0 (Background)
//Storyboard Layer 1 (Fail)
//Storyboard Layer 2 (Pass)
//Storyboard Layer 3 (Foreground)
//Storyboard Layer 4 (Overlay)
//Storyboard Sound Samples

[TimingPoints]
1817,357.142857142857,4,2,1,80,1,0
3245,-90.9090909090909,4,2,1,80,0,0
14674,-125,4,2,1,50,0,0
26102,-105.263157894737,4,2,1,70,0,0
37531,-117.647058823529,4,2,1,60,0,0
46102,-90.9090909090909,4,2,1,70,0,0
54674,-90.9090909090909,4,2,1,85,0,0
75745,-500,4,2,1,85,0,0
76102,-90.9090909090909,4,2,1,85,0,0
77620,-90.9090909090909,4,2,1,45,0,0
80388,-90.9090909090909,4,2,1,65,0,0
80745,-90.9090909090909,4,2,1,50,0,0
81816,-133.333333333333,4,2,1,50,0,0

[Colours]
Combo1 : 216,143,243
Combo2 : 250,227,139
Combo3 : 114,207,186
Combo4 : 223,223,223

[HitObjects]
195,246,2889,5,2,0:0:0:0:
195,246,2978,1,2,0:0:0:0:
195,246,3067,1,2,0:0:0:0:
195,246,3157,1,2,0:0:0:0:
195,246,3246,2,0,B|80:222|109:299|-5:260,1,204.600006243897,4|8,1:2|0:0,0:0:0:0:
131,360,3781,2,0,P|187:373|236:386,1,102.300003121948,2|0,0:0|1:0,0:0:0:0:
502,311,4138,5,0,1:2:0:0:
326,384,4317,1,8,0:0:0:0:
378,171,4495,2,0,P|391:233|400:286,1,102.300003121948,2|0,1:2|0:0,0:0:0:0:
281,219,4852,1,0,1:0:0:0:
401,72,5031,2,0,P|470:88|520:94,1,102.300003121948,10|0,0:2|0:0,0:0:0:0:
320,0,5388,5,0,1:0:0:0:
320,0,5566,1,0,1:0:0:0:
187,116,5745,2,0,P|124:117|65:34,1,153.450004682922,10|0,0:0|0:0,0:0:0:0:
72,19,6102,6,0,P|22:37|10:175,1,204.600006243897,6|8,1:2|0:0,0:0:0:0:
124,384,6638,2,0,P|122:333|91:280,1,102.300003121948,2|0,0:0|1:0,0:0:0:0:
24,381,6995,1,0,1:0:0:0:
223,250,7174,1,8,0:0:0:0:
141,177,7352,6,0,B|120:130|120:130|141:81,1,102.300003121948,2|0,1:2|0:0,0:0:0:0:
326,285,7709,2,0,P|335:343|319:397,1,102.300003121948,2|8,1:2|0:0,0:0:0:0:
419,238,8066,1,2,0:2:0:0:
212,384,8245,5,0,1:0:0:0:
212,384,8424,1,0,1:0:0:0:
315,206,8602,2,0,B|319:118|278:149|292:40,1,153.450004682922,14|0,0:2|0:0,0:0:0:0:
289,41,8959,6,0,P|371:65|460:-15,1,204.600006243897,6|8,1:2|0:0,0:0:0:0:
217,174,9495,2,0,P|152:183|103:192,1,102.300003121948,2|0,0:0|1:0,0:0:0:0:
248,281,9852,1,0,1:0:0:0:
449,150,10031,1,8,0:0:0:0:
411,384,10209,6,0,B|410:331|390:340|389:285,1,102.300003121948,2|0,1:2|0:0,0:0:0:0:
306,41,10566,2,0,P|299:89|291:147,1,102.300003121948,2|8,1:2|0:0,0:0:0:0:
292,164,10834,1,0,3:0:0:0:
292,164,10924,1,0,3:0:0:0:
153,8,11102,5,8,1:3:0:0:
107,0,11191,1,8,1:3:0:0:
61,10,11281,1,4,1:3:0:0:
32,46,11370,1,4,1:3:0:0:
29,89,11459,2,0,P|85:104|136:119,1,102.300003121948,8|0,1:3|1:0,0:0:0:0:
17,348,11816,5,10,0:0:0:0:
241,248,11995,1,2,0:0:0:0:
78,195,12174,1,0,1:2:0:0:
300,383,12352,5,10,0:0:0:0:
150,311,12531,1,2,0:0:0:0:
390,214,12709,1,0,1:2:0:0:
227,6,12888,5,10,0:0:0:0:
314,183,13066,2,0,B|307:93|346:124|338:12,1,153.450004682922,2|0,0:0|0:0,0:0:0:0:
339,33,13424,1,10,0:0:0:0:
339,33,13513,1,0,1:0:0:0:
339,33,13602,2,0,P|372:48|406:49,1,51.1500015609742,8|0,0:0|1:0,0:0:0:0:
500,186,13781,5,8,0:0:0:0:
500,186,13870,1,0,1:0:0:0:
500,186,13959,2,0,L|487:128,1,51.1500015609742,10|0,0:0|0:0,0:0:0:0:
393,384,14138,2,0,L|400:333,1,51.1500015609742,10|0,0:0|0:0,0:0:0:0:
399,333,14674,6,0,P|329:331|273:400,1,148.8,0|2,3:0|0:0,0:0:0:0:
212,300,15388,1,0,3:0:0:0:
212,300,15566,1,0,3:0:0:0:
68,383,16102,5,2,0:0:0:0:
7,325,16281,1,0,0:0:0:0:
47,250,16459,1,0,0:0:0:0:
153,323,16638,2,0,P|165:272|121:179,1,148.8,2|0,0:0|0:0,0:0:0:0:
59,140,17174,1,2,0:0:0:0:
172,0,17531,5,2,0:0:0:0:
243,48,17709,1,0,0:0:0:0:
225,129,17888,1,2,0:0:0:0:
350,51,18066,2,0,L|437:35,1,74.4,2|0,0:0|3:0,0:0:0:0:
423,37,18602,1,0,0:0:0:0:
512,234,18959,5,2,0:0:0:0:
436,280,19138,1,0,0:0:0:0:
376,208,19316,1,2,0:0:0:0:
310,344,19495,2,0,P|371:353|463:370,1,148.8,2|0,0:0|0:0,0:0:0:0:
287,254,20031,1,2,0:0:0:0:
34,206,20388,5,2,0:0:0:0:
113,252,20566,1,0,0:0:0:0:
177,174,20745,1,0,0:0:0:0:
127,12,20924,2,0,P|97:74|106:169,1,148.8,2|0,0:0|0:0,0:0:0:0:
55,360,21459,2,0,P|35:328|30:280,1,74.4,2|0,0:0|0:0,0:0:0:0:
174,384,21816,5,2,0:0:0:0:
252,355,21995,1,0,0:0:0:0:
327,326,22174,1,2,0:0:0:0:
490,273,22352,2,0,P|442:266|324:239,1,148.8,2|0,0:0|0:0,0:0:0:0:
220,183,22888,2,0,P|269:174|358:153,1,111.6,2|0,0:0|0:0,0:0:0:0:
353,152,23245,6,0,P|365:106|295:10,1,148.8,2|0,0:0|0:0,0:0:0:0:
169,0,23781,1,0,0:0:0:0:
169,0,23959,2,0,P|126:58|135:130,1,148.8,2|0,0:0|0:0,0:0:0:0:
17,252,24495,5,0,0:0:0:0:
81,194,24674,1,2,0:0:0:0:
81,194,24852,1,0,0:0:0:0:
153,238,25031,1,0,0:0:0:0:
138,323,25209,2,0,P|98:335|52:349,1,74.4,0|2,0:0|0:0,0:0:0:0:
277,283,25566,5,2,0:3:0:0:
277,283,25656,1,2,0:3:0:0:
277,283,25745,2,0,B|355:292|328:315|400:318,1,111.6,0|0,1:0|0:0,0:0:0:0:
447,384,26102,6,0,P|486:329|455:219,1,176.699995281601,6|0,1:2|1:0,0:0:0:0:
367,18,26638,2,0,B|346:60|346:60|358:109,1,88.3499976408005,2|0,0:0|1:0,0:0:0:0:
475,49,26995,1,0,0:0:0:0:
340,204,27174,2,0,P|276:216|195:234,1,132.524996461201,2|0,1:2|0:0,0:0:0:0:
193,222,27531,6,0,B|218:262|218:262|212:331,1,88.3499976408005,2|0,1:2|0:0,0:0:0:0:
5,220,27888,1,0,1:0:0:0:
95,32,28066,2,0,P|102:103|105:148,1,88.3499976408005,2|0,0:0|1:0,0:0:0:0:
103,119,28424,1,0,0:0:0:0:
214,303,28602,2,0,P|154:301|99:381,1,132.524996461201,2|0,1:2|0:0,0:0:0:0:
93,369,28959,6,0,B|51:375|51:375|7:346,1,88.3499976408005,2|2,1:2|0:0,0:0:0:0:
116,217,29316,1,2,1:2:0:0:
301,285,29495,1,2,0:0:0:0:
301,285,29674,2,0,P|245:295|207:303,1,88.3499976408005,0|0,1:0|0:0,0:0:0:0:
5,153,30031,2,0,P|48:144|91:134,1,88.3499976408005,2|0,1:2|0:0,0:0:0:0:
27,18,30388,6,0,P|60:75|187:81,1,176.699995281601,2|0,1:2|1:0,0:0:0:0:
352,0,30924,1,2,0:0:0:0:
298,189,31102,2,0,B|276:153|276:153|283:87,1,88.3499976408005,0|0,1:0|0:0,0:0:0:0:
466,0,31459,2,0,B|488:36|488:36|481:102,1,88.3499976408005,2|0,1:2|0:0,0:0:0:0:
396,314,31816,6,0,B|371:203|422:245|390:107,1,176.699995281601,4|0,1:2|1:0,0:0:0:0:
396,139,32352,2,0,P|450:156|495:164,1,88.3499976408005,2|0,0:0|1:0,0:0:0:0:
341,384,32709,1,0,0:0:0:0:
218,279,32888,2,0,P|259:292|303:301,1,88.3499976408005,2|0,1:2|0:0,0:0:0:0:
166,184,33245,6,0,B|66:172|105:229|-18:227,1,176.699995281601,2|0,1:2|1:0,0:0:0:0:
169,92,33781,2,0,P|222:107|271:116,1,88.3499976408005,2|0,0:0|1:0,0:0:0:0:
305,191,34138,1,0,0:0:0:0:
153,380,34316,2,0,B|130:340|130:340|142:281,1,88.3499976408005,2|0,1:2|0:0,0:0:0:0:
50,20,34674,6,0,P|58:96|66:220,1,176.699995281601,2|0,1:2|1:0,0:0:0:0:
307,60,35209,1,2,0:3:0:0:
201,201,35388,1,0,1:0:0:0:
201,201,35566,1,2,0:3:0:0:
84,122,35745,1,0,1:0:0:0:
84,122,36102,5,0,3:0:0:0:
476,314,37531,6,0,P|391:322|350:395,1,158.100003015518,4|0,1:2|0:0,0:0:0:0:
353,378,38066,1,0,1:0:0:0:
223,237,38245,1,8,0:0:0:0:
223,237,38602,6,0,P|284:224|320:215,1,79.0500015077591,2|0,0:0|1:0,0:0:0:0:
365,291,38959,1,0,1:0:0:0:
512,174,39138,2,0,P|455:178|377:88,1,158.100003015518,8|2,0:0|1:2,0:0:0:0:
304,0,39674,2,0,P|242:0|179:76,1,158.100003015518,10|2,0:0|0:0,0:0:0:0:
180,67,40209,1,0,1:0:0:0:
0,272,40388,6,0,P|53:281|138:199,1,158.100003015518,4|0,1:2|1:0,0:0:0:0:
67,154,40924,1,0,1:0:0:0:
206,335,41102,6,0,P|140:347|115:355,1,79.0500015077591,8|0,0:0|0:0,0:0:0:0:
241,224,41459,2,0,B|246:184|246:184|223:149,1,79.0500015077591,2|0,0:0|1:0,0:0:0:0:
372,384,41816,1,0,1:0:0:0:
316,307,41995,2,0,P|355:326|480:339,1,158.100003015518,8|8,0:0|0:3,0:0:0:0:
511,124,42531,5,4,0:3:0:0:
491,217,42709,1,4,0:3:0:0:
407,249,42888,1,4,0:3:0:0:
347,194,43066,1,0,1:0:0:0:
225,384,43245,5,4,1:2:0:0:
431,31,46102,5,10,0:2:0:0:
431,31,46191,1,0,3:2:0:0:
431,31,46281,2,0,P|478:23|497:18,3,51.1500015609742,0|0|0|0,3:2|3:2|3:2|3:2,0:2:0:0:
368,178,46638,2,0,P|378:201|386:225,1,51.1500015609742,8|0,0:2|3:2,0:2:0:0:
377,373,46816,6,0,P|392:352|408:333,1,51.1500015609742,2|0,1:2|3:2,0:2:0:0:
512,273,46995,2,0,P|485:268|461:264,1,51.1500015609742,0|0,1:2|3:2,0:2:0:0:
277,305,47174,2,0,P|301:297|326:291,1,51.1500015609742,8|0,0:2|3:2,0:2:0:0:
292,134,47352,2,0,P|286:158|282:184,1,51.1500015609742,0|0,1:2|3:2,0:2:0:0:
184,384,47531,5,10,0:2:0:0:
136,359,47620,1,0,3:2:0:0:
117,312,47709,1,0,3:2:0:0:
125,263,47799,1,0,3:2:0:0:
155,221,47888,2,0,P|207:236|230:240,1,51.1500015609742,2|0,1:2|3:2,0:2:0:0:
32,384,48066,2,0,P|30:356|26:332,1,51.1500015609742,8|0,0:2|3:2,0:2:0:0:
12,138,48245,5,0,1:2:0:0:
13,149,48334,1,0,3:2:0:0:
15,164,48424,1,0,3:2:0:0:
17,178,48513,1,0,3:2:0:0:
18,197,48602,5,10,1:2:0:0:
79,188,48691,1,0,1:2:0:0:
125,144,48781,1,0,1:2:0:0:
129,81,48870,1,0,1:2:0:0:
77,21,48959,6,0,P|121:45|183:51,1,102.300003121948,12|0,0:0|1:0,0:0:0:0:
424,0,49316,1,0,1:0:0:0:
372,215,49495,2,0,P|339:148|325:15,1,204.600006243897,12|0,0:0|1:0,0:0:0:0:
343,371,50031,2,0,P|382:310|484:304,1,153.450004682922,12|0,0:0|0:0,0:0:0:0:
475,303,50388,5,12,0:0:0:0:
253,253,50566,1,0,1:0:0:0:
449,126,50745,1,0,1:0:0:0:
244,381,50924,6,0,P|183:364|157:236,1,204.600006243897,12|0,0:0|0:0,0:0:0:0:
288,16,51459,5,12,0:0:0:0:
181,163,51638,1,0,1:0:0:0:
43,86,51816,1,6,0:0:0:0:
256,192,52531,12,2,54316,0:0:0:0:
398,330,54674,5,6,1:2:0:0:
294,245,54852,1,0,1:2:0:0:
234,383,55031,1,8,0:0:0:0:
403,230,55209,2,0,P|466:241|512:250,1,102.300003121948,2|0,0:0|1:0,0:0:0:0:
313,0,55566,1,0,1:0:0:0:
213,108,55745,2,0,P|144:123|52:143,1,153.450004682922,10|0,0:0|0:0,0:0:0:0:
46,146,56102,6,0,P|59:78|64:32,1,102.300003121948,2|0,1:2|1:0,0:0:0:0:
244,195,56459,1,8,0:0:0:0:
142,374,56638,2,0,P|81:380|2:259,1,204.600006243897,2|0,1:2|1:0,0:0:0:0:
225,310,57174,2,0,P|296:324|343:332,1,102.300003121948,10|0,0:0|0:0,0:0:0:0:
79,117,57531,5,2,1:2:0:0:
141,262,57709,1,0,1:2:0:0:
348,163,57888,1,10,0:0:0:0:
243,14,58066,2,0,P|248:82|251:132,1,102.300003121948,2|0,0:0|1:0,0:0:0:0:
157,62,58424,1,0,1:0:0:0:
395,13,58602,5,10,0:0:0:0:
395,13,58781,1,0,0:0:0:0:
306,263,58959,1,2,1:2:0:0:
189,181,59138,2,8,P|132:192|67:205,1,102.300003121948,0|8,1:0|0:0,0:0:0:0:
268,384,59495,2,0,P|297:323|451:312,1,204.600006243897,2|0,1:2|1:0,0:0:0:0:
276,5,60031,2,0,P|285:70|295:177,1,153.450004682922,10|0,0:0|0:0,0:0:0:0:
297,185,60388,5,6,1:2:0:0:
168,77,60566,1,0,1:0:0:0:
396,149,60745,2,0,P|460:137|514:127,1,102.300003121948,8|0,0:0|0:0,0:0:0:0:
232,286,61102,2,0,P|181:295|131:304,1,102.300003121948,0|0,1:0|1:0,0:0:0:0:
34,69,61459,5,10,0:0:0:0:
131,221,61638,1,2,0:0:0:0:
335,61,61816,1,2,1:2:0:0:
335,61,61995,1,0,1:2:0:0:
125,8,62174,1,8,0:0:0:0:
222,175,62352,2,0,P|227:113|233:59,1,102.300003121948,2|0,1:2|0:0,0:0:0:0:
232,74,62709,1,0,1:0:0:0:
9,236,62888,2,0,P|85:244|161:253,1,153.450004682922,10|0,0:0|0:0,0:0:0:0:
172,279,63245,6,0,P|167:341|161:395,1,102.300003121948,2|0,1:2|1:0,0:0:0:0:
455,384,63602,2,0,P|502:317|466:199,1,204.600006243897,8|0,0:0|1:0,0:0:0:0:
473,206,64138,1,0,1:0:0:0:
292,5,64316,2,0,B|287:94|317:59|310:162,1,153.450004682922,10|0,0:0|0:0,0:0:0:0:
312,176,64674,5,2,1:2:0:0:
406,292,64852,1,0,1:0:0:0:
456,75,65031,1,10,0:0:0:0:
226,146,65209,2,0,P|173:158|100:172,1,102.300003121948,2|0,1:2|0:0,0:0:0:0:
58,87,65566,1,0,1:0:0:0:
202,326,65745,6,0,P|141:317|34:300,1,153.450004682922,10|0,0:0|0:0,0:0:0:0:
31,291,66102,2,0,B|3:337|3:337|14:392,1,102.300003121948,6|0,1:2|1:0,0:0:0:0:
152,201,66459,6,0,P|143:117|131:7,1,153.450004682922,10|0,0:0|0:0,0:0:0:0:
135,23,66816,2,0,P|195:36|240:46,1,102.300003121948,2|0,0:0|1:0,0:0:0:0:
381,248,67174,5,10,0:0:0:0:
508,126,67352,1,0,0:0:0:0:
274,197,67531,1,2,1:2:0:0:
274,197,67709,1,0,1:2:0:0:
319,384,67888,1,8,0:0:0:0:
167,277,68066,2,0,P|101:268|-17:250,1,153.450004682922,2|0,1:2|0:0,0:0:0:0:
0,252,68424,1,0,1:0:0:0:
226,123,68602,2,0,P|315:105|401:87,1,153.450004682922,10|0,0:0|0:0,0:0:0:0:
403,95,68959,6,0,B|418:43|418:43|388:-1,1,102.300003121948,6|0,1:2|0:0,0:0:0:0:
142,98,69316,2,0,B|127:150|127:150|154:189,1,102.300003121948,10|0,0:0|0:0,0:0:0:0:
259,11,69674,5,2,1:2:0:0:
298,246,69852,1,0,1:2:0:0:
258,4,70031,1,10,0:0:0:0:
487,182,70388,6,0,P|436:175|385:167,1,102.300003121948,6|0,1:2|0:0,0:0:0:0:
308,337,70745,2,0,P|257:330|206:322,1,102.300003121948,10|0,0:0|0:0,0:0:0:0:
196,322,71013,1,0,3:0:0:0:
196,322,71102,1,0,1:0:0:0:
30,384,71281,1,0,1:0:0:0:
61,129,71459,2,0,B|59:228|95:192|91:297,1,153.450004682922,8|0,0:0|0:0,0:0:0:0:
94,300,71816,6,0,P|161:305|250:207,1,204.600006243897,6|8,1:2|0:0,0:0:0:0:
167,12,72352,1,0,3:0:0:0:
167,12,72441,1,0,3:0:0:0:
167,12,72531,1,0,1:0:0:0:
335,55,72709,1,0,1:0:0:0:
134,208,72888,2,0,P|71:223|21:236,1,102.300003121948,10|0,0:2|0:0,0:0:0:0:
239,117,73245,2,0,P|288:130|339:141,1,102.300003121948,2|0,1:2|1:0,0:0:0:0:
330,384,73602,5,10,0:0:0:0:
510,288,73781,1,0,1:0:0:0:
303,221,73959,1,2,0:2:0:0:
408,339,74138,1,0,1:0:0:0:
490,123,74316,2,0,B|498:72|498:72|468:30,1,102.300003121948,8|2,0:0|0:0,0:0:0:0:
250,117,74674,5,8,0:0:0:0:
443,205,74852,1,0,1:0:0:0:
145,259,75031,5,8,0:0:0:0:
346,173,75209,1,0,1:0:0:0:
194,6,75388,5,8,0:0:0:0:
228,220,75567,1,0,1:0:0:0:
0,119,75745,6,0,L|29:123,1,27.9,8|0,0:0|0:0,0:0:0:0:
27,123,76102,5,0,1:0:0:0:
92,70,76281,1,8,0:0:0:0:
174,93,76459,1,0,1:0:0:0:
193,177,76638,1,0,1:0:0:0:
302,323,76816,5,8,1:3:0:0:
384,379,76995,1,4,1:3:0:0:
473,330,77174,1,8,1:3:0:0:
489,228,77352,1,0,3:0:0:0:
489,228,77441,1,0,3:0:0:0:
489,228,77531,1,2,1:2:0:0:
256,192,77620,12,0,80388,1:0:0:0:
405,77,80745,5,0,1:0:0:0:
388,72,81102,1,0,1:0:0:0:
371,67,81459,1,0,1:0:0:0:
304,151,81816,6,0,P|239:161|162:173,2,139.500005321503,0|0|2,1:0|1:0|1:3,0:0:0:0:
471,315,82888,5,0,1:0:0:0:
471,315,83066,1,12,0:0:0:0:
471,315,83245,2,0,P|434:357|342:353,1,139.500005321503,4|0,1:2|1:2,0:0:0:0:
322,272,83781,2,0,P|359:230|451:234,1,139.500005321503,2|2,0:0|0:0,0:0:0:0:
438,226,84316,1,2,1:2:0:0:
255,336,84674,5,2,1:2:0:0:
175,323,84852,1,2,0:0:0:0:
96,309,85031,1,0,1:0:0:0:
176,165,85209,6,0,P|182:217|184:256,1,69.7500026607514,2|0,0:0|1:0,0:0:0:0:
262,117,85566,1,2,0:0:0:0:
262,117,85745,2,0,P|268:169|270:208,1,69.7500026607514,0|2,1:0|0:3,0:0:0:0:
84,219,86102,5,2,0:0:0:0:
41,207,86281,1,2,0:0:0:0:
25,168,86459,1,2,0:0:0:0:
36,127,86638,1,2,0:0:0:0:
184,51,87174,6,0,P|132:43|65:29,1,104.625003991127,2|2,0:0|0:0,0:0:0:0:
68,17,87531,1,2,0:0:0:0:
