osu file format v14

[General]
AudioFilename: audio.mp3
AudioLeadIn: 0
PreviewTime: 52888
Countdown: 0
SampleSet: Soft
StackLeniency: 0.7
Mode: 0
LetterboxInBreaks: 0
WidescreenStoryboard: 1

[Editor]
DistanceSpacing: 0.9
BeatDivisor: 4
GridSize: 8
TimelineZoom: 1.4

[Metadata]
Title:Only for you (TV Size)
TitleUnicode:Only for you (TV Size)
Artist:Anisphia (CV: Senbongi Sayaka), Euphyllia (CV: Iwami Manaka)
ArtistUnicode:アニスフィア (CV: 千本木彩花), ユフィリア (CV: 石見舞菜香)
Creator:ckharv
Version:Normal
Source:転生王女と天才令嬢の魔法革命
Tags:Tensei Oujo to Tensai Reijou no Mahou Kakumei The Magical Revolution of the Reincarnated Princess and the Genius Young Lady tv anime ed ending japanese pop jpop j-pop yuri gay lesbian erisu
BeatmapID:3966230
BeatmapSetID:1921525

[Difficulty]
HPDrainRate:3
CircleSize:3.4
OverallDifficulty:4
ApproachRate:5.5
SliderMultiplier:1.1
SliderTickRate:1

[Events]
//Background and Video events
0,0,"yuribg5.jpg",0,0
Video,0,"yuried1.mp4"
//Break Periods
//Storyboard Layer 0 (Background)
//Storyboard Layer 1 (Fail)
//Storyboard Layer 2 (Pass)
//Storyboard Layer 3 (Foreground)
//Storyboard Layer 4 (Overlay)
//Storyboard Sound Samples

[TimingPoints]
1817,357.142857142857,4,2,1,80,1,0
14674,-117.647058823529,4,2,1,50,0,0
26102,-108.695652173913,4,2,1,70,0,0
37531,-117.647058823529,4,2,1,60,0,0
46102,-108.695652173913,4,2,1,70,0,0
54674,-100,4,2,1,85,0,0
77709,-100,4,2,1,45,0,0
80388,-100,4,2,1,65,0,0
81816,-117.647058823529,4,2,1,50,0,0

[Colours]
Combo1 : 216,143,243
Combo2 : 250,227,139
Combo3 : 114,207,186
Combo4 : 223,223,223

[HitObjects]
69,311,3245,6,0,P|105:283|176:294,1,110,4|8,1:2|0:0,0:0:0:0:
180,335,3781,2,0,P|212:363|283:352,1,110,2|0,0:0|1:2,0:0:0:0:
313,325,4317,1,8,0:0:0:0:
313,325,4495,1,2,1:2:0:0:
266,243,4852,1,0,1:0:0:0:
266,243,5031,2,0,P|248:188|247:117,1,110,10|0,0:2|1:0,0:0:0:0:
254,91,5566,1,0,1:0:0:0:
254,91,5745,1,10,0:0:0:0:
311,10,6102,6,0,P|354:5|416:63,1,110,6|8,1:2|0:0,0:0:0:0:
447,80,6638,1,2,0:0:0:0:
447,80,6816,2,0,P|483:76|511:63,2,55,0|0|8,1:0|1:0|0:0,0:0:0:0:
425,124,7352,1,2,1:2:0:0:
482,204,7709,2,0,P|483:238|489:263,1,55,2|8,1:2|0:0,0:0:0:0:
508,303,8066,2,0,P|451:311|403:345,1,110,2|0,0:2|1:0,0:0:0:0:
380,380,8602,1,14,0:2:0:0:
293,334,8959,6,0,P|267:294|283:220,1,110,6|8,1:2|0:0,0:0:0:0:
305,197,9495,1,2,0:0:0:0:
305,197,9674,2,0,P|350:207|376:209,2,55,0|0|8,1:0|1:0|0:0,0:0:0:0:
283,152,10209,1,2,1:2:0:0:
240,68,10566,2,0,P|197:87|172:89,1,55,2|8,1:2|0:0,0:0:0:0:
152,122,10924,2,0,P|118:120|80:106,1,55,0|8,3:0|1:3,0:0:0:0:
65,84,11281,1,4,1:3:0:0:
65,84,11459,1,8,1:3:0:0:
27,175,11816,6,0,P|36:211|37:240,1,55,10|2,0:0|0:0,0:0:0:0:
31,278,12174,1,0,1:2:0:0:
31,278,12352,2,0,P|82:273|139:321,1,110,10|0,0:0|1:2,0:0:0:0:
152,348,12888,1,10,0:0:0:0:
152,348,13066,1,2,0:0:0:0:
246,379,13424,2,0,P|260:353|262:325,1,55,10|8,0:0|0:0,0:0:0:0:
259,287,13781,1,8,0:0:0:0:
259,287,13959,1,10,0:0:0:0:
259,287,14138,1,10,0:0:0:0:
171,171,14674,6,0,P|152:130|159:65,1,93.500001783371,0|2,3:0|0:0,0:0:0:0:
202,14,15388,2,0,P|242:35|306:34,1,93.500001783371,0|0,3:0|0:0,0:0:0:0:
367,68,16102,2,0,P|396:59|417:57,2,46.7500008916855,2|0|0,0:0|0:0|0:0,0:0:0:0:
345,104,16638,2,0,P|360:146|359:213,1,93.500001783371,2|0,0:0|0:0,0:0:0:0:
354,235,17174,1,2,0:0:0:0:
394,308,17531,6,0,P|377:344|234:350,1,187.000003566742,2|0,0:0|3:0,0:0:0:0:
192,295,18602,1,0,0:0:0:0:
150,221,18959,2,0,P|112:235|48:244,1,93.500001783371,2|2,0:0|0:0,0:0:0:0:
20,228,19495,2,0,P|32:190|33:125,1,93.500001783371,2|0,0:0|0:0,0:0:0:0:
17,98,20031,1,2,0:0:0:0:
53,22,20388,6,0,P|91:45|152:52,1,93.500001783371,2|0,0:0|0:0,0:0:0:0:
210,97,21102,1,2,0:0:0:0:
266,34,21459,1,2,0:0:0:0:
341,70,21816,2,0,P|360:111|352:177,1,93.500001783371,2|2,0:0|0:0,0:0:0:0:
344,198,22352,2,0,P|299:204|248:231,1,93.500001783371,2|0,0:0|0:0,0:0:0:0:
214,215,22888,1,2,0:0:0:0:
180,292,23245,6,0,P|224:318|283:323,1,93.500001783371,2|0,0:0|0:0,0:0:0:0:
288,359,23781,1,0,0:0:0:0:
288,359,23959,2,0,P|332:335|388:336,1,93.500001783371,2|0,0:0|0:0,0:0:0:0:
454,306,24674,2,0,P|464:267|461:247,1,46.7500008916855,2|0,0:0|0:0,0:0:0:0:
438,226,25031,1,0,0:0:0:0:
438,226,25209,2,0,P|423:183|426:128,1,93.500001783371,2|2,0:0|0:3,0:0:0:0:
447,94,25745,1,0,1:0:0:0:
393,20,26102,5,6,1:2:0:0:
313,64,26459,2,0,P|298:97|298:167,1,101.199996602783,0|0,1:0|1:0,0:0:0:0:
318,201,26995,1,0,0:0:0:0:
318,201,27174,1,2,1:2:0:0:
366,278,27531,2,0,P|317:287|268:331,1,101.199996602783,2|0,1:2|1:0,0:0:0:0:
232,327,28066,2,0,P|218:288|221:268,2,50.5999983013917,2|0|0,0:0|1:0|0:0,0:0:0:0:
208,361,28602,1,2,1:2:0:0:
131,310,28959,6,0,P|100:293|28:291,1,101.199996602783,2|2,1:2|1:2,0:0:0:0:
6,253,29495,1,2,0:0:0:0:
6,253,29674,2,0,P|18:212|19:182,1,50.5999983013917,0|0,1:0|0:0,0:0:0:0:
6,160,30031,1,2,1:2:0:0:
7,68,30388,2,0,P|38:37|102:34,1,101.199996602783,2|0,1:2|1:0,0:0:0:0:
121,66,30924,2,0,P|158:90|215:86,1,101.199996602783,2|0,0:0|0:0,0:0:0:0:
243,52,31459,1,2,1:2:0:0:
326,88,31816,5,4,1:2:0:0:
269,159,32174,2,0,P|262:200|261:228,1,50.5999983013917,0|2,1:0|0:0,0:0:0:0:
283,248,32531,2,0,P|288:289|286:312,1,50.5999983013917,0|0,1:0|0:0,0:0:0:0:
279,343,32888,1,2,1:2:0:0:
361,382,33245,2,0,P|406:342|449:349,1,101.199996602783,2|0,1:2|1:0,0:0:0:0:
488,370,33781,1,2,0:0:0:0:
488,370,33959,1,0,1:0:0:0:
507,280,34316,1,2,1:2:0:0:
439,218,34674,6,0,P|429:172|465:113,1,101.199996602783,2|0,1:2|1:0,0:0:0:0:
454,82,35209,1,2,0:3:0:0:
454,82,35388,2,0,P|427:55|353:53,1,101.199996602783,0|0,1:0|1:0,0:0:0:0:
334,79,35924,1,0,0:0:0:0:
334,79,36102,1,0,3:0:0:0:
249,9,37531,6,0,P|206:45|222:138,1,140.250002675057,4|0,1:2|1:0,0:0:0:0:
239,153,38245,1,8,0:0:0:0:
211,232,38602,1,2,0:0:0:0:
134,197,38959,2,0,P|104:202|87:211,1,46.7500008916855,0|8,1:0|0:0,0:0:0:0:
47,207,39316,2,0,P|64:250|66:315,1,93.500001783371,0|10,0:0|0:0,0:0:0:0:
95,376,40031,1,2,0:0:0:0:
170,337,40388,6,0,P|205:361|320:371,1,140.250002675057,4|0,1:2|1:0,0:0:0:0:
334,352,41102,1,8,0:0:0:0:
296,276,41459,1,2,0:0:0:0:
296,276,41638,2,0,P|284:234|284:212,1,46.7500008916855,0|0,1:0|1:0,0:0:0:0:
291,189,41995,1,8,0:0:0:0:
337,118,42352,1,8,0:3:0:0:
337,118,42531,2,0,P|371:131|392:131,2,46.7500008916855,4|4|4,0:3|0:3|0:3,0:0:0:0:
284,52,43245,5,4,1:2:0:0:
214,21,46102,6,0,P|186:53|197:130,1,101.199996602783,10|0,0:2|3:2,0:0:0:0:
215,150,46638,1,8,0:2:0:0:
215,150,46816,2,0,P|245:137|274:138,2,50.5999983013917,2|0|8,1:2|1:2|0:2,0:0:0:0:
159,222,47531,2,0,P|107:223|55:190,1,101.199996602783,10|2,0:2|1:2,0:0:0:0:
25,223,48066,1,8,0:2:0:0:
25,223,48245,2,0,P|34:264|34:293,1,50.5999983013917,0|0,1:2|3:2,0:0:0:0:
25,317,48602,1,10,1:2:0:0:
99,368,48959,6,0,P|160:366|205:328,1,101.199996602783,12|0,0:0|1:0,0:0:0:0:
211,302,49495,2,0,P|258:303|310:346,1,101.199996602783,12|0,0:0|1:0,0:0:0:0:
323,373,50031,1,12,0:0:0:0:
393,315,50388,2,0,P|435:307|457:289,2,50.5999983013917,12|0|0,0:0|1:0|1:0,0:0:0:0:
371,274,50924,2,0,P|383:229|379:151,1,101.199996602783,12|0,0:0|0:0,0:0:0:0:
362,134,51459,2,0,P|332:146|310:147,1,50.5999983013917,12|0,0:0|1:0,0:0:0:0:
270,134,51816,1,6,0:0:0:0:
209,55,54674,6,0,P|170:78|100:81,1,110,6|8,1:2|0:0,0:0:0:0:
66,52,55209,1,2,0:0:0:0:
66,52,55388,2,0,P|77:16|77:-5,2,55,0|0|10,1:0|1:0|0:0,0:0:0:0:
3,128,56102,1,2,1:2:0:0:
3,128,56281,2,0,P|20:179|19:202,1,55,0|8,1:0|0:0,0:0:0:0:
20,229,56638,2,0,P|59:234|131:205,1,110,2|0,1:2|1:0,0:0:0:0:
145,165,57174,1,10,0:0:0:0:
232,210,57531,6,0,P|269:205|288:195,2,55,2|0|10,1:2|1:2|0:0,0:0:0:0:
212,255,58066,1,2,0:0:0:0:
212,255,58245,2,0,P|228:301|230:331,1,55,0|0,1:0|1:0,0:0:0:0:
218,355,58602,1,10,0:0:0:0:
313,380,58959,2,0,P|356:382|420:342,1,110,2|8,1:2|0:0,0:0:0:0:
461,338,59495,1,2,1:2:0:0:
461,338,59674,2,0,P|444:297|444:271,1,55,0|0,0:0|1:0,0:0:0:0:
461,240,60031,1,10,0:0:0:0:
489,145,60388,5,6,1:2:0:0:
489,145,60566,1,0,1:0:0:0:
489,145,60745,2,0,P|425:141|366:109,1,110,8|0,0:0|1:0,0:0:0:0:
355,81,61281,1,0,1:0:0:0:
355,81,61459,1,10,0:0:0:0:
283,12,61816,2,0,P|236:16|177:56,1,110,2|8,1:2|0:0,0:0:0:0:
162,93,62352,2,0,P|188:137|197:202,1,110,2|0,1:2|1:0,0:0:0:0:
183,241,62888,1,10,0:0:0:0:
233,325,63245,6,0,P|200:333|177:344,1,55,2|0,1:2|1:0,0:0:0:0:
146,377,63602,2,0,P|106:380|35:344,1,110,8|0,0:0|1:0,0:0:0:0:
16,310,64138,1,0,1:0:0:0:
16,310,64316,1,10,0:0:0:0:
75,230,64674,2,0,P|108:237|131:253,2,55,2|0|10,1:2|1:0|0:0,0:0:0:0:
35,200,65209,2,0,P|26:165|52:82,1,110,2|0,1:2|1:0,0:0:0:0:
70,53,65745,1,10,0:0:0:0:
157,6,66102,6,0,P|194:29|215:31,1,55,6|0,1:2|1:0,0:0:0:0:
229,73,66459,2,0,P|273:73|341:42,1,110,10|2,0:0|0:0,0:0:0:0:
368,13,66995,1,0,1:0:0:0:
368,13,67174,1,10,0:0:0:0:
468,0,67531,2,0,P|494:25|506:62,1,55,2|0,1:2|1:0,0:0:0:0:
484,89,67888,1,8,0:0:0:0:
484,89,68066,2,0,P|460:136|467:201,1,110,2|0,1:2|1:0,0:0:0:0:
490,233,68602,1,10,0:0:0:0:
394,260,68959,6,0,P|362:234|283:230,2,110,6|10|2,1:2|0:0|1:2,0:0:0:0:
407,312,69852,1,0,1:2:0:0:
407,312,70031,1,10,0:0:0:0:
329,373,70388,2,0,P|300:356|279:351,1,55,6|0,1:2|0:0,0:0:0:0:
243,313,70745,2,0,P|205:315|137:354,1,110,10|0,0:0|1:0,0:0:0:0:
96,329,71281,1,0,1:0:0:0:
96,329,71459,1,8,0:0:0:0:
14,272,71816,6,0,P|7:229|12:206,1,55,6|0,1:2|0:0,0:0:0:0:
5,168,72174,2,0,P|50:195|128:196,1,110,8|0,0:0|1:0,0:0:0:0:
142,166,72709,2,0,P|133:128|134:105,1,55,0|10,1:0|0:2,0:0:0:0:
146,64,73066,1,0,0:0:0:0:
146,64,73245,1,2,1:2:0:0:
225,4,73602,6,0,P|247:34|248:121,1,110,10|2,0:0|0:0,0:0:0:0:
230,148,74138,1,0,0:0:0:0:
230,148,74316,1,8,0:0:0:0:
322,184,74674,2,0,P|348:173|382:170,2,55,4|0|8,1:2|1:0|0:0,0:0:0:0:
297,226,75209,2,0,P|320:267|328:337,1,110,0|0,1:0|1:0,0:0:0:0:
310,374,75745,1,8,0:0:0:0:
220,330,76102,5,0,1:0:0:0:
220,330,76281,2,0,P|178:357|108:363,1,110,8|0,0:0|1:0,0:0:0:0:
84,329,76816,2,0,P|59:310|30:306,1,55,8|4,1:3|1:3,0:0:0:0:
3,267,77174,1,8,1:3:0:0:
50,180,77531,1,2,1:2:0:0:
256,192,77709,12,0,80388,1:0:0:0:
358,110,81816,6,0,P|338:73|350:5,2,93.500001783371,0|0|0,1:0|1:0|1:0,0:0:0:0:
423,163,82888,2,0,P|417:195|421:229,1,46.7500008916855,0|12,1:0|0:0,0:0:0:0:
416,251,83245,2,0,P|375:265|294:214,1,140.250002675057,6|2,1:2|0:0,0:0:0:0:
240,282,84138,1,2,0:0:0:0:
240,282,84316,1,2,1:2:0:0:
180,222,84674,6,0,P|139:213|86:248,1,93.500001783371,2|0,1:2|1:0,0:0:0:0:
53,231,85209,2,0,P|30:189|45:130,1,93.500001783371,2|2,0:0|0:0,0:0:0:0:
58,109,85745,1,0,1:2:0:0:
129,64,86102,2,0,P|120:27|120:8,2,46.7500008916855,2|2|2,0:0|0:0|0:0,0:0:0:0:
156,95,86638,2,0,P|189:83|295:134,1,140.250002675057,2|2,0:0|0:0,0:0:0:0:
347,62,87531,1,2,0:0:0:0:
