osu file format v14

[General]
AudioFilename: audio.mp3
AudioLeadIn: 0
PreviewTime: 52888
Countdown: 0
SampleSet: Soft
StackLeniency: 0.7
Mode: 0
LetterboxInBreaks: 0
WidescreenStoryboard: 1

[Editor]
DistanceSpacing: 0.9
BeatDivisor: 4
GridSize: 8
TimelineZoom: 1.4

[Metadata]
Title:Only for you (TV Size)
TitleUnicode:Only for you (TV Size)
Artist:Anisphia (CV: Senbongi Sayaka), Euphyllia (CV: Iwami Manaka)
ArtistUnicode:アニスフィア (CV: 千本木彩花), ユフィリア (CV: 石見舞菜香)
Creator:ckharv
Version:Hard
Source:転生王女と天才令嬢の魔法革命
Tags:Tensei Oujo to Tensai Reijou no Mahou Kakumei The Magical Revolution of the Reincarnated Princess and the Genius Young Lady tv anime ed ending japanese pop jpop j-pop yuri gay lesbian erisu
BeatmapID:3966229
BeatmapSetID:1921525

[Difficulty]
HPDrainRate:4
CircleSize:3.8
OverallDifficulty:6
ApproachRate:7.5
SliderMultiplier:1.4
SliderTickRate:1

[Events]
//Background and Video events
0,0,"yuribg5.jpg",0,0
Video,0,"yuried1.mp4"
//Break Periods
//Storyboard Layer 0 (Background)
//Storyboard Layer 1 (Fail)
//Storyboard Layer 2 (Pass)
//Storyboard Layer 3 (Foreground)
//Storyboard Layer 4 (Overlay)
//Storyboard Sound Samples

[TimingPoints]
1817,357.142857142857,4,2,1,80,1,0
3245,-90.9090909090909,4,2,1,80,0,0
14674,-111.111111111111,4,2,1,50,0,0
26102,-100,4,2,1,70,0,0
37531,-111.111111111111,4,2,1,60,0,0
46102,-100,4,2,1,70,0,0
54674,-90.9090909090909,4,2,1,85,0,0
77620,-90.9090909090909,4,2,1,45,0,0
80388,-111.111111111111,4,2,1,65,0,0

[Colours]
Combo1 : 216,143,243
Combo2 : 250,227,139
Combo3 : 114,207,186
Combo4 : 223,223,223

[HitObjects]
0,360,2888,6,0,L|28:353,3,35,2|2|2|2,0:0|0:0|0:0|0:0,0:0:0:0:
58,379,3245,6,0,P|121:377|165:273,1,154.000004699707,4|8,1:2|0:0,0:0:0:0:
88,280,3781,2,0,P|51:244|77:120,1,154.000004699707,2|0,0:0|1:2,0:0:0:0:
95,71,4317,1,8,0:0:0:0:
188,11,4495,6,0,P|181:59|177:104,1,77.0000023498536,2|0,1:2|0:0,0:0:0:0:
219,171,4852,2,0,P|268:160|308:153,1,77.0000023498536,0|10,1:0|0:2,0:0:0:0:
368,102,5209,1,0,0:0:0:0:
326,27,5388,1,0,1:0:0:0:
326,27,5566,1,0,1:0:0:0:
425,0,5745,2,0,P|483:32|467:104,1,115.50000352478,10|0,0:0|0:0,0:0:0:0:
472,92,6102,6,0,P|465:157|461:259,1,154.000004699707,6|8,1:2|0:0,0:0:0:0:
496,354,6638,2,0,P|440:339|409:334,1,77.0000023498536,2|0,0:0|1:0,0:0:0:0:
354,275,6995,1,0,1:0:0:0:
354,275,7174,1,8,0:0:0:0:
303,365,7352,6,0,P|255:379|205:388,1,77.0000023498536,2|0,1:2|0:0,0:0:0:0:
159,330,7709,1,2,1:2:0:0:
216,258,7888,1,8,0:0:0:0:
128,215,8066,2,0,P|80:229|30:238,1,77.0000023498536,2|0,0:2|1:0,0:0:0:0:
0,161,8424,1,0,1:0:0:0:
42,74,8602,2,0,P|99:74|145:136,1,115.50000352478,14|0,0:2|0:0,0:0:0:0:
152,136,8959,6,0,P|207:138|265:44,1,154.000004699707,6|8,1:2|0:0,0:0:0:0:
342,123,9495,1,2,0:0:0:0:
401,55,9674,1,0,1:0:0:0:
401,55,9852,2,0,P|452:47|489:39,1,77.0000023498536,0|8,1:0|0:0,0:0:0:0:
460,138,10209,6,0,P|452:208|448:307,1,154.000004699707,2|2,1:2|1:2,0:0:0:0:
378,384,10745,1,8,0:0:0:0:
378,384,10834,1,0,3:0:0:0:
378,384,10924,2,0,P|373:334|365:293,2,77.0000023498536,0|8|4,3:0|1:3|1:3,0:0:0:0:
289,352,11459,2,0,P|248:338|235:243,1,115.50000352478,8|0,1:3|0:0,0:0:0:0:
241,263,11816,6,0,P|248:218|249:181,1,77.0000023498536,10|2,0:0|0:0,0:0:0:0:
252,106,12174,1,0,1:2:0:0:
174,16,12352,6,0,P|166:68|165:101,1,77.0000023498536,10|2,0:0|0:0,0:0:0:0:
159,175,12709,1,0,1:2:0:0:
103,248,12888,5,10,0:0:0:0:
31,195,13066,2,0,P|-9:216|8:315,1,154.000004699707,2|10,0:0|0:0,0:0:0:0:
68,379,13602,1,8,0:0:0:0:
68,379,13691,1,0,1:0:0:0:
68,379,13781,1,8,0:0:0:0:
145,345,13959,1,10,0:0:0:0:
225,314,14138,1,10,0:0:0:0:
225,314,14674,6,0,P|286:321|330:380,1,125.999996154785,0|2,3:0|0:0,0:0:0:0:
488,329,15388,2,0,P|502:286|467:199,1,125.999996154785,0|0,3:0|0:0,0:0:0:0:
402,68,16102,2,0,P|444:62|478:53,2,62.9999980773926,2|0|0,0:0|0:0|0:0,0:0:0:0:
355,141,16638,2,0,P|295:140|247:67,1,125.999996154785,2|0,0:0|0:0,0:0:0:0:
233,14,17174,1,2,0:0:0:0:
47,12,17531,6,0,P|54:59|57:97,1,62.9999980773926,2|0,0:0|0:0,0:0:0:0:
27,153,17888,1,2,0:0:0:0:
27,153,18066,2,0,P|32:205|35:234,1,62.9999980773926,2|0,0:0|3:0,0:0:0:0:
98,379,18602,1,0,0:0:0:0:
224,298,18959,2,0,B|220:215|188:251|188:157,1,125.999996154785,2|2,0:0|0:0,0:0:0:0:
114,130,19495,2,0,P|157:136|225:72,1,125.999996154785,2|0,0:0|0:0,0:0:0:0:
243,9,20031,1,2,0:0:0:0:
399,69,20388,6,0,P|447:61|477:57,2,62.9999980773926,2|0|0,0:0|0:0|0:0,0:0:0:0:
342,135,20924,1,2,0:0:0:0:
342,135,21102,2,0,B|343:211|373:181|376:276,1,125.999996154785,0|2,0:0|0:0,0:0:0:0:
293,384,21816,2,0,P|247:334|174:345,1,125.999996154785,2|2,0:0|0:0,0:0:0:0:
183,252,22352,2,0,P|136:263|43:277,1,125.999996154785,2|0,0:0|0:0,0:0:0:0:
4,207,22888,1,2,0:0:0:0:
64,24,23245,6,0,P|106:40|115:134,1,125.999996154785,2|0,0:0|0:0,0:0:0:0:
193,175,23781,1,0,0:0:0:0:
193,175,23959,2,0,P|239:173|291:90,1,125.999996154785,2|0,0:0|0:0,0:0:0:0:
311,31,24495,1,0,0:0:0:0:
311,31,24674,2,0,P|258:42|225:50,2,62.9999980773926,2|0|0,0:0|0:0|0:0,0:0:0:0:
399,0,25209,1,0,0:0:0:0:
399,0,25388,2,0,P|439:25|441:88,1,94.499997116089,2|2,0:0|0:3,0:0:0:0:
440,83,25745,1,0,1:0:0:0:
500,240,26102,6,0,P|440:233|373:224,1,105,6|0,1:2|0:0,0:0:0:0:
384,210,26459,2,0,P|345:220|298:230,1,70,0|2,1:0|0:0,0:0:0:0:
355,310,26816,1,0,1:0:0:0:
355,310,26995,1,0,0:0:0:0:
295,382,27174,2,0,P|263:345|195:338,1,105,2|0,1:2|0:0,0:0:0:0:
200,316,27531,6,0,P|165:367|66:364,1,140,2|0,1:2|1:0,0:0:0:0:
20,320,28066,1,2,0:0:0:0:
83,253,28245,2,0,B|93:219|93:219|74:169,1,70,0|0,1:0|0:0,0:0:0:0:
5,113,28602,2,0,P|60:105|118:94,1,105,2|0,1:2|0:0,0:0:0:0:
116,73,28959,6,0,P|158:34|252:68,1,140,2|2,1:2|1:2,0:0:0:0:
309,0,29495,2,0,P|357:26|356:133,1,140,2|0,0:0|0:0,0:0:0:0:
288,136,30031,1,2,1:2:0:0:
288,136,30209,1,0,0:0:0:0:
323,217,30388,6,0,P|373:207|411:199,1,70,2|0,1:2|0:0,0:0:0:0:
465,154,30745,1,0,1:0:0:0:
512,236,30924,2,0,P|507:287|504:317,1,70,2|0,0:0|1:0,0:0:0:0:
443,376,31281,1,0,0:0:0:0:
367,328,31459,2,0,P|317:338|248:356,1,105,2|0,1:2|0:0,0:0:0:0:
245,344,31816,5,4,1:2:0:0:
208,196,32174,2,0,P|144:195|96:261,1,140,0|0,1:0|1:0,0:0:0:0:
32,182,32709,1,0,0:0:0:0:
32,182,32888,2,0,P|23:129|19:96,1,70,2|0,1:2|0:0,0:0:0:0:
8,14,33245,6,0,P|59:25|154:43,1,140,2|0,1:2|1:0,0:0:0:0:
185,114,33781,2,0,P|223:105|258:99,1,70,2|0,0:0|1:0,0:0:0:0:
296,22,34138,1,0,0:0:0:0:
399,12,34316,2,0,P|392:84|387:141,1,105,2|0,1:2|0:0,0:0:0:0:
390,152,34674,6,0,P|424:174|511:142,1,140,2|0,1:2|1:0,0:0:0:0:
459,230,35209,1,2,0:3:0:0:
462,234,35388,2,0,P|454:293|451:321,1,70,0|2,1:0|0:3,0:0:0:0:
406,376,35745,1,0,1:0:0:0:
333,327,35924,1,0,0:0:0:0:
333,327,36102,1,0,3:0:0:0:
333,327,37174,2,0,B|270:331|292:353|224:360,1,105,0|0,3:0|1:2,0:0:0:0:
208,381,37531,6,0,P|170:344|198:220,1,188.999994232178,4|0,1:2|1:0,0:0:0:0:
271,187,38245,1,8,0:0:0:0:
256,24,38602,1,2,0:0:0:0:
256,24,38781,2,0,P|207:38|176:44,1,62.9999980773926,0|0,1:0|1:0,0:0:0:0:
120,3,39138,1,8,0:0:0:0:
120,3,39316,2,0,P|81:21|66:111,1,125.999996154785,0|10,0:0|0:0,0:0:0:0:
0,222,40031,1,2,0:0:0:0:
92,340,40388,6,0,B|165:332|136:298|218:297,1,125.999996154785,4|0,1:2|1:0,0:0:0:0:
276,352,40924,1,0,1:0:0:0:
276,352,41102,1,8,0:0:0:0:
465,376,41459,5,2,0:0:0:0:
465,376,41638,2,0,P|460:323|456:297,1,62.9999980773926,0|0,1:0|1:0,0:0:0:0:
488,221,41995,2,0,P|450:232|417:241,1,62.9999980773926,8|0,0:0|0:0,0:0:0:0:
353,192,42352,1,8,0:3:0:0:
353,192,42531,2,0,P|296:209|267:216,1,62.9999980773926,4|4,0:3|0:3,0:0:0:0:
252,285,42888,2,0,P|204:299|172:309,1,62.9999980773926,4|0,0:3|1:0,0:0:0:0:
136,368,43245,5,4,1:2:0:0:
45,187,46102,6,0,L|-21:177,4,35,10|0|0|0|0,0:2|3:2|3:2|3:2|3:2,0:0:0:0:
109,246,46638,2,0,P|141:219|135:127,1,140,8|0,0:2|1:2,0:0:0:0:
180,50,47174,2,0,L|236:61,3,35,8|0|0|0,0:2|3:2|1:2|3:2,0:0:0:0:
248,85,47531,6,0,P|299:75|341:68,1,70,10|0,0:2|3:2,0:0:0:0:
376,11,47888,1,2,1:2:0:0:
458,42,48066,2,0,B|476:72|476:72|462:136,1,70,8|0,0:2|1:2,0:0:0:0:
400,156,48424,1,0,3:2:0:0:
400,156,48513,1,0,3:2:0:0:
400,156,48602,2,0,P|411:228|415:272,1,105,10|0,1:2|0:2,0:0:0:0:
429,283,48959,6,0,P|471:274|516:268,1,70,12|0,0:0|1:0,0:0:0:0:
433,384,49316,1,0,1:0:0:0:
352,337,49495,2,0,P|295:328|208:316,1,140,12|0,0:0|1:0,0:0:0:0:
151,376,50031,2,0,P|100:366|68:358,1,70,12|0,0:0|0:0,0:0:0:0:
20,296,50388,5,12,0:0:0:0:
20,296,50566,1,0,1:0:0:0:
57,212,50745,1,0,1:0:0:0:
141,253,50924,2,0,P|187:235|191:128,1,140,12|0,0:0|0:0,0:0:0:0:
152,84,51459,2,0,P|112:92|76:98,1,70,12|0,0:0|1:0,0:0:0:0:
18,44,51816,1,6,0:0:0:0:
256,192,52531,12,2,54316,0:0:0:0:
367,293,54674,6,0,P|422:282|463:277,1,77.0000023498536,6|0,1:2|1:2,0:0:0:0:
510,218,55031,1,8,0:0:0:0:
441,152,55209,2,0,B|430:113|430:113|451:65,1,77.0000023498536,2|0,0:0|1:0,0:0:0:0:
373,14,55566,1,0,1:0:0:0:
308,87,55745,2,0,P|260:92|199:33,1,115.50000352478,10|0,0:0|0:0,0:0:0:0:
199,28,56102,6,0,P|139:41|101:45,1,77.0000023498536,2|0,1:2|1:0,0:0:0:0:
39,3,56459,1,8,0:0:0:0:
0,95,56638,1,2,1:2:0:0:
0,95,56816,2,0,P|14:151|17:196,1,77.0000023498536,0|0,0:0|1:0,0:0:0:0:
0,262,57174,2,0,P|45:247|118:235,1,115.50000352478,10|0,0:0|0:0,0:0:0:0:
135,224,57531,6,0,P|129:283|129:319,1,77.0000023498536,2|0,1:2|1:2,0:0:0:0:
192,376,57888,2,0,P|266:379|317:302,1,154.000004699707,10|0,0:0|1:0,0:0:0:0:
246,254,58424,1,0,1:0:0:0:
299,183,58602,2,0,P|345:194|393:199,1,77.0000023498536,10|0,0:0|0:0,0:0:0:0:
446,274,58959,5,2,1:2:0:0:
446,274,59138,1,0,1:0:0:0:
512,201,59316,1,8,0:0:0:0:
445,135,59495,2,0,P|438:92|437:51,1,77.0000023498536,2|0,1:2|0:0,0:0:0:0:
359,3,59852,1,0,1:0:0:0:
307,93,60031,2,0,P|257:95|209:50,1,115.50000352478,10|0,0:0|0:0,0:0:0:0:
201,37,60388,6,0,P|150:33|103:24,1,77.0000023498536,6|0,1:2|1:0,0:0:0:0:
29,7,60745,2,0,P|37:63|47:159,1,154.000004699707,8|0,0:0|1:0,0:0:0:0:
0,236,61281,1,0,1:0:0:0:
57,309,61459,2,0,P|104:297|135:293,1,77.0000023498536,10|2,0:0|0:0,0:0:0:0:
191,223,61816,5,2,1:2:0:0:
191,223,61995,1,0,1:2:0:0:
126,152,62174,1,8,0:0:0:0:
184,80,62352,2,0,P|237:93|352:112,1,154.000004699707,2|0,1:2|1:0,0:0:0:0:
415,75,62888,2,0,P|406:31|401:-2,1,77.0000023498536,10|0,0:0|0:0,0:0:0:0:
504,58,63245,5,2,1:2:0:0:
504,58,63424,1,0,1:0:0:0:
499,157,63602,2,0,P|449:155|373:234,1,154.000004699707,8|0,0:0|1:0,0:0:0:0:
438,287,64138,1,0,1:0:0:0:
395,371,64316,2,0,P|351:361|311:354,1,77.0000023498536,10|0,0:0|0:0,0:0:0:0:
246,297,64674,5,2,1:2:0:0:
199,371,64852,1,0,1:0:0:0:
116,358,65031,1,10,0:0:0:0:
77,278,65209,2,0,P|83:227|84:171,1,77.0000023498536,2|0,1:2|0:0,0:0:0:0:
78,112,65566,1,0,1:0:0:0:
78,112,65745,2,0,P|19:126|-19:133,1,77.0000023498536,10|0,0:0|0:0,0:0:0:0:
78,23,66102,6,0,P|145:35|218:54,1,115.50000352478,6|0,1:2|0:0,0:0:0:0:
214,74,66459,2,0,P|263:67|308:40,1,77.0000023498536,10|0,0:0|0:0,0:0:0:0:
358,0,66816,1,2,0:0:0:0:
424,69,66995,1,0,1:0:0:0:
356,127,67174,2,0,P|352:183|351:220,1,77.0000023498536,10|0,0:0|0:0,0:0:0:0:
364,307,67531,6,0,P|297:310|256:219,1,154.000004699707,2|8,1:2|0:0,0:0:0:0:
235,160,68066,1,2,1:2:0:0:
176,92,68245,2,0,P|120:89|73:152,1,115.50000352478
77,150,68602,2,0,P|87:214|86:240,1,77.0000023498536,10|0,0:0|0:0,0:0:0:0:
0,296,68959,6,0,P|53:304|95:314,1,77.0000023498536,6|0,1:2|0:0,0:0:0:0:
165,384,69316,2,0,P|162:331|156:291,1,77.0000023498536,10|0,0:0|0:0,0:0:0:0:
204,219,69674,1,2,1:2:0:0:
274,281,69852,1,0,1:2:0:0:
341,212,70031,2,0,P|389:200|442:197,1,77.0000023498536,10|0,0:0|0:0,0:0:0:0:
503,128,70388,6,0,P|514:65|461:21,1,115.50000352478,6|0,1:2|0:0,0:0:0:0:
463,11,70745,2,0,P|408:22|376:26,1,77.0000023498536,10|0,0:0|0:0,0:0:0:0:
351,107,71102,1,0,1:0:0:0:
265,131,71281,1,0,1:0:0:0:
198,61,71459,2,0,P|147:52|113:47,1,77.0000023498536,8|0,0:0|0:0,0:0:0:0:
26,5,71816,6,0,B|17:103|65:61|51:180,1,154.000004699707,6|8,1:2|0:0,0:0:0:0:
108,228,72352,2,0,P|57:237|24:247,1,77.0000023498536,0|0,3:0|1:0,0:0:0:0:
90,322,72709,1,0,1:0:0:0:
90,322,72888,2,0,P|136:323|208:374,1,115.50000352478,10|0,0:2|0:0,0:0:0:0:
204,383,73245,1,2,1:2:0:0:
338,273,73602,5,10,0:0:0:0:
398,336,73781,1,0,1:0:0:0:
472,287,73959,2,0,B|487:252|487:252|471:200,1,77.0000023498536,2|0,0:2|1:0,0:0:0:0:
503,120,74316,2,0,P|443:136|375:149,1,115.50000352478,8|0,0:0|0:0,0:0:0:0:
373,158,74674,6,0,P|377:104|381:69,1,77.0000023498536,4|0,1:2|1:0,0:0:0:0:
317,18,75031,1,8,0:0:0:0:
317,18,75209,1,0,1:0:0:0:
240,49,75388,1,8,0:0:0:0:
240,49,75566,1,0,1:0:0:0:
160,80,75745,2,0,P|98:70|36:60,1,115.50000352478,8|0,0:0|0:0,0:0:0:0:
24,53,76102,6,0,P|33:128|36:160,1,77.0000023498536,0|8,1:0|0:0,0:0:0:0:
91,196,76459,1,0,1:0:0:0:
43,271,76638,1,0,1:0:0:0:
112,335,76816,2,0,P|165:325|198:318,1,77.0000023498536,8|4,1:3|1:3,0:0:0:0:
254,254,77174,1,8,1:3:0:0:
310,327,77352,1,0,3:0:0:0:
385,270,77531,5,2,1:2:0:0:
256,192,77620,12,0,80388,1:0:0:0:
495,263,81816,6,0,P|434:272|360:284,1,125.999996154785,0|0,1:0|1:0,0:0:0:0:
434,147,82531,1,2,1:3:0:0:
342,40,82888,1,0,1:0:0:0:
342,40,83066,1,12,0:0:0:0:
342,40,83245,6,0,P|304:79|219:75,1,125.999996154785,6|0,1:2|1:2,0:0:0:0:
181,12,83781,2,0,P|133:2|66:68,1,125.999996154785,2|2,0:0|0:0,0:0:0:0:
49,124,84316,1,2,1:2:0:0:
170,223,84674,6,0,P|208:218|244:206,2,62.9999980773926,2|2|0,1:2|0:0|1:0,0:0:0:0:
117,295,85209,2,0,P|142:324|233:337,1,125.999996154785,2|2,0:0|0:0,0:0:0:0:
298,384,85745,2,0,P|347:377|374:373,1,62.9999980773926,2|2,0:0|3:0,0:0:0:0:
430,330,86102,6,0,P|474:341|512:344,2,62.9999980773926,2|2|2,0:0|0:0|0:0,0:0:0:0:
367,263,86638,2,0,B|363:188|397:217|396:118,1,125.999996154785,2|2,0:0|0:0,0:0:0:0:
355,69,87174,1,2,0:0:0:0:
160,99,87531,1,2,0:0:0:0:
