osu file format v14

[General]
AudioFilename: audio.mp3
AudioLeadIn: 0
PreviewTime: 52888
Countdown: 0
SampleSet: Soft
StackLeniency: 0.7
Mode: 0
LetterboxInBreaks: 0
WidescreenStoryboard: 1

[Editor]
DistanceSpacing: 0.9
BeatDivisor: 4
GridSize: 8
TimelineZoom: 1.4

[Metadata]
Title:Only for you (TV Size)
TitleUnicode:Only for you (TV Size)
Artist:Anisphia (CV: Senbongi Sayaka), Euphyllia (CV: Iwami Manaka)
ArtistUnicode:アニスフィア (CV: 千本木彩花), ユフィリア (CV: 石見舞菜香)
Creator:ckharv
Version:Erisu's Yuri Insane
Source:転生王女と天才令嬢の魔法革命
Tags:Tensei Oujo to Tensai Reijou no Mahou Kakumei The Magical Revolution of the Reincarnated Princess and the Genius Young Lady tv anime ed ending japanese pop jpop j-pop yuri gay lesbian erisu
BeatmapID:3966228
BeatmapSetID:1921525

[Difficulty]
HPDrainRate:5
CircleSize:4
OverallDifficulty:7.5
ApproachRate:9
SliderMultiplier:1.4
SliderTickRate:1

[Events]
//Background and Video events
0,0,"im gay for women.jpg",0,0
Video,0,"yuried1.mp4"
//Break Periods
//Storyboard Layer 0 (Background)
//Storyboard Layer 1 (Fail)
//Storyboard Layer 2 (Pass)
//Storyboard Layer 3 (Foreground)
//Storyboard Layer 4 (Overlay)
//Storyboard Sound Samples

[TimingPoints]
1817,357.142857142857,4,2,18,40,1,0
3245,-76.9230769230769,4,2,18,70,0,0
14674,-90.9090909090909,4,2,18,50,0,0
26102,-83.3333333333333,4,2,18,60,0,0
37531,-83.3333333333333,4,2,18,55,0,0
46102,-76.9230769230769,4,2,18,70,0,0
51906,-76.9230769230769,4,2,18,5,0,0
51995,-76.9230769230769,4,2,18,70,0,0
54674,-71.4285714285714,4,2,18,80,0,0
77531,-71.4285714285714,4,2,18,70,0,1
80388,-83.3333333333333,4,2,18,70,0,0

[Colours]
Combo1 : 216,143,243
Combo2 : 250,227,139
Combo3 : 114,207,186
Combo4 : 223,223,223

[HitObjects]
201,104,2888,5,0,3:0:0:0:
201,104,2977,1,0,3:0:0:0:
201,104,3066,1,0,3:0:0:0:
201,104,3156,1,0,3:0:0:0:
201,104,3245,6,0,P|106:95|31:169,1,181.999991668702,4|10,1:0|0:0,0:0:0:0:
164,287,3781,1,0,3:3:0:0:
164,287,3870,1,0,3:3:0:0:
164,287,3959,2,0,B|181:243|181:243|175:185,1,90.9999958343508,0|0,3:3|1:0,0:0:0:0:
310,369,4317,2,0,B|293:325|293:325|299:267,1,90.9999958343508,10|0,0:0|1:0,0:0:0:0:
299,175,4674,6,0,B|397:168|377:222|475:213,1,181.999991668702,0|10,0:0|0:0,0:0:0:0:
316,259,5209,1,0,0:0:0:0:
450,122,5388,2,0,P|458:78|431:22,1,90.9999958343508,0|0,1:0|1:0,0:0:0:0:
218,74,5745,2,0,P|260:90|304:82,1,90.9999958343508,10|0,0:0|0:0,0:0:0:0:
512,254,6102,6,0,B|429:216|429:216|340:242,1,181.999991668702,4|10,1:2|0:0,0:0:0:0:
161,345,6638,1,0,0:0:0:0:
218,221,6816,2,0,P|237:265|246:315,1,90.9999958343508,0|0,1:0|1:0,0:0:0:0:
16,222,7174,1,10,0:0:0:0:
63,370,7352,6,0,B|70:302|70:302|101:268|101:268|111:187,1,181.999991668702,4|0,1:2|0:0,0:0:0:0:
227,85,7888,1,10,0:0:0:0:
66,57,8066,1,0,0:0:0:0:
233,181,8245,2,0,B|279:189|279:189|343:164,1,90.9999958343508,0|0,1:0|1:0,0:0:0:0:
159,28,8602,2,0,B|142:69|142:69|150:115,1,90.9999958343508,10|0,0:0|0:0,0:0:0:0:
314,262,8959,6,0,P|353:183|324:80,1,181.999991668702,4|10,1:2|0:0,0:0:0:0:
171,237,9495,1,0,3:0:0:0:
171,237,9584,1,0,3:0:0:0:
171,237,9674,2,0,L|181:331,1,90.9999958343508,0|0,1:0|1:0,0:0:0:0:
232,162,10031,1,10,0:0:0:0:
19,294,10209,6,0,P|89:342|205:306,1,181.999991668702,0|0,1:0|1:0,0:0:0:0:
296,272,10745,2,0,P|345:275|413:287,1,90.9999958343508,10|0,0:0|0:0,0:0:0:0:
459,365,11102,1,4,0:3:0:0:
492,334,11191,1,4,0:3:0:0:
512,294,11280,1,4,0:3:0:0:
512,248,11369,1,4,0:3:0:0:
498,206,11459,1,8,0:3:0:0:
318,133,11638,1,4,0:3:0:0:
409,37,11816,6,0,P|429:73|423:138,1,90.9999958343508,4|0,1:2|0:0,0:0:0:0:
316,319,12174,1,0,1:0:0:0:
234,108,12352,2,0,P|275:108|328:146,1,90.9999958343508,4|0,2:0|0:0,0:0:0:0:
407,269,12709,1,0,1:0:0:0:
187,295,12888,2,0,P|208:259|267:232,1,90.9999958343508,4|0,1:2|0:0,0:0:0:0:
407,136,13245,5,0,1:0:0:0:
407,136,13424,1,0,1:0:0:0:
306,322,13602,1,0,1:0:0:0:
301,170,13781,1,0,1:0:0:0:
440,246,13959,1,8,0:0:0:0:
157,320,14138,1,8,0:0:0:0:
371,65,14674,5,4,1:1:0:0:
371,65,15031,2,0,P|401:142|364:236,1,154.000004699707,2|2,0:0|0:0,0:0:0:0:
250,216,15745,2,0,P|220:146|236:72,1,154.000004699707,2|2,0:0|0:0,0:0:0:0:
236,72,16459,1,2,0:0:0:0:
177,25,16638,2,0,B|82:20|118:59|25:53,1,154.000004699707,2|0,0:0|0:0,0:0:0:0:
109,140,17174,1,2,0:0:0:0:
109,140,17531,6,0,P|99:183|79:300,1,154.000004699707,2|0,0:0|0:0,0:0:0:0:
253,354,18245,2,0,P|263:311|283:194,1,154.000004699707,2|2,0:0|0:0,0:0:0:0:
281,202,18781,1,0,0:0:0:0:
187,142,18959,6,0,P|194:172|203:219,1,77.0000023498536,2|0,0:0|0:0,0:0:0:0:
128,300,19316,1,2,0:0:0:0:
236,323,19495,2,0,B|297:328|340:366|340:366|392:356,1,154.000004699707,2|0,0:0|0:0,0:0:0:0:
501,222,20031,2,0,P|449:275|375:263,1,154.000004699707,2|0,0:0|0:0,0:0:0:0:
376,264,20745,6,0,P|371:227|360:173,1,77.0000023498536,2|0,0:0|0:0,0:0:0:0:
512,78,21102,2,0,P|496:153|485:229,1,154.000004699707,2|2,0:0|0:0,0:0:0:0:
480,358,21638,1,0,0:0:0:0:
367,333,21816,6,0,B|297:365|297:365|218:346,1,154.000004699707,2|2,0:0|0:0,0:0:0:0:
130,264,22352,2,0,B|200:232|200:232|279:251,1,154.000004699707,2|2,0:0|0:0,0:0:0:0:
362,225,22888,2,0,P|368:183|350:136,1,77.0000023498536,2|0,0:0|0:0,0:0:0:0:
250,39,23245,2,0,P|217:108|220:184,1,154.000004699707,2|0,0:0|0:0,0:0:0:0:
271,248,23781,1,2,0:0:0:0:
208,300,23959,2,0,L|129:287,1,77.0000023498536,2|0,0:0|0:0,0:0:0:0:
45,211,24316,2,0,L|124:198,1,77.0000023498536,0|2,0:0|0:0,0:0:0:0:
236,94,24674,5,2,0:0:0:0:
321,203,24852,1,2,0:0:0:0:
188,227,25031,1,2,0:0:0:0:
319,118,25209,2,0,P|388:136|487:139,1,154.000004699707,2|2,0:0|0:3,0:0:0:0:
470,140,25656,1,2,0:3:0:0:
470,140,25745,1,2,0:3:0:0:
476,147,26102,6,0,P|386:157|292:200,1,167.999994873047,4|0,1:0|1:0,0:0:0:0:
314,185,26638,1,0,0:0:0:0:
242,262,26816,2,0,P|195:260|157:244,1,83.9999974365235,0|0,1:0|0:0,0:0:0:0:
191,90,27174,2,0,P|212:131|217:172,1,83.9999974365235,0|0,1:0|0:0,0:0:0:0:
50,346,27531,6,0,P|23:268|50:188,1,167.999994873047,0|0,1:0|1:0,0:0:0:0:
192,78,28066,1,0,0:0:0:0:
117,21,28245,2,0,P|107:58|102:103,1,83.9999974365235,0|0,1:0|0:0,0:0:0:0:
267,136,28602,2,0,P|277:99|282:54,1,83.9999974365235,0|0,1:0|0:0,0:0:0:0:
156,208,28959,6,0,B|258:198|216:261|345:242,1,167.999994873047,0|0,1:0|1:0,0:0:0:0:
315,245,29495,1,0,0:0:0:0:
491,331,29674,2,0,P|408:309|334:373,1,167.999994873047,0|0,1:0|1:0,0:0:0:0:
490,235,30209,1,0,0:0:0:0:
427,189,30388,6,0,P|427:122|442:19,1,167.999994873047,0|0,1:0|1:0,0:0:0:0:
312,82,30924,2,0,P|320:123|326:168,1,83.9999974365235,0|0,0:0|1:0,0:0:0:0:
405,108,31281,1,0,0:0:0:0:
239,17,31459,2,0,P|206:117|226:188,1,167.999994873047,0|4,1:0|1:2,0:0:0:0:
219,175,32174,6,0,B|177:180|177:180|125:161,1,83.9999974365235,0|0,1:0|0:0,0:0:0:0:
25,58,32531,2,0,B|64:43|64:43|106:48,1,83.9999974365235,0|0,1:0|0:0,0:0:0:0:
46,146,32888,2,0,P|51:187|55:229,1,83.9999974365235,0|0,1:0|0:0,0:0:0:0:
185,356,33245,2,0,B|221:307|206:235|206:235|165:275,1,167.999994873047,0|0,1:0|1:0,0:0:0:0:
112,310,33781,1,0,0:0:0:0:
299,304,33959,2,0,B|364:315|364:315|393:341|393:341|464:347,1,167.999994873047,0|0,1:0|1:0,0:0:0:0:
455,346,34674,6,0,P|497:283|465:177,1,167.999994873047,0|0,1:0|1:0,0:0:0:0:
316,152,35209,1,0,0:0:0:0:
411,69,35388,2,0,P|406:110|401:172,1,83.9999974365235,0|0,1:0|0:0,0:0:0:0:
277,236,35745,2,0,P|282:277|287:339,1,83.9999974365235,0|0,1:0|0:0,0:0:0:0:
221,371,36102,5,2,0:3:0:0:
221,371,37531,6,0,P|147:333|41:337,1,167.999994873047,4|0,1:0|0:0,0:0:0:0:
189,231,38066,1,0,1:0:0:0:
43,190,38245,2,0,P|84:190|134:169,1,83.9999974365235,10|0,0:0|0:0,0:0:0:0:
209,113,38602,1,2,0:3:0:0:
209,113,38781,1,0,1:0:0:0:
387,246,38959,5,0,1:0:0:0:
309,165,39138,2,0,P|299:234|289:333,1,167.999994873047,10|0,0:0|0:0,0:0:0:0:
386,245,39674,2,0,P|392:209|396:138,1,83.9999974365235,10|0,0:0|0:0,0:0:0:0:
411,28,40031,1,2,0:3:0:0:
507,109,40209,1,0,1:0:0:0:
396,162,40388,6,0,B|292:167|340:114|220:119,1,167.999994873047,4|0,1:2|0:0,0:0:0:0:
80,103,40924,1,0,1:0:0:0:
143,14,41102,2,0,P|158:54|159:104,1,83.9999974365235,10|0,0:0|0:0,0:0:0:0:
53,257,41459,1,0,0:0:0:0:
53,257,41638,1,0,1:0:0:0:
156,186,41816,5,0,1:0:0:0:
26,88,41995,2,0,P|28:129|43:168,1,83.9999974365235,10|0,0:0|0:0,0:0:0:0:
179,269,42352,1,8,0:3:0:0:
252,207,42531,1,4,0:3:0:0:
152,168,42709,1,4,0:3:0:0:
86,254,42888,1,4,0:3:0:0:
204,346,43066,1,4,0:3:0:0:
335,268,43245,1,4,1:2:0:0:
256,192,43334,12,0,45924,0:0:0:0:
340,77,46102,5,2,1:0:0:0:
340,77,46191,1,0,1:0:0:0:
340,77,46281,1,0,1:0:0:0:
340,77,46370,1,0,1:0:0:0:
340,77,46459,2,0,L|325:140,3,45.4999979171754,0|0|8|0,1:0|1:0|0:0|1:0,0:0:0:0:
238,182,46816,5,2,1:0:0:0:
238,182,46906,1,0,1:0:0:0:
238,182,46995,2,0,L|221:119,1,45.4999979171754,0|0,1:0|1:0,0:0:0:0:
385,235,47174,2,0,L|326:225,1,45.4999979171754,8|0,0:0|1:0,0:0:0:0:
229,313,47352,1,0,1:0:0:0:
229,313,47441,1,0,1:0:0:0:
229,313,47531,2,0,L|303:303,3,45.4999979171754,2|0|0|0,1:0|1:0|1:0|1:0,0:0:0:0:
166,238,47888,6,0,P|152:263|149:310,1,45.4999979171754,0|0,1:0|1:0,0:0:0:0:
81,362,48066,2,0,P|74:340|62:320,1,45.4999979171754,8|0,0:0|1:0,0:0:0:0:
80,171,48245,2,0,P|66:196|63:243,1,45.4999979171754,2|0,1:0|1:0,0:0:0:0:
191,222,48424,2,0,P|179:202|172:180,1,45.4999979171754,0|0,1:0|1:0,0:0:0:0:
85,9,48602,5,8,0:0:0:0:
80,171,48781,1,4,0:3:0:0:
249,76,48959,2,0,P|297:78|348:87,1,90.9999958343508,4|0,1:2|1:0,0:0:0:0:
152,87,49316,5,0,1:0:0:0:
300,229,49495,1,8,0:0:0:0:
440,110,49674,1,0,0:0:0:0:
223,152,49852,1,0,1:0:0:0:
397,214,50031,1,8,0:0:0:0:
407,30,50209,1,0,0:0:0:0:
297,13,50388,6,0,P|307:60|315:112,1,90.9999958343508,8|0,0:0|1:0,0:0:0:0:
170,278,50745,1,0,1:0:0:0:
99,167,50924,1,8,0:0:0:0:
269,203,51102,1,0,0:0:0:0:
240,369,51281,1,0,1:0:0:0:
189,185,51459,2,0,P|195:140|201:94,1,90.9999958343508,8|2,0:0|0:3,0:0:0:0:
209,63,51727,1,2,0:3:0:0:
209,63,51816,6,0,P|226:57|216:69,1,45.4999979171754,6|0,1:0|0:0,0:0:0:0:
326,127,54674,6,0,B|366:110|366:110|407:117|407:117|465:90|531:93,1,195.999994018555,6|10,1:0|0:0,0:0:0:0:
256,73,55209,1,0,0:0:0:0:
406,245,55388,2,0,B|356:199|269:217|269:217|237:260,1,195.999994018555,0|10,1:0|0:0,0:0:0:0:
286,325,55924,1,0,0:0:0:0:
51,333,56102,5,2,1:0:0:0:
51,333,56191,1,0,3:3:0:0:
51,333,56281,1,0,3:3:0:0:
145,356,56459,1,10,0:0:0:0:
202,278,56638,1,2,1:0:0:0:
110,253,56816,2,0,P|66:275|19:285,1,97.9999970092774,0|0,0:0|1:0,0:0:0:0:
251,148,57174,2,0,P|203:138|159:116,1,97.9999970092774,10|0,0:1|0:0,0:0:0:0:
51,24,57531,6,0,P|1:97|36:221,1,195.999994018555,4|10,1:2|0:0,0:0:0:0:
194,305,58066,1,0,0:0:0:0:
104,249,58245,2,0,P|95:296|91:348,1,97.9999970092774,0|0,1:0|1:0,0:0:0:0:
333,185,58602,2,0,P|284:192|235:196,1,97.9999970092774,10|0,0:0|0:0,0:0:0:0:
194,305,58959,6,0,B|304:300|273:360|398:341,1,195.999994018555,2|10,1:0|0:0,0:0:0:0:
487,182,59495,2,0,P|438:231|320:215,1,195.999994018555,2|0,1:0|1:0,0:0:0:0:
452,62,60031,2,0,P|404:51|355:47,1,97.9999970092774,10|0,0:1|0:0,0:0:0:0:
273,100,60388,5,4,1:2:0:0:
273,100,60477,1,0,1:0:0:0:
273,100,60566,1,0,1:0:0:0:
191,152,60745,2,0,B|171:109|171:109|183:58,1,97.9999970092774,10|0,0:0|0:0,0:0:0:0:
355,47,61102,2,0,B|374:89|374:89|364:145,1,97.9999970092774,0|0,1:0|1:0,0:0:0:0:
307,235,61459,1,10,0:0:0:0:
470,351,61638,1,0,0:0:0:0:
462,267,61816,6,0,B|382:275|382:275|346:307|346:307|265:317,1,195.999994018555,2|10,1:0|0:0,0:0:0:0:
82,241,62352,2,0,P|130:245|191:255,1,97.9999970092774,2|0,1:0|0:0,0:0:0:0:
39,309,62709,1,0,1:0:0:0:
192,160,62888,2,0,P|144:156|83:146,1,97.9999970092774,10|0,0:1|0:0,0:0:0:0:
7,68,63245,6,0,B|43:99|43:99|100:117|198:66,1,195.999994018555,4|10,1:2|0:0,0:0:0:0:
365,137,63781,1,0,0:0:0:0:
290,31,63959,2,0,P|281:75|280:137,1,97.9999970092774,0|0,1:0|1:0,0:0:0:0:
310,322,64316,1,10,0:0:0:0:
456,218,64495,1,0,0:0:0:0:
240,247,64674,6,0,B|176:287|98:268|98:268|59:201,1,195.999994018555,2|10,1:0|0:0,0:0:0:0:
131,167,65209,1,2,1:0:0:0:
256,351,65388,1,0,0:0:0:0:
95,319,65566,1,0,1:0:0:0:
327,149,65745,1,10,0:1:0:0:
212,233,65924,1,0,0:0:0:0:
328,298,66102,6,0,P|396:338|497:313,1,146.999995513916,4|0,1:2|0:0,0:0:0:0:
489,320,66459,2,0,P|482:272|464:211,1,97.9999970092774,10|0,0:0|0:0,0:0:0:0:
258,156,66816,2,0,P|303:173|364:188,1,97.9999970092774,0|0,1:0|1:0,0:0:0:0:
512,58,67174,2,0,P|473:88|430:134,1,97.9999970092774,10|0,0:0|0:0,0:0:0:0:
168,62,67531,6,0,P|244:16|356:51,1,195.999994018555,0|10,1:0|0:0,0:0:0:0:
160,155,68066,1,0,1:0:0:0:
160,155,68156,1,2,0:3:0:0:
160,155,68245,2,0,P|101:143|39:136,1,97.9999970092774,2|0,0:3|1:0,0:0:0:0:
265,105,68602,2,0,P|292:152|285:217,1,97.9999970092774,10|0,0:0|0:0,0:0:0:0:
187,339,68959,5,4,1:0:0:0:
187,339,69316,2,0,P|181:288|176:233,1,97.9999970092774,10|0,0:0|0:0,0:0:0:0:
261,59,69674,1,0,1:0:0:0:
343,175,69852,1,0,1:0:0:0:
176,241,70031,2,0,P|127:245|78:251,1,97.9999970092774,10|0,0:0|0:0,0:0:0:0:
265,159,70388,6,0,P|335:151|441:142,1,146.999995513916,4|0,1:2|0:0,0:0:0:0:
483,178,70745,2,0,B|490:128|490:128|458:78,1,97.9999970092774,10|0,0:0|0:0,0:0:0:0:
345,34,71102,2,0,B|304:93|304:93|332:176,1,146.999995513916,2|2,1:1|0:1,0:0:0:0:
346,186,71459,1,10,0:2:0:0:
496,320,71638,1,0,0:0:0:0:
413,289,71816,6,0,B|298:270|341:343|200:316,1,195.999994018555,4|10,1:2|0:0,0:0:0:0:
85,200,72352,1,0,0:0:0:0:
207,226,72531,1,0,1:0:0:0:
118,309,72709,5,0,1:0:0:0:
296,249,72888,1,10,0:0:0:0:
154,114,73066,1,0,0:0:0:0:
192,242,73245,5,0,1:0:0:0:
23,166,73424,1,0,1:0:0:0:
125,72,73602,2,0,P|149:117|143:187,1,97.9999970092774,10|0,0:0|1:0,0:0:0:0:
14,309,73959,2,0,P|59:285|129:291,1,97.9999970092774,0|0,0:0|1:0,0:0:0:0:
317,297,74316,2,0,P|268:294|225:271,1,97.9999970092774,10|0,0:0|0:0,0:0:0:0:
272,170,74674,5,0,1:0:0:0:
272,170,74852,1,0,1:0:0:0:
369,296,75031,1,8,0:0:0:0:
191,271,75209,1,0,1:0:0:0:
216,93,75388,1,8,0:0:0:0:
397,187,75566,1,0,1:0:0:0:
266,357,75745,1,8,0:0:0:0:
120,194,75923,1,0,1:0:0:0:
259,46,76102,6,0,P|261:93|271:148,1,97.9999970092774,0|8,1:0|0:0,0:0:0:0:
453,278,76459,2,0,P|411:256|358:237,1,97.9999970092774,2|0,0:3|1:0,0:0:0:0:
156,325,76816,2,0,P|195:299|238:263,1,97.9999970092774,4|0,0:3|0:0,0:0:0:0:
420,74,77174,5,4,0:3:0:0:
435,92,77352,1,0,0:0:0:0:
415,93,77531,1,6,1:2:0:0:
256,192,77620,12,0,80209,0:0:0:0:
111,90,80388,6,0,P|123:133|133:185,1,83.9999974365235,0|0,1:0|0:0,0:0:0:0:
54,324,80745,1,0,1:0:0:0:
19,244,80924,2,0,P|76:297|188:264,1,167.999994873047
243,361,81459,2,0,P|251:319|262:279,1,83.9999974365235,0|0,1:0|0:0,0:0:0:0:
378,101,81816,5,0,1:0:0:0:
381,104,82174,2,0,P|407:152|414:187,1,83.9999974365235,0|0,1:0|0:0,0:0:0:0:
327,216,82531,2,0,P|301:168|294:133,1,83.9999974365235,0|0,1:0|0:0,0:0:0:0:
185,69,82888,1,0,1:0:0:0:
106,188,83066,1,8,0:0:0:0:
36,133,83245,6,0,B|140:130|96:182|197:177,1,167.999994873047,2|0,1:0|1:0,0:0:0:0:
295,65,83781,2,0,P|343:75|388:81,1,83.9999974365235,0|0,0:0|1:0,0:0:0:0:
324,163,84138,1,0,0:0:0:0:
203,13,84316,2,0,P|193:61|187:106,1,83.9999974365235,0|0,1:0|0:0,0:0:0:0:
238,298,84674,5,0,1:0:0:0:
321,323,84852,1,0,0:0:0:0:
391,267,85031,2,0,P|381:219|375:174,1,83.9999974365235,0|0,1:0|0:0,0:0:0:0:
156,249,85388,2,0,P|149:290|141:331,1,83.9999974365235,0|0,1:0|0:0,0:0:0:0:
257,237,85745,2,0,P|250:195|242:154,1,83.9999974365235,0|0,1:0|0:0,0:0:0:0:
147,51,86102,5,2,0:0:0:0:
132,66,86281,1,2,0:0:0:0:
150,73,86459,1,2,0:0:0:0:
147,51,86638,1,2,0:0:0:0:
88,254,87174,5,2,0:3:0:0:
410,142,87531,1,2,0:1:0:0:
