osu file format v14

[General]
AudioFilename: Patema Inverse - Sakasama no Patema ED _piano_.mp3
AudioLeadIn: 0
PreviewTime: 54832
Countdown: 0
SampleSet: Soft
StackLeniency: 0.6
Mode: 0
LetterboxInBreaks: 0
WidescreenStoryboard: 0

[Editor]
DistanceSpacing: 0.7
BeatDivisor: 4
GridSize: 16
TimelineZoom: 1

[Metadata]
Title:Patema Inverted
TitleUnicode:Patema Inverted
Artist:Animenz
ArtistUnicode:Animenz
Creator:SzambeX
Version:Normal
Source:Sakasama No Patema
Tags:Ending Piano Instrumental Patema Inverse Sakasama no patema Patema Inverted
BeatmapID:893320
BeatmapSetID:411699

[Difficulty]
HPDrainRate:4
CircleSize:3.5
OverallDifficulty:3.5
ApproachRate:3
SliderMultiplier:1.3
SliderTickRate:1

[Events]
//Background and Video events
0,0,"maxresdefault.jpg",0,0
//Break Periods
2,46990,58702
2,83234,93655
//Storyboard Layer 0 (Background)
//Storyboard Layer 1 (Fail)
//Storyboard Layer 2 (Pass)
//Storyboard Layer 3 (Foreground)
//Storyboard Sound Samples

[TimingPoints]
2149.36585365854,491.803278688525,4,2,0,50,1,0
10755,-100,4,2,0,40,0,0
11370,-100,4,2,0,30,0,0
11862,-100,4,2,0,20,0,0
13520,491.803278688525,4,2,0,50,1,0
15019,491.803278688525,4,2,0,50,1,0
17020,491.803278688525,4,2,0,50,1,0
28700,-100,4,2,0,40,0,0
29192,-100,4,2,0,30,0,0
29683,-100,4,2,0,20,0,0
31251,491.803278688525,4,2,0,50,1,0
37521,-100,4,2,0,40,0,0
38013,-100,4,2,0,30,0,0
38505,-100,4,2,0,20,0,0
40060,483.870967741935,4,2,0,50,1,0
44400,478.08764940239,4,2,0,50,1,0
48700,480,4,2,0,50,1,0
52072,480,4,2,0,50,1,0
56392,461.538461538462,4,2,0,50,1,0
60142,479.990476190477,4,2,0,50,1,0
69261,479.590476190477,4,2,0,50,1,0
72018,-100,4,2,0,40,0,0
72498,-100,4,2,0,30,0,0
72977,-100,4,2,0,20,0,0
75026,478.090476190477,4,2,0,40,1,0
75384,-100,4,2,0,30,0,0
75862,-100,4,2,0,20,0,0
77775,-100,4,2,0,40,0,0
79926,-100,4,2,0,30,0,0
80404,-100,4,2,0,20,0,0
83870,477.690476190477,4,2,0,50,1,0
95095,500,4,2,0,50,1,0
95662,500.7,4,2,0,50,1,0
110683,491.803278688525,4,2,0,50,1,0
121994,483.470967741935,4,2,0,50,1,0
134050,476.190476190476,4,2,0,50,1,0
142175,483.870967741935,4,2,0,50,1,0
142731,480,4,2,0,50,1,0
154131,-100,4,2,0,40,0,0
154611,-100,4,2,0,30,0,0
155091,-100,4,2,0,20,0,0
157095,468.75,4,2,0,40,1,0
157446,-100,4,2,0,30,0,0
157915,-100,4,2,0,20,0,0
161701,500,4,2,0,50,1,0
162576,375,4,2,0,50,1,0
163888,500,4,2,0,50,1,0

[HitObjects]
144,96,2149,5,0,0:0:0:0:
240,96,2641,1,0,0:0:0:0:
336,96,3132,2,0,B|432:128|432:256|320:288,1,260
224,288,4608,1,0,0:0:0:0:
128,288,5100,1,0,0:0:0:0:
32,288,5591,2,0,B|64:112|96:128|112:288,1,260
304,288,7497,5,0,0:0:0:0:
416,288,8051,2,0,B|448:272|448:240|432:224|416:208|432:176,1,113.75
464,96,8973,1,0,0:0:0:0:
384,48,9526,1,0,0:0:0:0:
288,32,10018,1,0,0:0:0:0:
208,64,10448,1,0,0:0:0:0:
112,112,11001,2,0,L|64:176,6,65
64,288,13520,5,0,0:0:0:0:
64,192,14011,2,0,P|64:128|96:48,1,130
192,48,15019,1,0,0:0:0:0:
144,128,15510,2,0,P|128:192|128:256,1,130
208,304,16494,5,0,0:0:0:0:
208,192,17020,2,0,P|208:144|224:64,1,130
320,32,18003,1,0,0:0:0:0:
288,128,18495,2,0,P|272:176|272:256,1,130
368,272,19479,1,0,0:0:0:0:
448,208,19970,2,0,P|448:176|432:144,6,65
432,288,22429,5,0,0:0:0:0:
336,304,22921,2,0,B|256:320|144:256|80:192,1,260
32,144,24397,2,0,P|80:80|256:48,1,260
336,80,25872,5,0,0:0:0:0:
432,128,26364,1,0,0:0:0:0:
448,224,26856,1,0,0:0:0:0:
384,304,27347,1,0,0:0:0:0:
288,304,27839,1,0,0:0:0:0:
192,256,28331,1,0,0:0:0:0:
144,160,28823,2,0,L|112:96,6,65
80,64,31251,5,0,0:0:0:0:
176,64,31742,2,0,B|240:96|240:128|256:192,1,130
256,272,32726,1,0,0:0:0:0:
256,176,33218,2,0,B|272:128|272:96|352:64,1,130
432,64,34201,1,0,0:0:0:0:
432,160,34693,6,0,P|432:208|384:272,1,130
288,304,35677,1,0,0:0:0:0:
192,304,36169,2,0,P|144:304|96:224,1,130
96,144,37152,1,0,0:0:0:0:
192,144,37644,2,0,P|224:144|256:192,6,65
320,288,40060,5,0,0:0:0:0:
208,288,40543,2,0,P|240:256|256:176,1,130
256,64,41511,1,0,0:0:0:0:
160,64,41995,2,0,P|96:80|48:272,1,260
128,304,43447,6,0,L|272:304,1,130
368,304,44400,1,0,0:0:0:0:
464,304,44878,2,0,B|464:208|464:112|464:32,1,260
464,44,46312,2,0,P|432:32|400:32,2,65
192,320,60142,5,0,0:0:0:0:
192,320,60621,2,0,L|320:272,1,130,8|0,0:0|0:0,0:0:0:0:
313,274,61581,1,0,0:0:0:0:
313,274,62061,2,0,L|192:224,1,130,8|0,0:0|0:0,0:0:0:0:
192,224,63021,1,0,0:0:0:0:
192,224,63501,2,0,L|320:176,1,130,8|0,0:0|0:0,0:0:0:0:
313,178,64461,1,0,0:0:0:0:
313,178,64941,1,4,0:0:0:0:
320,48,65901,5,0,0:0:0:0:
320,48,66381,2,0,L|192:96,1,130,8|0,0:0|0:0,0:0:0:0:
198,93,67341,1,0,0:0:0:0:
198,93,67821,2,0,L|320:144,1,130,8|0,0:0|0:0,0:0:0:0:
317,143,68781,1,0,0:0:0:0:
317,143,69261,2,0,L|176:192,3,130,8|0|0|4,0:0|0:0|0:0|0:0,0:0:0:0:
256,352,71658,5,0,0:0:0:0:
256,256,72138,2,0,L|256:192,6,65
256,176,75026,2,0,L|256:96,6,65
256,112,77894,2,0,L|256:48,2,65
256,96,79567,2,0,L|256:160,7,65
256,192,81719,12,0,83034,0:0:0:0:
64,64,95095,5,0,0:0:0:0:
160,64,95662,2,0,P|288:48|400:144,1,260
400,208,97164,2,0,P|272:224|160:128,1,260
171,149,98666,2,0,B|112:160|64:208|64:256|112:304|176:320,1,260
256,336,100168,2,0,B|352:320|416:272|432:160,1,260
400,80,101670,1,0,0:0:0:0:
304,80,102171,2,0,B|192:80|96:144|80:208,1,260
64,224,104173,5,0,0:0:0:0:
144,272,104674,2,0,P|208:288|288:272,1,130
352,224,105676,1,0,0:0:0:0:
352,128,106176,2,0,B|352:80|320:48|256:48,1,130
176,80,107178,1,0,0:0:0:0:
96,96,107678,2,0,B|48:128|16:192|32:288|144:304,1,260
208,304,109180,1,0,0:0:0:0:
304,304,109681,1,0,0:0:0:0:
400,304,110182,1,0,0:0:0:0:
400,208,110683,2,0,B|384:128|336:48|288:128|256:208,1,260
64,32,113080,5,0,0:0:0:0:
128,80,113633,2,0,L|240:192,1,130
288,224,114617,1,0,0:0:0:0:
368,272,115109,2,0,L|464:368,1,130
464,272,116092,1,0,0:0:0:0:
464,176,116584,1,0,0:0:0:0:
416,96,117076,1,0,0:0:0:0:
336,48,117568,1,0,0:0:0:0:
240,48,118060,2,0,B|160:48|64:80|64:224,1,260
64,288,119535,2,0,L|128:288,2,65
64,352,121994,5,0,0:0:0:0:
160,352,122477,2,0,B|288:336|288:336|176:272|176:272|304:240|304:240|192:176|192:176|256:32|256:32,1,650
336,32,125378,2,0,B|208:64|208:64|336:80|336:80|224:144|224:144|336:208|336:208|240:320,1,650
160,320,128279,2,0,B|304:320|400:224|432:64,1,390
256,48,130696,5,0,0:0:0:0:
160,48,131179,2,0,B|96:48|64:80|64:144,1,130
64,208,132146,1,0,0:0:0:0:
64,304,132630,2,0,B|128:304|160:240|176:80,1,260
256,48,134050,5,0,0:0:0:0:
416,128,135002,1,0,0:0:0:0:
416,224,135478,1,0,0:0:0:0:
256,304,136430,1,0,0:0:0:0:
256,208,136907,1,0,0:0:0:0:
256,112,137383,1,0,0:0:0:0:
256,16,138335,2,0,B|160:16|96:96|96:208,1,260
96,272,139764,2,0,B|112:336|208:320|352:304,1,260
432,288,141192,2,0,P|432:192|416:160,1,130
400,64,142175,5,0,0:0:0:0:
288,64,142731,2,0,B|176:64|80:80|64:160,1,260,8|0,0:0|0:0,0:0:0:0:
80,240,144171,2,0,B|96:304|144:304|256:304|256:304|240:256|240:256|400:240,1,390,8|0,0:0|0:0,0:0:0:0:
416,64,146571,1,0,0:0:0:0:
320,64,147051,2,0,L|32:64,1,260
64,160,148491,2,0,P|64:240|80:288,1,130,8|0,0:0|0:0,0:0:0:0:
176,304,149451,1,0,0:0:0:0:
272,304,149931,2,0,B|352:304|400:272|384:192|384:192|448:208|448:208|448:48,1,390,8|0,0:0|0:0,0:0:0:0:
304,176,152331,1,0,0:0:0:0:
208,176,152811,1,0,0:0:0:0:
96,320,153771,5,0,0:0:0:0:
192,320,154251,2,0,L|256:320,6,65
464,304,157095,2,0,L|368:304,6,65
192,320,159907,2,0,L|256:320,2,65
256,192,161313,12,0,163888,0:0:0:0:
