osu file format v14

[General]
AudioFilename: Patema Inverse - Sakasama no Patema ED _piano_.mp3
AudioLeadIn: 0
PreviewTime: 54832
Countdown: 0
SampleSet: Soft
StackLeniency: 0.5
Mode: 0
LetterboxInBreaks: 0
WidescreenStoryboard: 1

[Editor]
DistanceSpacing: 1.8
BeatDivisor: 4
GridSize: 16
TimelineZoom: 1

[Metadata]
Title:Patema Inverted
TitleUnicode:Patema Inverted
Artist:Animenz
ArtistUnicode:Animenz
Creator:SzambeX
Version:Insane
Source:Sakasama No Patema
Tags:Ending Piano Instrumental Patema Inverse Sakasama no patema Patema Inverted
BeatmapID:1199947
BeatmapSetID:411699

[Difficulty]
HPDrainRate:7.5
CircleSize:4
OverallDifficulty:6.5
ApproachRate:8
SliderMultiplier:1.3
SliderTickRate:1

[Events]
//Background and Video events
0,0,"maxresdefault.jpg",0,0
//Break Periods
//Storyboard Layer 0 (Background)
//Storyboard Layer 1 (Fail)
//Storyboard Layer 2 (Pass)
//Storyboard Layer 3 (Foreground)
//Storyboard Sound Samples

[TimingPoints]
2149.36585365854,491.803278688525,4,2,0,40,1,0
10878,-100,4,2,0,30,0,0
11370,-100,4,2,0,20,0,0
11862,-100,4,2,0,10,0,0
13520,491.803278688525,4,2,0,40,1,0
15019,491.803278688525,4,2,0,40,1,0
17020,491.803278688525,4,2,0,40,1,0
28700,-100,4,2,0,30,0,0
29192,-100,4,2,0,20,0,0
29683,-100,4,2,0,10,0,0
31251,491.803278688525,4,2,0,40,1,0
37521,-100,4,2,0,30,0,0
38013,-100,4,2,0,20,0,0
38505,-100,4,2,0,10,0,0
40060,483.870967741935,4,2,0,40,1,0
44400,478.08764940239,4,2,0,40,1,0
46192,-100,4,2,0,30,0,0
46670,-100,4,2,0,20,0,0
47149,-100,4,2,0,10,0,0
48700,480,4,2,0,40,1,0
49060,-100,4,2,0,30,0,0
49540,-100,4,2,0,20,0,0
50020,-100,4,2,0,10,0,0
52072,480,4,2,0,40,1,0
56392,461.538461538462,4,2,0,40,1,0
60142,479.990476190477,4,2,0,40,1,0
69261,479.590476190477,4,2,0,40,1,0
72018,-100,4,2,0,30,0,0
72498,-100,4,2,0,20,0,0
72977,-100,4,2,0,10,0,0
74906,-100,4,2,0,40,0,0
75026,478.090476190477,4,2,0,30,1,0
75384,-100,4,2,0,20,0,0
75862,-100,4,2,0,10,0,0
77775,-100,4,2,0,40,0,0
79448,-100,4,2,0,30,0,0
80165,-100,4,2,0,20,0,0
80643,-100,4,2,0,10,0,0
83870,477.690476190477,4,2,0,40,1,0
95095,500,4,2,0,40,1,0
95662,500.7,4,2,0,40,1,0
110683,491.803278688525,4,2,0,40,1,0
119412,-100,4,2,0,30,0,0
119904,-100,4,2,0,20,0,0
120396,-100,4,2,0,10,0,0
121994,483.470967741935,4,2,0,10,1,0
122114,-100,4,2,0,40,0,0
134050,476.190476190476,4,2,0,40,1,0
142175,483.870967741935,4,2,0,40,1,0
142731,480,4,2,0,40,1,0
154131,-100,4,2,0,30,0,0
154611,-100,4,2,0,20,0,0
155091,-100,4,2,0,10,0,0
157095,468.75,4,2,0,40,1,0
157446,-100,4,2,0,25,0,0
157915,-100,4,2,0,10,0,0
161701,500,4,2,0,40,1,0
162576,375,4,2,0,40,1,0
163888,500,4,2,0,40,1,0

[HitObjects]
128,192,2149,6,0,P|144:144|176:128,1,65
256,64,2641,1,0,0:0:0:0:
352,128,2887,1,0,0:0:0:0:
432,48,3132,2,0,P|480:64|512:128,1,97.5
507,100,3624,1,0,0:0:0:0:
496,224,3870,1,0,0:0:0:0:
400,144,4116,1,0,0:0:0:0:
400,256,4362,2,0,P|416:288|464:304,1,65
320,320,4854,5,0,0:0:0:0:
272,304,4977,1,0,0:0:0:0:
240,256,5100,1,0,0:0:0:0:
208,144,5346,2,0,L|176:64,1,65
96,144,5837,2,0,L|64:64,1,65
0,144,6329,2,0,L|-32:64,1,65
0,48,6821,1,0,0:0:0:0:
0,48,7067,1,0,0:0:0:0:
208,48,7497,6,0,P|272:64|288:80,1,81.25
368,144,8051,1,0,0:0:0:0:
400,256,8296,1,0,0:0:0:0:
320,208,8542,1,0,0:0:0:0:
432,176,8788,1,0,0:0:0:0:
368,80,9034,6,0,P|320:48|256:48,1,97.5
224,48,9526,1,0,0:0:0:0:
112,48,9772,1,0,0:0:0:0:
32,144,10018,1,0,0:0:0:0:
144,176,10264,2,0,P|112:208|112:256,1,65
96,320,10878,1,0,0:0:0:0:
96,320,11001,2,0,P|144:320|208:288,1,113.75
256,160,11739,5,0,0:0:0:0:
368,160,11985,1,0,0:0:0:0:
464,224,12231,1,0,0:0:0:0:
256,192,12477,12,0,13520,0:0:0:0:
176,128,14011,5,0,0:0:0:0:
80,64,14257,1,0,0:0:0:0:
192,16,14503,1,0,0:0:0:0:
432,80,15019,2,0,P|432:128|416:144,1,65
304,176,15510,1,0,0:0:0:0:
288,64,15756,1,0,0:0:0:0:
192,128,16002,1,0,0:0:0:0:
336,320,16494,6,0,P|304:320|272:288,1,65
256,176,17020,1,0,0:0:0:0:
368,224,17265,1,0,0:0:0:0:
352,112,17511,1,0,0:0:0:0:
112,96,18003,6,0,P|144:144|144:176,1,65
224,240,18495,1,0,0:0:0:0:
112,272,18741,1,0,0:0:0:0:
192,352,18987,1,0,0:0:0:0:
384,224,19479,5,0,0:0:0:0:
192,96,19970,2,0,P|160:128|144:160,1,65
256,96,20462,1,0,0:0:0:0:
192,192,20708,1,0,0:0:0:0:
304,208,20954,2,0,P|336:160|336:128,1,65
320,32,21446,1,0,0:0:0:0:
224,0,21692,1,0,0:0:0:0:
112,32,21938,1,0,0:0:0:0:
32,112,22183,1,0,0:0:0:0:
32,224,22429,6,0,P|64:160|112:112,1,130
104,118,23413,1,0,0:0:0:0:
336,112,23905,2,0,P|320:176|272:224,1,130
276,221,24888,1,0,0:0:0:0:
320,304,25380,6,0,P|352:288|384:240,1,65
371,266,25872,1,0,0:0:0:0:
371,266,26118,1,0,0:0:0:0:
371,266,26364,1,0,0:0:0:0:
384,32,26856,6,0,P|336:64|320:96,1,65
332,69,27347,1,0,0:0:0:0:
332,69,27593,1,0,0:0:0:0:
332,69,27839,1,0,0:0:0:0:
256,288,28331,1,0,0:0:0:0:
128,96,28823,5,0,0:0:0:0:
96,208,29069,2,0,P|112:256|144:272,1,65
240,304,29560,1,0,0:0:0:0:
352,288,29806,2,0,P|384:272|400:240,1,65
432,128,30298,1,0,0:0:0:0:
320,176,30544,1,0,0:0:0:0:
368,64,30749,1,0,0:0:0:0:
256,96,30995,1,0,0:0:0:0:
144,144,31251,6,0,P|128:176|128:208,1,65
144,320,31742,1,0,0:0:0:0:
256,352,31988,1,0,0:0:0:0:
224,240,32234,1,0,0:0:0:0:
448,176,32726,6,0,P|432:128|400:112,1,65
320,64,33218,1,0,0:0:0:0:
208,80,33464,1,0,0:0:0:0:
288,176,33710,1,0,0:0:0:0:
384,208,34201,5,0,0:0:0:0:
160,128,34693,2,0,P|128:176|128:192,1,65
144,304,35185,1,0,0:0:0:0:
256,304,35431,1,0,0:0:0:0:
192,208,35677,2,0,P|208:160|240:144,1,65
304,80,36169,1,0,0:0:0:0:
416,112,36414,1,0,0:0:0:0:
432,224,36660,2,0,P|400:272|368:272,1,65
288,288,37152,1,0,0:0:0:0:
48,288,37644,5,0,0:0:0:0:
160,288,37890,1,0,0:0:0:0:
96,192,38136,1,0,0:0:0:0:
208,192,38382,1,0,0:0:0:0:
160,96,38628,1,0,0:0:0:0:
272,96,38873,1,0,0:0:0:0:
384,96,39119,2,0,P|416:112|432:144,2,65
288,240,40060,5,0,0:0:0:0:
288,160,40543,1,0,0:0:0:0:
208,208,40785,1,0,0:0:0:0:
208,288,41027,1,0,0:0:0:0:
288,320,41269,1,0,0:0:0:0:
368,272,41511,1,0,0:0:0:0:
368,192,41753,1,0,0:0:0:0:
272,112,41995,6,0,P|192:112|128:144,1,130
146,130,42721,1,0,0:0:0:0:
146,130,42963,1,0,0:0:0:0:
160,336,43447,5,0,0:0:0:0:
160,160,43689,1,0,0:0:0:0:
80,288,43930,1,0,0:0:0:0:
240,208,44172,1,0,0:0:0:0:
80,208,44400,1,0,0:0:0:0:
240,288,44639,1,0,0:0:0:0:
160,256,44878,2,0,P|208:192|272:176,1,130
253,176,45595,1,0,0:0:0:0:
253,176,45834,1,0,0:0:0:0:
224,144,46312,6,0,P|224:96|256:64,2,65
192,256,47029,1,0,0:0:0:0:
304,256,47268,2,0,P|352:224|368:192,1,65
368,96,47746,1,0,0:0:0:0:
432,192,47985,1,0,0:0:0:0:
320,192,48224,1,0,0:0:0:0:
256,96,48463,1,0,0:0:0:0:
160,176,48700,6,0,P|112:144|112:112,1,65
128,32,49180,2,0,P|176:64|176:96,1,65
240,176,49660,5,0,0:0:0:0:
336,224,49900,1,0,0:0:0:0:
448,208,50140,1,0,0:0:0:0:
512,128,50380,1,0,0:0:0:0:
432,48,50620,2,0,P|352:64|304:112,1,130
316,94,51340,1,0,0:0:0:0:
316,94,51580,1,0,0:0:0:0:
80,160,52072,5,0,0:0:0:0:
208,80,52312,1,0,0:0:0:0:
80,80,52552,1,0,0:0:0:0:
208,160,52792,1,0,0:0:0:0:
144,32,53032,1,0,0:0:0:0:
144,208,53272,1,0,0:0:0:0:
144,320,53512,6,0,L|224:320,1,65
320,304,53992,1,0,0:0:0:0:
384,208,54232,1,0,0:0:0:0:
352,96,54472,1,0,0:0:0:0:
128,96,54952,2,0,P|224:48|272:48,1,130
352,80,55672,1,0,0:0:0:0:
448,144,55912,2,0,P|480:192|480:224,1,65
400,288,56392,5,0,0:0:0:0:
320,192,56622,2,0,P|288:160|256:144,1,65
160,112,57084,1,0,0:0:0:0:
160,112,57199,1,0,0:0:0:0:
160,112,57315,1,0,0:0:0:0:
48,144,57545,1,0,0:0:0:0:
80,256,57776,6,0,P|112:208|144:192,1,65
224,160,58238,2,0,P|192:192|192:224,1,65
208,320,58699,2,0,P|240:272|272:256,1,65
352,224,59161,1,0,0:0:0:0:
416,128,59392,1,0,0:0:0:0:
448,240,59622,1,0,0:0:0:0:
512,144,59853,1,0,0:0:0:0:
464,16,60142,6,0,P|400:16|336:48,1,130
240,112,60861,1,0,0:0:0:0:
192,144,60981,1,0,0:0:0:0:
176,192,61101,1,0,0:0:0:0:
144,304,61341,1,0,0:0:0:0:
48,384,61581,2,0,P|48:304|80:256,1,130
160,192,62301,1,0,0:0:0:0:
208,160,62421,1,0,0:0:0:0:
272,160,62541,1,0,0:0:0:0:
384,192,62781,5,0,0:0:0:0:
464,272,63021,2,0,P|480:320|480:352,1,65
368,336,63501,2,0,P|320:320|304:288,1,65
256,208,63981,1,0,0:0:0:0:
240,144,64101,1,0,0:0:0:0:
208,96,64221,1,0,0:0:0:0:
96,48,64461,2,0,P|64:48|32:80,1,65
16,176,64941,1,0,0:0:0:0:
464,16,65901,6,0,P|400:16|336:48,1,130
240,112,66620,1,0,0:0:0:0:
192,144,66740,1,0,0:0:0:0:
176,192,66860,1,0,0:0:0:0:
144,304,67100,1,0,0:0:0:0:
48,384,67340,2,0,P|48:304|80:256,1,130
160,192,68060,1,0,0:0:0:0:
208,160,68180,1,0,0:0:0:0:
272,160,68300,1,0,0:0:0:0:
384,192,68540,5,0,0:0:0:0:
464,272,68780,2,0,P|480:320|480:352,1,65
368,336,69260,2,0,P|320:320|304:288,1,65
256,208,69740,1,0,0:0:0:0:
240,144,69860,1,0,0:0:0:0:
208,96,69980,1,0,0:0:0:0:
96,48,70220,2,0,P|64:48|32:80,1,65
16,176,70699,2,0,P|32:256|96:288,1,130
128,320,71658,6,0,P|192:320|208:304,1,65
304,304,72138,2,0,P|352:304|384:272,1,65
448,208,72618,1,0,0:0:0:0:
448,96,72857,1,0,0:0:0:0:
368,0,73097,1,0,0:0:0:0:
272,64,73337,1,0,0:0:0:0:
272,176,73577,2,0,P|256:224|240:240,1,65
144,288,74056,5,0,0:0:0:0:
32,288,74296,1,0,0:0:0:0:
32,288,74416,1,0,0:0:0:0:
32,288,74536,1,0,0:0:0:0:
144,288,74776,1,0,0:0:0:0:
304,304,75026,2,0,P|352:304|384:272,1,65
448,208,75506,1,0,0:0:0:0:
448,96,75745,1,0,0:0:0:0:
368,0,75985,1,0,0:0:0:0:
272,64,76225,1,0,0:0:0:0:
272,176,76465,2,0,P|256:224|240:240,1,65
144,288,76944,5,0,0:0:0:0:
32,288,77184,1,0,0:0:0:0:
32,288,77304,1,0,0:0:0:0:
32,288,77424,1,0,0:0:0:0:
144,288,77664,1,0,0:0:0:0:
256,288,77894,6,0,P|304:288|336:256,1,65
400,208,78372,1,0,0:0:0:0:
288,208,78611,1,0,0:0:0:0:
224,192,78731,1,0,0:0:0:0:
192,144,78850,1,0,0:0:0:0:
256,192,79567,12,0,81241,0:0:0:0:
128,64,83870,6,0,P|176:64|208:80,1,65
272,144,84347,1,0,0:0:0:0:
336,240,84586,2,0,P|368:272|400:288,1,65
496,320,85064,1,0,0:0:0:0:
480,208,85303,2,0,P|464:160|448:128,1,65
336,160,85780,2,0,P|320:112|304:80,1,65
192,112,86258,2,0,P|176:64|160:32,1,65
128,64,86736,6,0,P|176:64|208:80,1,65
272,144,87213,1,0,0:0:0:0:
336,240,87452,2,0,P|368:272|400:288,1,65
496,320,87930,1,0,0:0:0:0:
480,208,88169,2,0,P|464:160|448:128,1,65
336,160,88646,2,0,P|320:112|304:80,1,65
192,112,89124,2,0,P|176:64|160:32,1,65
128,64,89602,6,0,P|176:64|208:80,1,65
272,144,90079,1,0,0:0:0:0:
336,240,90318,2,0,P|368:272|400:288,1,65
496,320,90796,1,0,0:0:0:0:
480,208,91035,2,0,P|464:160|448:128,1,65
336,160,91512,2,0,P|320:112|304:80,1,65
192,112,91990,2,0,P|176:64|160:32,1,65
112,160,92468,6,0,P|112:208|128:240,1,65
176,320,92946,1,0,0:0:0:0:
288,336,93184,2,0,P|320:288|320:256,1,65
304,160,93662,1,0,0:0:0:0:
240,64,93901,2,0,P|160:64|96:96,1,130
400,256,95095,5,0,0:0:0:0:
144,192,95662,2,0,P|176:144|208:128,1,65
288,96,96162,1,0,0:0:0:0:
112,256,96663,1,0,0:0:0:0:
224,48,97164,2,0,P|272:48|304:64,1,65
384,112,97664,1,0,0:0:0:0:
144,112,98165,1,0,0:0:0:0:
176,352,98666,2,0,P|224:336|240:320,1,65
304,224,99166,1,0,0:0:0:0:
256,64,99667,6,0,P|208:64|176:80,1,65
112,160,100168,2,0,P|112:208|128:224,1,65
176,320,100669,1,0,0:0:0:0:
368,192,101169,1,0,0:0:0:0:
368,192,101294,1,0,0:0:0:0:
368,192,101420,1,0,0:0:0:0:
304,96,101670,2,0,P|272:128|240:144,1,65
144,192,102171,1,0,0:0:0:0:
320,256,103172,6,0,P|256:256|240:240,1,65
160,208,103673,1,0,0:0:0:0:
80,48,104173,6,0,P|128:48|160:64,1,65
224,144,104674,1,0,0:0:0:0:
192,256,104924,1,0,0:0:0:0:
288,320,105175,1,0,0:0:0:0:
400,304,105425,1,0,0:0:0:0:
464,208,105676,2,0,P|464:160|448:128,1,65
368,64,106176,5,0,0:0:0:0:
256,16,106427,1,0,0:0:0:0:
144,48,106677,1,0,0:0:0:0:
64,128,106927,1,0,0:0:0:0:
64,240,107178,2,0,P|80:288|112:304,1,65
208,272,107678,1,0,0:0:0:0:
240,160,107929,1,0,0:0:0:0:
336,96,108179,1,0,0:0:0:0:
448,128,108429,1,0,0:0:0:0:
480,240,108680,6,0,P|464:288|432:304,1,65
336,320,109180,1,0,0:0:0:0:
224,336,109431,1,0,0:0:0:0:
112,304,109681,1,0,0:0:0:0:
32,208,109931,1,0,0:0:0:0:
48,96,110182,2,0,P|64:64|96:48,1,65
208,48,110683,1,0,0:0:0:0:
208,48,110805,1,0,0:0:0:0:
208,48,110928,1,0,0:0:0:0:
320,80,111174,1,0,0:0:0:0:
352,272,113142,5,0,0:0:0:0:
352,272,113264,1,0,0:0:0:0:
352,272,113387,1,0,0:0:0:0:
336,160,113633,2,0,P|304:224|240:240,1,130
16,240,114617,1,0,0:0:0:0:
16,240,114740,1,0,0:0:0:0:
16,240,114863,1,0,0:0:0:0:
64,128,115109,2,0,P|64:208|128:240,1,130
288,96,116092,5,0,0:0:0:0:
288,96,116215,1,0,0:0:0:0:
288,96,116338,1,0,0:0:0:0:
176,112,116584,2,0,P|240:128|272:192,1,130
464,320,117568,1,0,0:0:0:0:
432,208,117814,1,0,0:0:0:0:
352,112,118060,2,0,P|320:96|208:80,1,130
0,144,119043,5,0,0:0:0:0:
0,144,119166,1,0,0:0:0:0:
0,144,119289,1,0,0:0:0:0:
48,224,119473,1,0,0:0:0:0:
48,224,119535,2,0,P|96:192|96:112,1,130
240,64,121994,6,0,L|256:96,1,32.5
320,80,122235,2,0,L|336:112,2,32.5
432,64,122719,2,0,P|448:128|448:144,1,65
304,304,123444,1,0,0:0:0:0:
80,224,123927,1,0,0:0:0:0:
192,240,124169,1,0,0:0:0:0:
304,208,124411,1,0,0:0:0:0:
400,144,124653,2,0,P|400:80|384:64,1,65
160,96,125378,5,0,0:0:0:0:
96,192,125620,1,0,0:0:0:0:
80,256,125740,1,0,0:0:0:0:
96,304,125861,1,0,0:0:0:0:
320,336,126345,2,0,P|304:304|304:272,1,65
384,192,126828,2,0,P|400:144|352:64,1,130
256,48,127553,1,0,0:0:0:0:
144,64,127795,1,0,0:0:0:0:
304,224,128279,5,0,0:0:0:0:
192,128,128520,1,0,0:0:0:0:
336,144,128762,1,0,0:0:0:0:
208,224,129004,1,0,0:0:0:0:
272,80,129246,1,0,0:0:0:0:
256,160,129729,1,0,0:0:0:0:
240,64,130696,6,0,L|256:96,1,32.5
320,80,130937,2,0,L|336:112,2,32.5
432,64,131421,2,0,P|448:128|448:144,1,65
304,304,132146,1,0,0:0:0:0:
80,224,132629,1,0,0:0:0:0:
192,240,132871,1,0,0:0:0:0:
304,208,133113,1,0,0:0:0:0:
400,144,133355,2,0,P|400:80|384:64,1,65
160,80,134050,5,0,0:0:0:0:
112,160,134288,1,0,0:0:0:0:
112,256,134526,1,0,0:0:0:0:
192,320,134764,1,0,0:0:0:0:
288,336,135002,1,0,0:0:0:0:
368,272,135240,1,0,0:0:0:0:
288,208,135478,1,0,0:0:0:0:
272,112,135716,1,0,0:0:0:0:
336,32,135954,1,0,0:0:0:0:
432,64,136192,1,0,0:0:0:0:
496,160,136430,6,0,L|496:240,1,65
384,272,136907,2,0,P|336:304|304:304,1,65
208,304,137383,1,0,0:0:0:0:
112,256,137621,1,0,0:0:0:0:
80,144,137859,1,0,0:0:0:0:
128,32,138097,1,0,0:0:0:0:
176,144,138335,5,0,0:0:0:0:
256,240,138573,1,0,0:0:0:0:
368,288,138811,1,0,0:0:0:0:
480,272,139050,1,0,0:0:0:0:
480,160,139288,2,0,P|464:128|416:112,1,65
352,48,139764,2,0,P|352:96|336:128,1,65
240,160,140240,2,0,P|224:192|240:240,1,65
288,320,140716,1,0,0:0:0:0:
400,352,140954,1,0,0:0:0:0:
496,272,141192,6,0,P|480:224|448:208,1,65
368,160,141669,1,0,0:0:0:0:
256,160,141907,1,0,0:0:0:0:
176,256,142175,6,0,P|128:224|128:192,1,65
144,64,142731,1,0,0:0:0:0:
256,32,142971,1,0,0:0:0:0:
256,32,143091,1,0,0:0:0:0:
256,32,143211,1,0,0:0:0:0:
368,48,143451,1,0,0:0:0:0:
400,160,143691,6,0,P|352:128|320:128,1,65
224,144,144171,1,0,0:0:0:0:
128,208,144411,1,0,0:0:0:0:
128,208,144531,1,0,0:0:0:0:
128,208,144651,1,0,0:0:0:0:
208,288,144891,1,0,0:0:0:0:
320,288,145131,2,0,P|352:256|352:224,1,65
336,128,145611,5,0,0:0:0:0:
240,64,145851,1,0,0:0:0:0:
128,112,146091,1,0,0:0:0:0:
128,224,146331,1,0,0:0:0:0:
224,288,146571,1,0,0:0:0:0:
336,240,146811,1,0,0:0:0:0:
368,128,147051,2,0,L|336:64,1,65
240,128,147531,2,0,L|208:48,1,65
160,224,148011,6,0,P|144:176|144:144,1,65
144,64,148491,1,0,0:0:0:0:
256,32,148731,1,0,0:0:0:0:
256,32,148851,1,0,0:0:0:0:
256,32,148971,1,0,0:0:0:0:
368,48,149211,1,0,0:0:0:0:
400,160,149451,6,0,P|352:128|320:128,1,65
224,144,149931,1,0,0:0:0:0:
128,208,150171,1,0,0:0:0:0:
128,208,150291,1,0,0:0:0:0:
128,208,150411,1,0,0:0:0:0:
208,288,150651,1,0,0:0:0:0:
320,288,150891,2,0,P|352:256|352:224,1,65
336,128,151371,5,0,0:0:0:0:
240,64,151611,1,0,0:0:0:0:
128,112,151851,1,0,0:0:0:0:
128,224,152091,1,0,0:0:0:0:
224,288,152331,1,0,0:0:0:0:
336,240,152571,1,0,0:0:0:0:
368,128,152811,2,0,L|336:64,1,65
240,128,153291,2,0,L|208:48,1,65
96,128,153771,6,0,P|80:176|96:208,1,65
144,288,154251,1,0,0:0:0:0:
256,336,154491,1,0,0:0:0:0:
304,352,154611,1,0,0:0:0:0:
352,336,154731,1,0,0:0:0:0:
432,256,154971,1,0,0:0:0:0:
464,144,155211,2,0,P|432:128|400:144,1,65
304,192,155691,6,0,P|256:192|224:176,1,65
128,144,156171,1,0,0:0:0:0:
176,48,156411,1,0,0:0:0:0:
224,32,156531,1,0,0:0:0:0:
272,48,156651,1,0,0:0:0:0:
368,96,156891,1,0,0:0:0:0:
416,192,157095,6,0,P|384:208|352:192,1,65
256,160,157563,1,0,0:0:0:0:
144,144,157798,1,0,0:0:0:0:
96,160,157915,1,0,0:0:0:0:
80,208,158032,1,0,0:0:0:0:
96,320,158266,1,0,0:0:0:0:
208,352,158501,2,0,L|288:352,1,65
384,320,158970,5,0,0:0:0:0:
432,224,159204,1,0,0:0:0:0:
448,176,159321,1,0,0:0:0:0:
432,128,159438,1,0,0:0:0:0:
352,48,159673,1,0,0:0:0:0:
240,64,159907,2,0,L|192:80,1,32.5
240,112,160141,2,0,L|208:128,2,32.5
256,192,161701,12,0,163888,0:0:0:0:
