osu file format v14

[General]
AudioFilename: Patema Inverse - Sakasama no Patema ED _piano_.mp3
AudioLeadIn: 0
PreviewTime: 54832
Countdown: 0
SampleSet: Soft
StackLeniency: 0.6
Mode: 0
LetterboxInBreaks: 0
WidescreenStoryboard: 1

[Editor]
DistanceSpacing: 0.5
BeatDivisor: 4
GridSize: 16
TimelineZoom: 1

[Metadata]
Title:Patema Inverted
TitleUnicode:Patema Inverted
Artist:Animenz
ArtistUnicode:Animenz
Creator:SzambeX
Version:Easy
Source:Sakasama No Patema
Tags:Ending Piano Instrumental Patema Inverse Sakasama no patema Patema Inverted
BeatmapID:915535
BeatmapSetID:411699

[Difficulty]
HPDrainRate:3
CircleSize:2.5
OverallDifficulty:2.5
ApproachRate:2
SliderMultiplier:1.3
SliderTickRate:1

[Events]
//Background and Video events
0,0,"maxresdefault.jpg",0,0
//Break Periods
2,46990,58582
2,84070,93535
//Storyboard Layer 0 (Background)
//Storyboard Layer 1 (Fail)
//Storyboard Layer 2 (Pass)
//Storyboard Layer 3 (Foreground)
//Storyboard Sound Samples

[TimingPoints]
2149.36585365854,491.803278688525,4,2,0,50,1,0
10755,-100,4,2,0,40,0,0
11370,-100,4,2,0,30,0,0
11862,-100,4,2,0,20,0,0
13520,491.803278688525,4,2,0,50,1,0
15019,491.803278688525,4,2,0,50,1,0
17020,491.803278688525,4,2,0,50,1,0
28700,-100,4,2,0,40,0,0
29192,-100,4,2,0,30,0,0
29683,-100,4,2,0,20,0,0
31251,491.803278688525,4,2,0,50,1,0
37521,-100,4,2,0,40,0,0
38013,-100,4,2,0,30,0,0
38505,-100,4,2,0,20,0,0
40060,483.870967741935,4,2,0,50,1,0
44400,478.08764940239,4,2,0,50,1,0
48700,480,4,2,0,50,1,0
52072,480,4,2,0,50,1,0
56392,461.538461538462,4,2,0,50,1,0
60142,479.990476190477,4,2,0,50,1,0
69261,479.590476190477,4,2,0,50,1,0
72018,-100,4,2,0,40,0,0
72498,-100,4,2,0,30,0,0
72977,-100,4,2,0,20,0,0
75026,478.090476190477,4,2,0,40,1,0
75384,-100,4,2,0,30,0,0
75862,-100,4,2,0,20,0,0
77775,-100,4,2,0,40,0,0
79926,-100,4,2,0,30,0,0
80404,-100,4,2,0,20,0,0
83870,477.690476190477,4,2,0,50,1,0
95095,500,4,2,0,50,1,0
95662,500.7,4,2,0,50,1,0
110683,491.803278688525,4,2,0,50,1,0
121994,483.470967741935,4,2,0,50,1,0
134050,476.190476190476,4,2,0,50,1,0
142175,483.870967741935,4,2,0,50,1,0
142731,480,4,2,0,50,1,0
154131,-100,4,2,0,40,0,0
154611,-100,4,2,0,30,0,0
155091,-100,4,2,0,20,0,0
157095,468.75,4,2,0,40,1,0
157446,-100,4,2,0,30,0,0
157915,-100,4,2,0,20,0,0
161701,500,4,2,0,50,1,0
162576,375,4,2,0,50,1,0
163888,500,4,2,0,50,1,0

[HitObjects]
160,80,2149,6,0,B|272:80|368:96|400:128|400:176,1,260
416,208,3624,2,0,B|416:320|320:304|192:304,1,260
144,288,5100,2,0,B|112:128|64:128|32:304,1,260
96,288,6575,1,0,0:0:0:0:
304,288,7497,5,0,0:0:0:0:
384,304,8051,2,0,B|448:272|448:240|432:224|464:192|432:80,1,243.75
384,32,9464,2,0,P|224:32|128:80,1,260
96,128,11001,2,0,L|64:192,6,65
64,256,13520,5,0,0:0:0:0:
64,192,14011,2,0,P|80:64|192:32,1,260
176,96,15510,2,0,P|96:224|160:304,1,260
176,240,17020,2,0,P|176:128|288:48,1,260
288,128,18495,2,0,P|272:176|416:288,1,260
432,224,19970,2,0,P|432:192|416:160,6,65
336,304,22429,5,0,0:0:0:0:
288,272,22921,2,0,B|208:272|144:240|32:192,1,260
32,144,24397,2,0,P|80:80|256:48,1,260
304,64,25872,2,0,B|416:64|448:192|432:272,1,260
416,320,27347,2,0,P|288:304|176:208,1,260
144,160,28823,2,0,L|112:96,6,65
112,32,31251,5,0,0:0:0:0:
176,64,31742,2,0,B|240:96|240:128|256:304,1,260
255,297,33218,2,0,B|272:128|272:96|352:64,1,260
400,80,34693,2,0,P|400:208|304:304,1,260
256,304,36169,2,0,P|128:272|112:144,1,260
176,144,37644,2,0,P|208:144|240:192,6,65
128,256,40060,5,0,0:0:0:0:
192,288,40543,2,0,P|272:256|240:96,1,260
208,80,41995,2,0,P|96:80|80:224,1,260
96,256,43447,2,0,L|240:256,1,130
288,272,44400,1,0,0:0:0:0:
352,272,44878,2,0,B|464:208|464:112|464:32,1,260
400,32,46312,2,0,P|368:20|336:20,2,65
192,320,60142,5,0,0:0:0:0:
256,320,60621,1,0,0:0:0:0:
320,208,61581,1,0,0:0:0:0:
256,208,62061,1,0,0:0:0:0:
192,96,63021,1,0,0:0:0:0:
256,96,63501,1,0,0:0:0:0:
256,224,64461,2,0,L|256:64,1,130
320,48,65901,5,0,0:0:0:0:
256,48,66381,1,0,0:0:0:0:
192,160,67341,1,0,0:0:0:0:
256,160,67821,1,0,0:0:0:0:
384,112,68781,1,0,0:0:0:0:
317,143,69261,2,0,L|176:192,3,130,8|0|0|4,0:0|0:0|0:0|0:0,0:0:0:0:
256,304,71658,5,0,0:0:0:0:
256,256,72138,2,0,L|256:192,6,65
256,176,75026,2,0,L|256:96,6,65
256,144,77894,2,0,B|288:112|256:48|224:96|256:160,1,130
256,96,79567,2,0,L|256:160,7,65
256,192,81719,12,0,83870,0:0:0:0:
96,80,95095,5,0,0:0:0:0:
160,64,95662,2,0,P|288:48|400:144,1,260
400,192,97164,2,0,P|272:224|160:128,1,260
144,96,98666,2,0,B|112:160|64:208|64:256|112:304|176:320,1,260
208,320,100168,2,0,B|304:304|368:256|416:176,1,260
432,112,101670,2,0,B|240:16|112:80|80:192,1,390
80,288,104173,5,0,0:0:0:0:
144,272,104674,2,0,P|192:304|352:192,1,260
352,128,106176,2,0,B|352:48|304:16|144:48,1,260
96,96,107678,2,0,B|48:128|16:192|32:288|144:304,1,260
176,320,109180,2,0,P|336:336|416:272,1,260
400,208,110683,2,0,B|384:128|336:48|288:128|256:208,1,260
64,32,113080,5,0,0:0:0:0:
128,80,113633,1,0,0:0:0:0:
288,224,114617,1,0,0:0:0:0:
336,272,115109,1,0,0:0:0:0:
464,272,116092,1,0,0:0:0:0:
464,208,116584,2,0,B|464:144|432:64|368:32|288:48,1,260
240,48,118060,2,0,B|160:48|64:80|64:224,1,260
64,288,119535,2,0,L|128:288,2,65
80,352,121994,5,0,0:0:0:0:
160,352,122477,2,0,B|288:336|288:336|176:272|176:272|304:240|304:240|192:176|192:176|256:32|256:32,1,650
336,32,125378,2,0,B|208:64|208:64|336:80|336:80|224:144|224:144|336:208|336:208|240:320,1,650
192,320,128279,2,0,B|304:320|400:224|432:48,1,390
304,48,130696,5,0,0:0:0:0:
240,48,131179,2,0,B|128:144|80:192|48:256,1,260
64,304,132630,2,0,B|160:320|112:48|304:32,1,390
416,128,135002,5,0,0:0:0:0:
416,224,135478,1,0,0:0:0:0:
304,304,136430,2,0,B|112:304|368:240|256:112,1,260
256,16,138335,2,0,B|160:16|96:96|96:208,1,260
96,256,139764,2,0,B|112:320|208:304|352:288,1,260
400,288,141192,2,0,P|400:192|384:160,1,130
352,96,142175,5,0,0:0:0:0:
288,64,142731,2,0,B|176:64|80:80|64:160,1,260,8|0,0:0|0:0,0:0:0:0:
80,240,144171,2,0,B|96:304|144:304|256:304|256:304|240:256|240:256|400:240,1,390,8|0,0:0|0:0,0:0:0:0:
384,112,146571,1,0,0:0:0:0:
320,64,147051,2,0,L|32:64,1,260
64,160,148491,6,0,P|80:240|112:288,1,130,8|0,0:0|0:0,0:0:0:0:
176,304,149451,1,0,0:0:0:0:
240,304,149931,2,0,B|320:304|368:272|352:192|352:192|416:208|416:208|416:48,1,390,8|0,0:0|0:0,0:0:0:0:
304,176,152331,1,0,0:0:0:0:
208,176,152811,1,0,0:0:0:0:
128,288,153771,5,0,0:0:0:0:
192,320,154251,2,0,L|256:320,6,65
464,304,157095,2,0,L|368:304,6,65
192,320,159907,2,0,L|256:320,2,65
256,192,161313,12,0,163888,0:0:0:0:
