osu file format v14

[General]
AudioFilename: audio.mp3
AudioLeadIn: 0
PreviewTime: 73986
Countdown: 1
SampleSet: Soft
StackLeniency: 0.7
Mode: 0
LetterboxInBreaks: 0
WidescreenStoryboard: 0

[Editor]
Bookmarks: 87242
DistanceSpacing: 3.3
BeatDivisor: 4
GridSize: 4
TimelineZoom: 1

[Metadata]
Title:Kimi no shiranai monogatari
TitleUnicode:Kimi no shiranai monogatari
Artist:Animenz
ArtistUnicode:Animenz
Creator:Le Dyguidour
Version:Summer triangle
Source:
Tags:Supercell Bakemonogatari Yanagi nagi Ryo piano synthesia marathon
BeatmapID:1317212
BeatmapSetID:625014

[Difficulty]
HPDrainRate:6
CircleSize:4.3
OverallDifficulty:8.3
ApproachRate:9
SliderMultiplier:1.4
SliderTickRate:1

[Events]
//Background and Video events
0,0,"KnSM.jpg",0,0
//Break Periods
//Storyboard Layer 0 (Background)
//Storyboard Layer 1 (Fail)
//Storyboard Layer 2 (Pass)
//Storyboard Layer 3 (Foreground)
//Storyboard Sound Samples

[TimingPoints]
5680,348.837209302326,4,2,1,100,1,0
5680,-100,4,2,1,30,0,0
11086,-100,4,2,1,50,0,0
16842,-142.857142857143,4,2,1,50,0,0
18238,-166.666666666667,4,2,1,40,0,0
19633,-200,4,2,1,30,0,0
21203,-200,4,2,1,40,0,0
21552,-200,4,2,1,30,0,0
21900,-200,4,2,1,40,0,0
22336,-200,4,2,1,50,0,0
22738,348.837209302326,4,2,1,100,1,0
22738,-100,4,2,1,60,0,0
26836,-100,4,2,1,60,0,0
27272,-100,4,2,1,65,0,0
27621,-100,4,2,1,70,0,0
28232,-100,4,2,1,60,0,0
31022,-100,4,2,1,50,0,0
33988,348.837209302326,4,2,1,100,1,0
33988,-100,4,2,1,50,0,0
37825,-100,4,2,1,50,0,0
37999,-100,4,2,1,45,0,0
38348,-100,4,2,1,40,0,0
38522,-100,4,2,1,45,0,0
38697,-100,4,2,1,50,0,0
38871,-100,4,2,1,55,0,0
39046,-100,4,2,1,60,0,0
39220,-100,4,2,1,65,0,0
39569,-100,4,2,1,60,0,0
45150,-100,4,2,1,55,0,0
47243,-100,4,2,1,45,0,0
47343,-100,4,2,1,55,0,0
49162,-100,4,2,1,50,0,0
49511,-100,4,2,1,49,0,0
49598,-100,4,2,1,48,0,0
49685,-100,4,2,1,47,0,0
49772,-100,4,2,1,46,0,0
49860,-100,4,2,1,45,0,0
50034,-100,4,2,1,44,0,0
50121,-100,4,2,1,43,0,0
50208,-100,4,2,1,42,0,0
50296,-100,4,2,1,41,0,0
50383,-100,4,2,1,40,0,0
50732,-100,4,2,1,60,0,0
56313,-100,4,2,1,55,0,0
57708,-100,4,2,1,50,0,0
59104,-100,4,2,1,55,0,0
61894,-100,4,2,1,50,0,0
63639,-100,4,2,1,55,0,0
63813,-100,4,2,1,60,0,0
63988,-100,4,2,1,65,0,0
64336,-100,4,2,1,60,0,0
65383,-100,4,2,1,70,0,0
65483,-100,4,2,1,60,0,0
66778,-100,4,2,1,60,0,0
66878,-100,4,2,1,65,0,0
73057,-71.4285714285714,4,2,1,60,0,0
74104,-100,4,2,1,50,0,0
75848,-100,4,2,1,55,0,0
87011,-100,4,2,1,50,0,0
92418,-100,4,2,1,50,0,0
107592,-100,4,2,1,50,0,0
107767,-100,4,2,1,45,0,0
108115,-100,4,2,1,40,0,0
108290,-100,4,2,1,45,0,0
108464,-100,4,2,1,50,0,0
108639,-100,4,2,1,55,0,0
108813,-100,4,2,1,60,0,0
108988,-100,4,2,1,65,0,0
109336,-100,4,2,1,60,0,0
114918,-100,4,2,1,50,0,1
115615,-100,4,2,1,55,0,1
116313,-100,4,2,1,60,0,1
117011,-100,4,2,1,65,0,1
117708,-100,4,2,1,70,0,1
119278,-100,4,2,1,60,0,1
119540,-100,4,2,1,55,0,1
119801,-100,4,2,1,50,0,1
120063,-100,4,2,1,45,0,1
120499,-100,4,2,1,60,0,1
121894,-100,4,2,1,50,0,0
123290,-100,4,2,1,55,0,0
124685,-100,4,2,1,57,0,0
126081,-100,4,2,1,50,0,0
127476,-100,4,2,1,55,0,0
128871,-100,4,2,1,50,0,0
130267,-100,4,2,1,60,0,0
134453,-100,4,2,1,45,0,0
140034,-100,4,2,1,50,0,0
141429,-100,4,2,1,55,0,0
142127,-100,4,2,1,40,0,0
142825,-100,4,2,1,60,0,0
143871,-100,4,2,1,50,0,0
145615,-100,4,2,1,40,0,0
148406,-100,4,2,1,45,0,0
151197,-100,4,2,1,40,0,0
153290,-100,4,2,1,40,0,0
153639,-100,4,2,1,45,0,0
153988,-100,4,2,1,50,0,0
176139,-100,4,2,1,55,0,0
176313,-100,4,2,1,55,0,0
176836,-90.9090909090909,4,2,1,55,0,0
177360,-83.3333333333333,4,2,1,55,0,0
177883,-76.9230769230769,4,2,1,55,0,0
178406,-100,4,2,1,55,0,0
178581,-100,4,2,1,50,0,0
178755,-100,4,2,1,40,0,0
178929,-100,4,2,1,35,0,0
179104,-100,4,2,1,30,0,0
179278,-100,4,2,1,30,0,0
179453,-100,4,2,1,50,0,0
184336,-100,4,2,1,55,0,0
184511,-100,4,2,1,60,0,0
185034,-100,4,2,1,65,0,0
185906,-100,4,2,1,60,0,0
186429,-100,4,2,1,70,0,0
187301,-100,4,2,1,60,0,0
187912,-100,4,2,1,75,0,0
189046,-100,4,2,1,70,0,0
189307,-100,4,2,1,65,0,0
189569,-100,4,2,1,60,0,0
195848,-100,4,2,1,60,0,0
201429,-100,4,2,1,50,0,1
202825,-100,4,2,1,55,0,1
203522,-100,4,2,1,60,0,1
204220,-100,4,2,1,65,0,1
204569,-100,4,2,1,60,0,1
204918,279.06976744186,4,2,1,55,1,1
204918,-100,4,2,1,55,0,1
205267,-100,4,2,1,50,0,1
205615,-100,4,2,1,50,0,0
211197,-100,4,2,1,50,0,1
211546,279.06976744186,4,2,1,50,1,1
211720,-100,4,2,1,55,0,1
212243,-100,4,2,1,60,0,1
212767,-100,4,2,1,65,0,1
212940,348.837209302326,4,2,1,65,1,1
213290,-100,4,2,1,70,0,1
213988,-100,4,2,1,80,0,1
215383,-100,4,2,1,55,0,0
216081,-100,4,2,1,65,0,0
216778,-100,4,2,1,50,0,0
219569,-100,4,2,1,60,0,0
222360,-100,4,2,1,50,0,0
222883,-105.263157894737,4,2,1,60,0,0
223405,-95.2380952380952,4,2,1,60,0,0
223755,-100,4,2,1,50,0,0
224277,-105.263157894737,4,2,1,60,0,0
224800,-100,4,2,1,60,0,0
227941,-100,4,2,1,55,0,0
229336,-100,4,2,1,60,0,0
230034,-100,4,2,1,65,0,0
230732,-100,4,2,1,35,0,0
241894,-100,4,2,1,45,0,0
247476,-100,4,2,1,35,0,0
251662,-200,4,2,1,30,0,0
253057,-100,4,2,1,30,0,0
255848,-100,4,2,1,40,0,0
256631,-100,4,2,1,50,0,0
257416,-100,4,2,1,60,0,0
257941,-100,4,2,1,70,0,0
258114,-100,4,2,1,50,0,0
269976,-100,4,2,1,40,0,0
272592,-100,4,2,1,45,0,0
275383,-100,4,2,1,40,0,0
277476,-100,4,2,1,45,0,0
281313,-100,4,2,1,35,0,0
284104,-100,4,2,1,40,0,0
286894,-100,4,2,1,45,0,0
289685,-100,4,2,1,50,0,0
292127,-100,4,2,1,40,0,0
294918,-100,4,2,1,45,0,0
297708,-100,4,2,1,50,0,0
300499,-100,4,2,1,45,0,0
300848,-100,4,2,1,40,0,0
301197,-100,4,2,1,40,0,0
301546,-100,4,2,1,40,0,0
301894,-100,4,2,1,50,0,0
302243,-100,4,2,1,40,0,0
302592,-100,4,2,1,45,0,0
302941,-100,4,2,1,40,0,0
303290,-100,4,2,1,50,0,0
303988,-100,4,2,1,45,0,0
304685,-100,4,2,1,50,0,0
305383,-100,4,2,1,60,0,0
306081,-100,4,2,1,40,0,0
306255,-100,4,2,1,41,0,0
306429,-100,4,2,1,42,0,0
306604,-100,4,2,1,43,0,0
306778,-100,4,2,1,44,0,0
306953,-100,4,2,1,45,0,0
307127,-100,4,2,1,46,0,0
307301,-100,4,2,1,47,0,0
307476,-100,4,2,1,48,0,0
307650,-100,4,2,1,49,0,0
307825,-100,4,2,1,50,0,0
307999,-100,4,2,1,51,0,0
308174,-100,4,2,1,52,0,0
308348,-100,4,2,1,53,0,0
308522,-100,4,2,1,54,0,0
308697,-100,4,2,1,55,0,0
308871,-100,4,2,1,60,0,0
309220,-100,4,2,1,55,0,0
309569,-100,4,2,1,50,0,0
309918,-100,4,2,1,45,0,0
310267,-100,4,2,1,40,0,0
310615,-100,4,2,1,35,0,0
310964,-100,4,2,1,50,0,0
311226,-100,4,2,1,45,0,0
311488,-100,4,2,1,40,0,0
312011,-100,4,2,1,45,0,0
313057,-100,4,2,1,60,0,0
313581,-100,4,2,1,45,0,0
314104,-100,4,2,1,40,0,0
314453,-100,4,2,1,35,0,0
315150,-100,4,2,1,45,0,0
315848,-100,4,2,1,60,0,0
316371,-100,4,2,1,45,0,0
316894,-100,4,2,1,40,0,0
317243,-100,4,2,1,35,0,0
317941,-100,4,2,1,45,0,0
318639,-100,4,2,1,60,0,0
319162,-100,4,2,1,45,0,0
319685,-100,4,2,1,40,0,0
320034,-100,4,2,1,35,0,0
320732,-100,4,2,1,45,0,0
321429,-100,4,2,1,60,0,0
321953,-100,4,2,1,45,0,0
322476,-100,4,2,1,40,0,0
322825,-100,4,2,1,35,0,0
328406,-100,4,2,1,25,0,0
333988,-100,4,2,1,20,0,0
336778,352.941176470588,4,2,1,18,1,0
337130,363.636363636364,4,2,1,16,1,0
337493,379.746835443038,4,2,1,14,1,0
337872,400,4,2,1,12,1,0
339072,444.444444444444,4,2,1,10,1,0
339960,-200,4,2,1,5,0,0
345294,348.837209302326,4,2,1,55,1,0
347038,-100,4,2,1,65,0,0

[Colours]
Combo1 : 168,169,167
Combo2 : 168,169,167
Combo3 : 117,208,206
Combo4 : 94,102,142
Combo5 : 117,208,206

[HitObjects]
432,72,5680,6,0,P|384:76|356:88,1,70,8|0,0:0|0:0,0:0:0:0:
392,168,6028,2,0,P|351:194|336:216,1,70,8|0,0:0|0:0,0:0:0:0:
408,276,6377,1,8,0:0:0:0:
296,296,6726,2,0,P|260:276|232:248,1,70,8|0,0:0|0:0,0:0:0:0:
192,180,7075,1,8,0:0:0:0:
192,180,7424,2,0,P|164:204|112:136,1,140,8|8,0:0|0:0,0:0:0:0:
155,69,8121,1,8,0:0:0:0:
155,69,8470,6,0,P|121:63|88:72,1,70,8|0,0:0|0:0,0:0:0:0:
128,140,8819,2,0,P|176:148|212:132,1,70,8|0,0:0|0:0,0:0:0:0:
88,72,9168,1,8,0:0:0:0:
108,216,9517,2,0,L|196:236,1,70,8|0,0:0|0:0,0:0:0:0:
292,256,9866,1,8,0:0:0:0:
408,336,10214,1,8,0:0:0:0:
352,252,10563,2,8,P|376:180|424:128,1,140
344,72,11086,6,0,P|360:40|376:32,2,35,0|0|8,0:0|0:0|0:0,0:0:0:0:
316,152,11435,1,0,0:0:0:0:
264,216,11610,2,0,P|224:168|221:143,1,70,8|0,0:0|0:0,0:0:0:0:
200,72,11959,1,8,0:0:0:0:
296,284,12307,2,0,P|344:280|376:256,1,70
396,176,12656,1,8,0:0:0:0:
316,104,12831,2,0,P|291:145|291:185,1,70,8|0,0:0|0:0,0:0:0:0:
308,252,13180,1,8,0:0:0:0:
168,120,13528,1,0,0:0:0:0:
416,124,13877,5,0,0:0:0:0:
308,128,14052,2,0,P|276:148|264:184,1,70,8|0,0:0|0:0,0:0:0:0:
212,236,14400,2,0,P|232:266|269:276,1,70,8|0,0:0|0:0,0:0:0:0:
262,277,14749,1,8,0:0:0:0:
424,272,15098,2,0,P|364:248|348:220,1,70
362,139,15447,2,8,P|389:118|424:112,1,70
416,192,15796,1,0,0:0:0:0:
276,192,15970,1,8,0:0:0:0:
404,72,16319,1,0,0:0:0:0:
408,76,16842,6,0,B|244:76|244:76|224:104,1,195.999994018555,8|0,0:0|0:0,0:0:0:0:
304,152,18238,6,0,B|436:152|436:152|460:124,1,167.999994873047,8|0,0:0|0:0,0:0:0:0:
373,216,19633,6,0,B|256:216|256:216|232:184,1,157.5,8|8,0:0|0:0,0:0:0:0:
104,64,21203,5,0,0:0:0:0:
352,216,21573,1,0,0:0:0:0:
96,228,21966,1,0,0:0:0:0:
368,68,22358,1,0,0:0:0:0:
136,72,22738,6,0,B|176:72|176:72|204:88,1,70,8|8,0:0|0:0,0:0:0:0:
272,164,23086,2,0,B|312:164|312:164|340:140,1,70,8|0,0:0|0:0,0:0:0:0:
432,168,23435,2,0,B|432:212|432:212|416:252,1,70,8|0,0:0|0:0,0:0:0:0:
320,304,23784,1,0,0:0:0:0:
320,304,23958,1,0,0:0:0:0:
320,304,24133,2,8,B|280:304|280:304|240:288,1,70
204,212,24482,2,0,B|168:212|168:212|140:232,1,70,8|0,0:0|0:0,0:0:0:0:
52,196,24831,2,0,B|52:152|52:152|64:120,1,70,8|0,0:0|0:0,0:0:0:0:
168,48,25179,5,0,0:0:0:0:
168,48,25354,1,0,0:0:0:0:
168,48,25528,2,8,B|212:48|212:48|240:56,1,70
320,128,25877,2,0,B|360:128|360:128|384:108,1,70,8|0,0:0|0:0,0:0:0:0:
408,220,26226,2,0,B|408:264|408:264|388:292,1,70,8|0,0:0|0:0,0:0:0:0:
264,296,26575,2,0,B|220:296|220:296|184:276,1,70
148,248,26836,5,0,0:0:0:0:
148,248,26924,1,0,0:0:0:0:
148,248,27011,2,8,L|96:248,2,35
196,212,27272,2,0,B|228:212|228:212|272:180|272:180|272:128,1,105,8|0,0:0|0:0,0:0:0:0:
208,144,27621,2,0,B|208:107|208:107|236:104|236:104|272:84|308:104,1,140,8|8,0:0|0:0,0:0:0:0:
456,32,28233,5,0,0:0:0:0:
456,32,28320,2,0,L|456:120,1,70,8|0,0:0|0:0,0:0:0:0:
348,224,28669,2,0,B|348:260|348:260|376:288,1,70
420,176,29017,2,0,L|364:132,1,70,8|0,0:0|0:0,0:0:0:0:
292,56,29366,2,0,B|256:64|256:64|208:52,1,70
112,52,29714,6,0,B|92:88|92:88|92:120,1,70,8|0,0:0|0:0,0:0:0:0:
236,188,30064,1,0,0:0:0:0:
236,188,30238,1,0,0:0:0:0:
92,192,30413,2,0,B|72:228|72:228|72:260,1,70,8|0,0:0|0:0,0:0:0:0:
200,332,30762,1,0,0:0:0:0:
408,264,31023,5,0,0:0:0:0:
408,264,31110,2,8,B|448:240|448:240|448:212,2,70,8|0|8,0:0|0:0|0:0,0:0:0:0:
308,272,31633,2,0,B|232:272|232:272|184:228,1,140,8|8,0:0|0:0,0:0:0:0:
144,48,32157,1,8,0:0:0:0:
312,156,32331,2,0,B|350:203|350:203|250:203,1,140,8|0,0:0|0:0,0:0:0:0:
144,48,32854,1,8,0:0:0:0:
352,96,33029,2,0,B|432:112|432:112|496:92,1,140,8|0,0:0|0:0,0:0:0:0:
360,232,33988,6,0,B|264:280|264:280|224:280,1,140,8|0,0:0|0:0,0:0:0:0:
108,104,34685,2,0,B|224:104|224:104|208:136,1,140
144,284,35382,1,8,0:0:0:0:
144,284,35470,1,8,0:0:0:0:
144,284,35557,2,8,B|200:196|200:196|253:195|253:195,1,140,8|0,0:0|0:0,0:0:0:0:
404,72,36255,1,0,0:0:0:0:
404,72,36429,2,0,B|304:72|304:72|272:48,1,140,8|8,0:0|0:0,0:0:0:0:
76,52,37825,5,8,0:0:0:0:
88,80,38000,1,8,0:0:0:0:
160,176,38348,1,8,0:0:0:0:
252,224,38523,1,8,0:0:0:0:
364,168,38697,1,8,0:0:0:0:
264,28,38872,1,8,0:0:0:0:
432,28,39046,1,8,0:0:0:0:
248,132,39220,1,8,0:0:0:0:
108,80,39569,6,0,B|152:80|152:80|176:100,1,70,8|8,0:0|0:0,0:0:0:0:
252,176,39912,2,0,B|296:176|296:176|320:152,1,70,8|0,0:0|0:0,0:0:0:0:
372,40,40267,1,8,0:0:0:0:
432,208,40615,2,8,B|432:252|432:252|408:276,1,70
296,296,40964,2,0,B|268:256|268:256|236:256,1,70,8|0,0:0|0:0,0:0:0:0:
136,200,41313,1,8,0:0:0:0:
136,200,41488,2,0,B|164:160|164:160|256:160,1,140,8|0,0:0|0:0,0:0:0:0:
368,96,42011,1,0,0:0:0:0:
256,32,42185,6,8,L|176:32,1,70
96,124,42534,1,8,0:0:0:0:
24,28,42708,1,0,0:0:0:0:
96,120,42883,2,0,B|116:160|116:160|116:216,1,70,8|0,0:0|0:0,0:0:0:0:
116,320,43232,1,0,0:0:0:0:
244,288,43406,1,8,0:0:0:0:
244,288,43581,2,0,B|284:264|284:264|284:168,1,140,8|0,0:0|0:0,0:0:0:0:
384,336,44104,1,8,0:0:0:0:
384,336,44278,2,0,B|424:312|424:312|424:216,1,140,8|0,0:0|0:0,0:0:0:0:
344,120,44801,2,0,B|304:96|304:96|304:72,1,70
168,64,45150,5,8,0:0:0:0:
168,92,45238,1,8,0:0:0:0:
168,120,45325,2,0,B|168:164|168:164|136:176|136:176|136:228|136:228|168:244|168:244|168:292,1,210,8|8,0:0|0:0,0:0:0:0:
260,324,46022,1,0,0:0:0:0:
348,260,46197,1,0,0:0:0:0:
384,164,46371,1,0,0:0:0:0:
320,60,46546,1,8,0:0:0:0:
292,68,46634,1,8,0:0:0:0:
276,88,46721,2,0,B|276:132|276:132|244:144|244:144|244:196|244:196|276:212|276:212|276:260,1,210,8|8,0:0|0:0,0:0:0:0:
168,224,47418,5,0,0:0:0:0:
136,116,47592,1,0,0:0:0:0:
168,224,47767,1,0,0:0:0:0:
280,256,47941,2,0,B|352:256|352:256|381:201|381:201|352:156|352:156|352:100|352:100|312:84,1,280,8|0,0:0|0:0,0:0:0:0:
192,52,48813,1,8,0:0:0:0:
192,52,48988,1,8,0:0:0:0:
192,52,49162,2,0,B|192:96|192:96|144:116,1,70,8|0,0:0|0:0,0:0:0:0:
88,160,49511,5,0,0:0:0:0:
72,183,49598,1,0,0:0:0:0:
56,206,49685,1,0,0:0:0:0:
62,234,49772,1,0,0:0:0:0:
73,260,49860,2,0,B|92:273|92:273|107:273,1,35
178,269,50034,5,0,0:0:0:0:
207,269,50121,1,0,0:0:0:0:
236,269,50208,1,0,0:0:0:0:
259,285,50296,1,0,0:0:0:0:
282,300,50383,1,0,0:0:0:0:
384,144,50732,5,8,0:0:0:0:
284,120,50906,1,8,0:0:0:0:
364,202,51081,1,8,0:0:0:0:
261,189,51255,1,8,0:0:0:0:
353,262,51429,1,8,0:0:0:0:
250,266,51603,1,8,0:0:0:0:
144,204,51778,5,8,0:0:0:0:
144,204,51953,2,0,B|96:176|96:176|96:92,1,140,8|0,0:0|0:0,0:0:0:0:
144,204,52476,5,8,0:0:0:0:
212,76,52650,2,0,B|260:104|260:104|260:188,1,140,8|0,0:0|0:0,0:0:0:0:
352,300,53174,2,0,B|380:272|380:272|380:228,1,70,8|0,0:0|0:0,0:0:0:0:
389,109,53522,5,8,0:0:0:0:
281,32,53697,1,8,0:0:0:0:
389,109,53871,1,8,0:0:0:0:
264,109,54046,1,8,0:0:0:0:
389,109,54220,1,8,0:0:0:0:
281,32,54394,1,8,0:0:0:0:
389,109,54569,5,8,0:0:0:0:
281,32,54743,2,0,B|234:32|234:32|186:71|186:71|186:118,1,140,8|0,0:0|0:0,0:0:0:0:
192,248,55267,5,8,0:0:0:0:
192,248,55441,2,0,B|120:212|120:212|120:172|120:172|92:156,1,140,8|0,0:0|0:0,0:0:0:0:
64,64,55964,2,0,B|112:64|112:64|136:72,1,70
252,144,56313,5,0,0:0:0:0:
304,56,56488,1,0,0:0:0:0:
252,144,56662,2,0,B|288:168|288:168|320:168,1,70,8|0,0:0|0:0,0:0:0:0:
464,184,57011,1,0,0:0:0:0:
460,76,57186,1,0,0:0:0:0:
464,184,57360,2,0,B|416:208|416:208|400:232,1,70,8|0,0:0|0:0,0:0:0:0:
352,328,57708,5,0,0:0:0:0:
348,324,57883,1,0,0:0:0:0:
352,328,58057,2,0,B|312:288|312:288|272:288,1,70,8|0,0:0|0:0,0:0:0:0:
160,288,58406,1,0,0:0:0:0:
160,288,58581,1,0,0:0:0:0:
160,288,58755,2,0,B|112:260|112:260|112:220,1,70,8|0,0:0|0:0,0:0:0:0:
112,112,59104,5,0,0:0:0:0:
20,48,59278,1,0,0:0:0:0:
112,112,59453,2,0,B|172:112|172:112|196:88,1,70,8|0,0:0|0:0,0:0:0:0:
256,28,59801,1,0,0:0:0:0:
336,96,59976,1,0,0:0:0:0:
256,28,60150,2,0,B|256:88|256:88|268:120,1,70,8|0,0:0|0:0,0:0:0:0:
340,196,60499,5,0,0:0:0:0:
448,166,60674,1,0,0:0:0:0:
418,274,60848,1,8,0:0:0:0:
340,196,61022,1,0,0:0:0:0:
263,118,61197,1,0,0:0:0:0:
232,226,61372,1,0,0:0:0:0:
340,196,61546,1,8,0:0:0:0:
418,274,61720,1,0,0:0:0:0:
344,352,61894,6,0,B|260:352|260:352|200:324,1,140,8|0,0:0|0:0,0:0:0:0:
132,228,62418,1,8,0:0:0:0:
132,228,62592,2,0,B|132:156|132:156|196:124,1,140,8|0,0:0|0:0,0:0:0:0:
188,268,63115,2,0,B|164:296|164:296|96:296|96:296|72:264,1,140,8|0,0:0|0:0,0:0:0:0:
60,148,63639,1,8,0:0:0:0:
136,76,63813,1,8,0:0:0:0:
268,84,63988,1,8,0:0:0:0:
440,84,64336,6,8,L|440:156,1,70
352,128,64685,2,8,L|352:200,1,70,8|0,0:0|0:0,0:0:0:0:
264,172,65034,1,0,0:0:0:0:
264,268,65208,1,0,0:0:0:0:
264,172,65383,2,0,B|264:92|264:92|288:72|288:72|264:56,1,140,8|0,0:0|0:0,0:0:0:0:
132,104,65906,6,8,L|70:69,2,70
20,176,66429,1,0,0:0:0:0:
120,228,66604,1,0,0:0:0:0:
48,316,66778,2,0,B|112:352|112:352|184:352,1,140,8|0,0:0|0:0,0:0:0:0:
304,296,67301,6,8,L|304:212,1,70
416,192,67650,2,8,L|416:272,2,70,8|0|0,0:0|0:0|0:0,0:0:0:0:
336,88,68174,2,0,B|252:88|252:88|228:112|228:112|248:140,1,140,8|0,0:0|0:0,0:0:0:0:
320,232,68697,5,8,0:0:0:0:
184,252,68871,2,8,L|120:200,1,70
128,64,69220,2,0,L|182:108,1,70
260,252,69569,2,0,B|336:252|336:252|312:192,1,140,8|0,0:0|0:0,0:0:0:0:
182,108,70092,1,0,0:0:0:0:
180,260,70267,6,0,B|224:316|224:316|296:316,1,140,8|0,0:0|0:0,0:0:0:0:
378,214,70790,1,0,0:0:0:0:
356,95,70964,1,0,0:0:0:0:
378,214,71139,1,0,0:0:0:0:
356,95,71313,1,0,0:0:0:0:
241,50,71488,1,0,0:0:0:0:
125,95,71662,6,0,B|95:139|95:139|95:162,2,70,8|0|0,0:0|0:0|0:0,0:0:0:0:
241,50,72185,1,0,0:0:0:0:
172,148,72360,1,8,0:0:0:0:
288,208,72534,1,0,0:0:0:0:
240,328,72708,1,0,0:0:0:0:
92,320,72883,1,0,0:0:0:0:
40,176,73057,2,0,B|40:104|40:104|112:81|112:81|131:106|131:106|105:125|105:125|86:100|86:100|120:32|120:32|200:32|200:32,1,391.99998803711,8|8,0:0|0:0,0:0:0:0:
316,64,74104,5,8,0:0:0:0:
428,126,74278,1,8,0:0:0:0:
320,184,74453,1,8,0:0:0:0:
316,64,74801,1,8,0:0:0:0:
275,216,74976,1,8,0:0:0:0:
428,176,75325,1,8,0:0:0:0:
336,148,75674,1,8,0:0:0:0:
192,140,75848,5,8,0:0:0:0:
192,140,76022,2,0,B|152:140|152:140|120:164,1,70,8|0,0:0|0:0,0:0:0:0:
100,292,76371,2,0,B|176:320|176:320|240:320,1,140,8|0,0:0|0:0,0:0:0:0:
388,248,76894,1,0,0:0:0:0:
388,248,77069,1,0,0:0:0:0:
388,248,77243,2,0,B|424:184|424:184|424:112,1,140,8|0,0:0|0:0,0:0:0:0:
292,136,77767,2,0,B|256:136|256:136|200:100,1,70,8|0,0:0|0:0,0:0:0:0:
124,48,78115,1,8,0:0:0:0:
124,48,78290,1,8,0:0:0:0:
80,184,78464,5,0,0:0:0:0:
188,104,78639,1,8,0:0:0:0:
52,100,78813,1,8,0:0:0:0:
152,184,78988,1,8,0:0:0:0:
156,188,79162,2,0,B|200:228|200:228|280:228,1,140,8|0,0:0|0:0,0:0:0:0:
412,176,79685,1,0,0:0:0:0:
412,176,79860,1,0,0:0:0:0:
412,176,80034,2,0,B|412:252|412:252|360:292,1,140,8|0,0:0|0:0,0:0:0:0:
208,296,80557,2,0,B|168:296|168:296|132:280,1,70,8|0,0:0|0:0,0:0:0:0:
84,164,80906,5,0,0:0:0:0:
196,112,81081,1,0,0:0:0:0:
260,196,81255,1,0,0:0:0:0:
196,112,81429,1,8,0:0:0:0:
84,164,81604,1,8,0:0:0:0:
196,112,81778,1,8,0:0:0:0:
320,104,81953,2,0,B|360:128|360:128|408:112|408:112|444:144,1,140,8|0,0:0|0:0,0:0:0:0:
439,140,82476,1,0,0:0:0:0:
439,140,82825,5,0,0:0:0:0:
364,256,82999,1,8,0:0:0:0:
340,272,83086,1,8,0:0:0:0:
316,288,83174,2,8,B|280:312|280:312|228:312,1,70,8|0,0:0|0:0,0:0:0:0:
112,272,83522,2,0,B|88:240|88:240|88:188,1,70
172,92,83871,2,0,B|196:124|196:124|196:176,1,70
196,276,84220,5,8,0:0:0:0:
196,276,84394,1,0,0:0:0:0:
196,276,84569,2,0,B|240:276|240:276|268:252,1,70,0|8,0:0|0:0,0:0:0:0:
356,148,84918,5,8,0:0:0:0:
356,148,85092,1,0,0:0:0:0:
356,148,85267,2,0,B|312:148|312:148|284:124,1,70,0|8,0:0|0:0,0:0:0:0:
208,32,85615,1,8,0:0:0:0:
88,88,85964,1,8,0:0:0:0:
88,88,86139,1,8,0:0:0:0:
208,32,86488,1,8,0:0:0:0:
88,88,86836,5,8,0:0:0:0:
88,192,87011,2,0,L|88:264,1,70
184,248,87360,2,0,L|228:304,1,70
308,240,87708,1,8,0:0:0:0:
232,144,87883,1,0,0:0:0:0:
308,240,88057,2,0,B|348:240|348:240|372:208,1,70
420,92,88406,6,0,B|360:48|360:48|292:48,1,140,8|8,0:0|0:0,0:0:0:0:
160,80,88929,1,0,0:0:0:0:
160,80,89104,2,0,L|160:152,1,70,8|0,0:0|0:0,0:0:0:0:
56,180,89453,2,0,L|56:252,1,70,8|0,0:0|0:0,0:0:0:0:
168,272,89801,6,0,B|204:288|204:288|252:268,1,70
288,164,90150,1,0,0:0:0:0:
176,152,90325,1,0,0:0:0:0:
244,56,90499,2,0,B|216:32|216:32|176:32,1,70,8|0,0:0|0:0,0:0:0:0:
76,80,90848,5,0,0:0:0:0:
176,152,91022,1,0,0:0:0:0:
252,56,91197,2,0,P|306:27|328:92,1,140,8|0,0:0|0:0,0:0:0:0:
332,207,91720,2,0,P|395:226|358:170,1,140,8|8,0:0|0:0,0:0:0:0:
176,184,92418,5,8,0:0:0:0:
76,116,92592,1,8,0:0:0:0:
176,184,92767,2,8,B|240:184|240:184|260:144|260:144|296:144,1,140,8|0,0:0|0:0,0:0:0:0:
228,256,93290,2,0,B|152:256|152:256|120:232|120:232|108:200,1,140,8|0,0:0|0:0,0:0:0:0:
156,60,93988,1,8,0:0:0:0:
156,60,94162,2,0,L|300:60,1,140,8|0,0:0|0:0,0:0:0:0:
232,148,94685,2,0,L|376:148,1,140,8|0,0:0|0:0,0:0:0:0:
308,272,95208,5,8,0:0:0:0:
436,296,95383,1,8,0:0:0:0:
308,272,95557,2,0,B|240:272|240:272|216:256|216:256|172:256,1,140,8|0,0:0|0:0,0:0:0:0:
208,132,96081,2,0,B|252:132|252:132|276:148|276:148|344:148,1,140,8|0,0:0|0:0,0:0:0:0:
468,52,96778,1,8,0:0:0:0:
468,52,96953,2,0,B|436:96|436:96|384:96|384:96|356:72,1,140,8|0,0:0|0:0,0:0:0:0:
284,180,97476,2,0,B|316:224|316:224|368:224|368:224|393:202,1,140,8|0,0:0|0:0,0:0:0:0:
424,96,97999,5,0,0:0:0:0:
324,32,98174,1,0,0:0:0:0:
228,92,98348,1,0,0:0:0:0:
96,84,98522,1,0,0:0:0:0:
228,92,98697,2,0,B|272:152|272:152|272:220,1,140,8|0,0:0|0:0,0:0:0:0:
228,92,99220,1,8,0:0:0:0:
360,120,99394,1,0,0:0:0:0:
228,92,99569,5,0,0:0:0:0:
360,120,99743,1,0,0:0:0:0:
264,212,99918,1,0,0:0:0:0:
132,188,100092,2,0,B|88:208|88:208|88:248|88:248|128:264|128:264|128:304,1,140,8|0,0:0|0:0,0:0:0:0:
224,344,100615,1,8,0:0:0:0:
264,216,100790,1,0,0:0:0:0:
392,260,100964,1,0,0:0:0:0:
364,116,101139,5,0,0:0:0:0:
392,260,101313,1,0,0:0:0:0:
364,116,101488,2,0,B|336:60|336:60|288:60|288:60|272:32,1,140,8|0,0:0|0:0,0:0:0:0:
132,80,102011,2,8,B|104:104|104:104|104:144,1,70
196,252,102360,2,8,B|252:224|252:224|208:184|208:184|204:216,1,140
188,328,102883,2,8,L|316:264,1,140
312,116,103581,1,0,0:0:0:0:
256,192,103755,12,0,104801,0:0:0:0:
88,60,105150,5,8,0:0:0:0:
88,88,105238,1,8,0:0:0:0:
88,116,105325,2,0,B|88:156|88:156|108:171|108:171|108:248,1,140,8|0,0:0|0:0,0:0:0:0:
288,244,106022,1,8,0:0:0:0:
288,244,106197,2,0,B|348:244|348:244|380:200|380:200|380:168,1,140,8|0,0:0|0:0,0:0:0:0:
160,48,107592,5,8,0:0:0:0:
128,76,107767,1,8,0:0:0:0:
84,184,108115,1,8,0:0:0:0:
164,244,108290,1,8,0:0:0:0:
256,176,108464,1,8,0:0:0:0:
380,216,108639,1,8,0:0:0:0:
372,344,108813,1,8,0:0:0:0:
220,352,108988,1,8,0:0:0:0:
120,136,109336,5,8,0:0:0:0:
120,136,109511,1,8,0:0:0:0:
120,136,109685,1,8,0:0:0:0:
120,136,109860,1,8,0:0:0:0:
120,136,110034,1,8,0:0:0:0:
296,68,110557,5,8,0:0:0:0:
296,68,110732,1,8,0:0:0:0:
296,68,110906,1,8,0:0:0:0:
400,60,111081,1,8,0:0:0:0:
352,156,111255,1,8,0:0:0:0:
296,68,111604,2,0,B|296:112|296:112|252:132|252:132|252:160|252:160|280:180,1,140
384,240,112127,5,8,0:0:0:0:
384,240,112301,1,8,0:0:0:0:
384,240,112476,2,0,B|384:280|384:280|352:300,1,70,8|0,0:0|0:0,0:0:0:0:
208,304,112825,1,8,0:0:0:0:
148,200,113348,5,0,0:0:0:0:
64,136,113522,2,8,L|64:56,1,70
236,148,113871,1,8,0:0:0:0:
152,84,114045,2,8,B|151:40|151:40|200:20|200:20|248:20,1,140,8|0,0:0|0:0,0:0:0:0:
360,72,114918,5,8,0:0:0:0:
360,100,115005,1,0,0:0:0:0:
360,128,115092,1,0,0:0:0:0:
336,152,115179,1,0,0:0:0:0:
316,172,115267,2,0,L|280:172,1,35
256,132,115441,2,0,L|212:132,1,35,8|0,0:0|0:0,0:0:0:0:
176,108,115615,5,8,0:0:0:0:
142,108,115703,1,0,0:0:0:0:
109,108,115790,1,0,0:0:0:0:
76,128,115877,1,0,0:0:0:0:
48,148,115964,2,0,L|48:184,1,35
68,236,116139,2,0,L|68:292,1,35,8|0,0:0|0:0,0:0:0:0:
112,308,116313,5,8,0:0:0:0:
138,281,116400,1,0,0:0:0:0:
163,254,116488,1,0,0:0:0:0:
201,254,116575,1,0,0:0:0:0:
240,256,116662,2,0,L|276:256,1,35
336,280,116836,2,0,L|394:280,1,35,8|0,0:0|0:0,0:0:0:0:
416,232,117011,5,8,0:0:0:0:
416,192,117098,1,0,0:0:0:0:
416,152,117185,1,0,0:0:0:0:
388,120,117272,1,0,0:0:0:0:
360,88,117360,2,0,L|320:88,1,35
268,136,117534,2,0,L|212:136,1,35,8|0,0:0|0:0,0:0:0:0:
168,168,117708,5,8,0:0:0:0:
124,168,117796,1,0,0:0:0:0:
80,168,117883,1,0,0:0:0:0:
44,140,117970,1,0,0:0:0:0:
44,96,118057,2,0,L|72:72,1,35
160,64,118232,2,0,L|208:64,1,35,8|0,0:0|0:0,0:0:0:0:
256,120,118406,5,8,0:0:0:0:
284,152,118493,1,0,0:0:0:0:
328,152,118581,1,0,0:0:0:0:
356,120,118668,1,0,0:0:0:0:
356,80,118755,1,8,0:0:0:0:
328,48,118842,1,0,0:0:0:0:
288,48,118929,1,8,0:0:0:0:
172,80,119278,6,0,L|132:80,2,35,8|0|0,0:0|0:0|0:0,0:0:0:0:
196,120,119540,2,0,L|236:120,2,35,0|8|0,0:0|0:0|0:0,0:0:0:0:
168,156,119801,2,0,L|128:156,2,35,0|0|8,0:0|0:0|0:0,0:0:0:0:
196,192,120063,2,0,L|236:192,1,35,0|0,0:0|0:0,0:0:0:0:
352,240,120499,6,0,L|316:272,2,46.6666666666667
400,168,120848,2,8,B|400:120,3,35
360,80,121197,1,0,0:0:0:0:
304,80,121313,1,0,0:0:0:0:
264,120,121430,1,0,0:0:0:0:
264,176,121546,2,8,B|236:200,3,35
288,264,121894,6,0,L|236:308,2,46.6666666666667
360,288,122243,2,8,B|388:260,3,35
384,192,122592,1,0,0:0:0:0:
332,168,122708,1,0,0:0:0:0:
280,144,122825,1,0,0:0:0:0:
228,120,122941,2,8,L|188:120,3,35
108,152,123290,6,0,L|92:196,2,46.6666666666667
36,92,123639,2,8,B|36:72|36:72|52:52,3,35
112,36,123988,1,0,0:0:0:0:
172,36,124104,2,0,L|228:36,1,46.6666666666667
280,36,124336,2,8,L|312:56,3,35
320,124,124685,5,0,0:0:0:0:
300,176,124801,1,0,0:0:0:0:
252,208,124918,1,0,0:0:0:0:
196,220,125034,2,8,B|172:220|172:220|156:232,3,35
132,288,125383,1,0,0:0:0:0:
176,336,125499,2,0,L|232:336,1,46.6666666666667
268,292,125732,2,8,L|296:260,3,35
284,196,126081,5,0,0:0:0:0:
264,136,126197,1,0,0:0:0:0:
284,84,126313,1,0,0:0:0:0:
340,80,126429,2,8,B|368:80|368:80|388:96,3,35
420,136,126778,1,0,0:0:0:0:
400,188,126894,1,0,0:0:0:0:
344,204,127011,1,0,0:0:0:0:
288,204,127127,2,8,L|236:204,3,35
204,152,127476,5,0,0:0:0:0:
172,108,127592,1,0,0:0:0:0:
116,100,127708,1,0,0:0:0:0:
72,136,127825,2,8,L|72:176,3,35
112,224,128174,1,0,0:0:0:0:
160,256,128290,1,0,0:0:0:0:
216,260,128406,1,0,0:0:0:0:
264,228,128522,2,8,L|288:200,3,35
328,140,128871,5,0,0:0:0:0:
324,84,128988,1,0,0:0:0:0:
272,68,129104,1,0,0:0:0:0:
236,112,129220,2,8,L|260:148,3,35
304,117,129569,5,0,0:0:0:0:
280,66,129686,1,0,0:0:0:0:
226,70,129802,1,0,0:0:0:0:
208,124,129918,2,8,L|243:149,3,35
246,103,130267,5,0,0:0:0:0:
196,78,130383,1,0,0:0:0:0:
155,116,130499,1,0,0:0:0:0:
175,168,130615,2,8,L|219:166,3,35
192,129,130964,5,0,0:0:0:0:
137,141,131081,1,0,0:0:0:0:
130,195,131197,1,0,0:0:0:0:
179,224,131313,2,8,L|211:194,3,35
280,163,131662,5,0,0:0:0:0:
326,184,131778,1,0,0:0:0:0:
329,234,131894,1,0,0:0:0:0:
301,276,132011,1,8,0:0:0:0:
252,297,132127,1,0,0:0:0:0:
199,286,132243,1,0,0:0:0:0:
164,248,132360,5,8,0:0:0:0:
150,192,132476,1,0,0:0:0:0:
175,139,132592,1,0,0:0:0:0:
231,121,132708,1,8,0:0:0:0:
280,86,132825,1,0,0:0:0:0:
340,72,132941,1,0,0:0:0:0:
396,93,133057,5,8,0:0:0:0:
403,160,133174,1,0,0:0:0:0:
364,213,133290,1,0,0:0:0:0:
301,234,133406,1,8,0:0:0:0:
244,200,133522,1,0,0:0:0:0:
176,208,133639,1,0,0:0:0:0:
136,264,133755,2,0,B|136:288|136:288|160:312,7,35
180,320,134453,5,8,0:0:0:0:
312,232,134801,1,8,0:0:0:0:
180,320,135150,1,8,0:0:0:0:
320,308,135499,1,8,0:0:0:0:
180,320,135848,1,0,0:0:0:0:
92,216,136197,6,8,B|68:176|68:176|68:76,1,140
240,40,136894,1,8,0:0:0:0:
400,56,137243,1,8,0:0:0:0:
304,180,137592,1,8,0:0:0:0:
240,40,137941,1,8,0:0:0:0:
304,180,138290,1,0,0:0:0:0:
240,40,138639,1,8,0:0:0:0:
112,124,138988,1,8,0:0:0:0:
124,160,139336,1,0,0:0:0:0:
368,144,140034,5,8,0:0:0:0:
128,56,141429,1,8,0:0:0:0:
224,304,142127,1,8,0:0:0:0:
356,16,142825,1,8,0:0:0:0:
164,268,143871,5,8,0:0:0:0:
164,191,144046,1,8,0:0:0:0:
231,230,144220,1,8,0:0:0:0:
164,268,144569,1,8,0:0:0:0:
164,120,144743,1,8,0:0:0:0:
296,192,145092,1,8,0:0:0:0:
164,268,145441,1,8,0:0:0:0:
84,200,145615,6,0,L|64:124,3,70
144,48,146313,2,0,L|216:84,3,70,0|0|8|0,0:0|0:0|0:0|0:0,0:0:0:0:
336,88,147011,2,0,L|396:48,4,70,8|0|8|8|0,0:0|0:0|0:0|0:0|0:0,0:0:0:0:
344,160,147883,6,0,L|420:156,2,70,8|0|8,0:0|0:0|0:0,0:0:0:0:
272,232,148406,2,0,L|236:324,1,70
154,221,148755,2,0,L|96:144,1,70
229,114,149104,2,0,L|328:100,1,70
272,232,149453,2,0,L|240:320,1,70,8|0,0:0|0:0,0:0:0:0:
154,221,149801,2,0,L|96:144,4,70,8|0|8|8|0,0:0|0:0|0:0|0:0|0:0,0:0:0:0:
260,156,150674,6,0,L|252:80,2,70,8|0|8,0:0|0:0|0:0,0:0:0:0:
360,236,151197,1,0,0:0:0:0:
392,256,151371,1,0,0:0:0:0:
432,252,151546,2,0,L|484:200,1,70
436,84,151894,1,0,0:0:0:0:
376,68,152069,1,0,0:0:0:0:
364,128,152243,1,0,0:0:0:0:
304,112,152418,1,0,0:0:0:0:
316,52,152592,2,0,L|240:32,1,70
244,100,152941,2,0,L|176:82,1,70
176,82,153290,5,8,0:0:0:0:
128,180,153639,1,8,0:0:0:0:
204,264,153988,2,0,L|212:180,2,70,8|0|0,0:0|0:0|0:0,0:0:0:0:
284,304,154511,1,8,0:0:0:0:
284,304,154685,2,0,L|292:220,2,70,8|0|0,0:0|0:0|0:0,0:0:0:0:
364,264,155208,1,8,0:0:0:0:
364,264,155382,2,0,L|372:180,2,70,8|0|0,0:0|0:0|0:0,0:0:0:0:
408,340,155906,2,0,B|444:320|444:320|448:280,3,70,8|8|0|8,0:0|0:0|0:0|0:0,0:0:0:0:
452,208,156604,6,0,B|452:148|452:148|408:124|408:124|408:84,1,140,8|0,0:0|0:0,0:0:0:0:
312,52,157127,2,0,P|260:32|232:32,1,70
244,104,157476,2,0,P|188:99|161:106,1,70
228,184,157825,2,0,P|268:222|279:248,1,70,8|0,0:0|0:0,0:0:0:0:
209,267,158174,2,0,P|236:315|241:342,1,70,8|0,0:0|0:0,0:0:0:0:
136,312,158522,2,8,P|83:332|55:332,1,70
68,259,158871,2,0,P|12:263|-14:256,1,70,0|8,0:0|0:0,0:0:0:0:
56,168,159220,5,0,0:0:0:0:
120,104,159394,2,0,L|192:76,1,70,8|0,0:0|0:0,0:0:0:0:
152,188,159743,1,0,0:0:0:0:
236,156,159918,2,0,L|304:128,1,70
292,44,160267,2,0,B|316:36|316:36|368:60|368:60,1,70
408,144,160615,2,8,P|412:184|388:228,1,70
300,208,160964,2,8,P|300:248|312:280,2,70
328,72,161488,2,0,P|388:56|376:120,2,140,8|8|8,0:0|0:0|0:0,0:0:0:0:
244,152,162360,5,0,0:0:0:0:
144,96,162534,2,0,B|124:64|124:64|88:64|88:64|56:96|60:124,1,140
92,204,163057,2,0,B|112:240|112:240|216:240,1,140
328,232,163755,5,8,0:0:0:0:
328,176,163929,2,0,L|328:36,1,140
416,240,164453,2,0,L|416:100,1,140,0|8,0:0|0:0,0:0:0:0:
340,36,164976,5,8,0:0:0:0:
292,28,165150,1,0,0:0:0:0:
264,64,165325,2,0,B|184:40|184:40|128:40,1,140
32,96,165848,2,0,B|64:136|64:136|156:136,1,140,0|8,0:0|0:0,0:0:0:0:
304,188,166546,5,8,0:0:0:0:
352,220,166720,2,0,B|384:240|384:240|384:288|384:288|344:308|344:308|312:308,1,140
408,172,167243,2,0,B|452:200|452:200|452:304,1,140,0|8,0:0|0:0,0:0:0:0:
384,332,167767,5,0,0:0:0:0:
340,332,167941,1,8,0:0:0:0:
304,304,168115,2,8,L|220:304,1,70
212,228,168464,2,0,B|152:228|152:228|112:192|112:192|112:144,1,140,8|0,0:0|0:0,0:0:0:0:
144,60,168988,2,0,B|176:32|176:32|204:32,1,70,8|0,0:0|0:0,0:0:0:0:
360,68,169336,5,8,0:0:0:0:
316,68,169511,1,8,0:0:0:0:
360,68,169685,1,8,0:0:0:0:
316,68,169860,2,0,B|272:68|272:68|236:104|236:104|236:152,1,140,8|0,0:0|0:0,0:0:0:0:
320,244,170383,2,0,B|320:280|320:280|288:304,1,70,8|0,0:0|0:0,0:0:0:0:
144,264,170732,5,8,0:0:0:0:
116,212,170906,1,8,0:0:0:0:
172,184,171081,1,8,0:0:0:0:
196,240,171255,2,0,B|236:224|236:224|264:176|264:176|264:128,1,140,8|0,0:0|0:0,0:0:0:0:
220,32,171778,5,8,0:0:0:0:
284,32,171953,1,0,0:0:0:0:
220,32,172127,2,8,B|144:32|144:32|120:60|120:96,1,140
112,184,172650,1,8,0:0:0:0:
112,184,172999,2,8,B|124:198|124:198|190:198|190:198|203:173|203:173|235:172,1,140
280,104,173522,2,0,L|296:64,4,35
168,184,174046,2,0,L|176:220,4,35
84,80,174569,2,0,L|48:64,4,35
248,92,175092,2,0,L|288:80,5,35
336,80,175615,1,0,0:0:0:0:
424,168,175964,5,0,0:0:0:0:
376,240,176139,1,8,0:0:0:0:
360,272,176226,1,8,0:0:0:0:
348,304,176313,2,8,B|332:336|332:336|288:336|288:336|312:280,1,140
284,184,176836,2,8,B|300:144|300:144|240:144|240:144|268:88,1,154.000004699707
216,24,177360,2,8,B|168:24|168:24|132:64|132:64|200:64,1,167.999994873047
292,64,177883,2,8,B|328:64|328:64|356:20|356:20|392:20|392:20|432:104|432:104,1,181.999991668702
456,160,178406,5,8,0:0:0:0:
420,236,178581,1,0,0:0:0:0:
356,280,178755,1,0,0:0:0:0:
292,300,178929,1,0,0:0:0:0:
240,300,179104,1,0,0:0:0:0:
212,292,179278,1,0,0:0:0:0:
124,216,179453,1,8,0:0:0:0:
76,300,179627,1,8,0:0:0:0:
128,212,179801,2,8,B|152:176|152:176|132:152|132:152|168:92,1,140
264,56,180325,5,8,0:0:0:0:
376,84,180499,1,8,0:0:0:0:
424,168,180674,1,8,0:0:0:0:
376,84,180848,1,8,0:0:0:0:
424,4,181022,1,8,0:0:0:0:
376,84,181197,1,8,0:0:0:0:
424,168,181371,1,8,0:0:0:0:
376,84,181546,1,8,0:0:0:0:
280,80,181720,2,0,B|232:80|232:80|216:56|216:56|144:56,1,140,8|0,0:0|0:0,0:0:0:0:
52,120,182243,5,8,0:0:0:0:
136,180,182418,1,8,0:0:0:0:
52,120,182592,1,8,0:0:0:0:
148,112,182941,5,8,0:0:0:0:
232,172,183116,1,8,0:0:0:0:
145,115,183290,1,8,0:0:0:0:
234,168,183464,1,8,0:0:0:0:
143,119,183639,1,8,0:0:0:0:
236,164,183813,1,8,0:0:0:0:
140,128,183988,1,8,0:0:0:0:
239,155,184162,1,8,0:0:0:0:
116,140,184336,1,8,0:0:0:0:
268,124,184511,1,8,0:0:0:0:
152,212,184685,6,0,B|180:244|180:244|236:244,1,70
336,216,185034,2,0,B|352:200|352:200|352:184,3,35
352,148,185383,1,8,0:0:0:0:
208,248,185906,2,0,B|184:252|184:252|156:216,2,70
376,197,186430,2,0,B|393:175|393:175|391:156,3,35
392,104,186778,1,8,0:0:0:0:
172,272,187301,5,0,0:0:0:0:
172,272,187476,2,0,B|116:244|116:244|116:156,1,140
100,136,187912,2,0,L|72:112,2,35
24,64,188174,1,8,0:0:0:0:
200,140,188522,5,8,0:0:0:0:
256,64,188697,2,0,B|328:64|328:64|376:112,1,140,8|0,0:0|0:0,0:0:0:0:
392,144,189133,1,0,0:0:0:0:
392,180,189220,1,0,0:0:0:0:
376,212,189307,1,0,0:0:0:0:
376,248,189394,1,0,0:0:0:0:
400,272,189482,1,0,0:0:0:0:
404,308,189569,1,0,0:0:0:0:
380,336,189656,1,0,0:0:0:0:
344,340,189743,2,0,B|272:340|272:340|240:304|240:304|264:272|264:272|288:304|288:304|256:340|256:340|204:340|204:340|168:300,1,350
92,208,190790,6,8,P|96:160|124:132,1,70
196,80,191139,1,8,0:0:0:0:
136,0,191313,1,8,0:0:0:0:
196,80,191488,2,0,L|280:80,1,70,0|8,0:0|0:0,0:0:0:0:
392,120,191836,2,8,P|440:160|452:192,1,70
364,200,192185,2,8,P|384:240|384:284,1,70
268,248,192534,1,8,0:0:0:0:
268,248,192708,2,0,P|240:212|208:200,1,70,8|0,0:0|0:0,0:0:0:0:
128,240,193057,2,0,P|92:216|68:192,1,70
72,80,193406,5,8,0:0:0:0:
72,80,193581,1,8,0:0:0:0:
192,40,193755,2,0,P|232:32|280:32,1,70,8|0,0:0|0:0,0:0:0:0:
356,100,194104,1,8,0:0:0:0:
480,80,194278,1,8,0:0:0:0:
435,197,194453,1,8,0:0:0:0:
300,144,194627,1,8,0:0:0:0:
424,124,194801,1,8,0:0:0:0:
379,241,194976,2,8,B|364:288|364:288|272:288,1,140
136,264,195499,5,8,0:0:0:0:
200,176,195674,1,8,0:0:0:0:
136,264,195848,2,0,B|104:292|104:292|72:292|72:292|44:260|44:260|44:232,1,140
88,108,196371,2,0,B|124:76|124:76|160:76,1,70
220,184,196720,5,0,0:0:0:0:
304,56,196894,2,0,B|340:24|340:24|376:24,1,70,8|0,0:0|0:0,0:0:0:0:
220,184,197243,5,0,0:0:0:0:
347,98,197418,2,0,B|392:82|392:82|425:96,1,70
223,188,197767,5,0,0:0:0:0:
372,153,197942,2,0,B|420:154|420:154|446:179,1,70,8|0,0:0|0:0,0:0:0:0:
223,188,198290,5,8,0:0:0:0:
372,156,198464,1,0,0:0:0:0:
223,188,198639,2,0,B|184:168|184:168|164:136,1,70,8|0,0:0|0:0,0:0:0:0:
116,12,198988,1,0,0:0:0:0:
170,145,199162,6,0,B|184:168|184:168|296:224,1,140
416,200,199685,1,0,0:0:0:0:
456,92,199860,1,0,0:0:0:0:
416,200,200034,1,0,0:0:0:0:
320,280,200208,6,0,B|284:288|284:288|168:232,1,140
96,164,200732,6,0,B|64:128|64:128|64:96,1,70
184,96,201081,2,0,B|204:60|204:60|256:60,1,70,8|0,0:0|0:0,0:0:0:0:
348,128,201429,5,8,0:0:0:0:
456,196,201604,1,8,0:0:0:0:
348,128,201778,1,8,0:0:0:0:
216,196,201953,1,8,0:0:0:0:
348,128,202127,1,8,0:0:0:0:
436,256,202301,1,8,0:0:0:0:
348,128,202476,1,8,0:0:0:0:
244,248,202650,1,8,0:0:0:0:
348,128,202825,5,8,0:0:0:0:
388,292,202999,1,8,0:0:0:0:
348,128,203174,1,8,0:0:0:0:
288,288,203348,1,8,0:0:0:0:
348,128,203522,5,8,0:0:0:0:
340,324,203697,1,8,0:0:0:0:
464,132,203871,1,8,0:0:0:0:
340,324,204046,1,8,0:0:0:0:
148,212,204220,6,0,L|148:240,11,23.3333333333333
188,240,204918,2,0,L|224:232,9,35
224,264,205615,6,0,L|272:288,1,46.6666666666667
304,228,205848,2,0,L|352:248,1,46.6666666666667,0|8,0:0|0:0,0:0:0:0:
328,312,206081,2,0,L|380:336,1,46.6666666666667
412,272,206313,2,0,L|448:240,1,46.6666666666667,8|0,0:0|0:0,0:0:0:0:
420,160,206546,2,0,L|368:124,1,46.6666666666667,0|8,0:0|0:0,0:0:0:0:
368,36,206778,2,0,L|406:62,1,46.6666666666667
320,96,207011,2,0,L|268:60,1,46.6666666666667,8|0,0:0|0:0,0:0:0:0:
204,32,207243,2,0,L|164:64,1,46.6666666666667
108,132,207476,6,0,L|80:128,2,23.3333333333333,0|8|0,0:0|0:0|0:0,0:0:0:0:
144,224,207708,6,0,L|196:200,1,46.6666666666667
248,264,207941,2,0,L|300:240,1,46.6666666666667,0|8,0:0|0:0,0:0:0:0:
272,160,208174,2,0,L|228:132,1,46.6666666666667
312,88,208406,2,0,L|356:112,1,46.6666666666667,8|0,0:0|0:0,0:0:0:0:
348,192,208639,2,0,L|348:244,1,46.6666666666667
320,316,208871,2,0,L|276:336,1,46.6666666666667
240,260,209104,2,0,L|192:284,1,46.6666666666667
176,188,209335,2,0,L|232:160,1,46.6666666666667,0|8,0:0|0:0,0:0:0:0:
256,80,209568,6,0,L|256:52,2,23.3333333333333,0|8|0,0:0|0:0|0:0,0:0:0:0:
292,100,209801,1,0,0:0:0:0:
332,80,209917,2,8,L|332:48,2,23.3333333333333
348,124,210149,1,0,0:0:0:0:
392,144,210266,2,8,L|420:132,2,23.3333333333333
392,192,210498,1,8,0:0:0:0:
272,60,210848,5,0,0:0:0:0:
272,60,211197,5,0,0:0:0:0:
244,64,211284,1,0,0:0:0:0:
220,76,211371,1,0,0:0:0:0:
204,96,211458,1,0,0:0:0:0:
200,124,211546,2,0,L|184:156,3,35
200,156,211825,2,0,L|212:188,3,35
228,176,212104,2,0,L|264:172,3,35
264,140,212383,2,0,L|292:112,3,35
288,176,212662,2,0,L|324:172,3,35
328,124,212941,5,0,0:0:0:0:
364,96,213028,1,0,0:0:0:0:
356,52,213115,1,0,0:0:0:0:
316,28,213203,1,0,0:0:0:0:
272,40,213290,5,0,0:0:0:0:
236,68,213377,1,0,0:0:0:0:
220,112,213464,1,0,0:0:0:0:
232,156,213551,1,0,0:0:0:0:
264,188,213639,1,0,0:0:0:0:
288,228,213726,1,0,0:0:0:0:
280,268,213813,1,0,0:0:0:0:
248,300,213900,1,0,0:0:0:0:
204,316,213986,6,0,L|156:304,14,35
88,196,215383,5,8,0:0:0:0:
88,196,215557,1,8,0:0:0:0:
176,80,216081,5,8,0:0:0:0:
176,80,216255,1,8,0:0:0:0:
268,112,216777,5,8,0:0:0:0:
348,68,216953,1,0,0:0:0:0:
420,112,217127,1,0,0:0:0:0:
400,200,217301,2,0,B|360:252|360:252|284:260,1,140,8|0,0:0|0:0,0:0:0:0:
176,176,217823,5,8,0:0:0:0:
284,144,217999,1,0,0:0:0:0:
272,252,218174,1,0,0:0:0:0:
176,176,218348,2,0,B|176:88|176:88|224:64,1,140,8|0,0:0|0:0,0:0:0:0:
332,76,218871,1,0,0:0:0:0:
428,148,219046,1,0,0:0:0:0:
324,180,219220,1,0,0:0:0:0:
448,44,219394,1,0,0:0:0:0:
404,248,219569,5,8,0:0:0:0:
304,284,219743,1,0,0:0:0:0:
220,220,219918,1,0,0:0:0:0:
304,284,220092,2,0,B|404:248|404:248|416:200,1,140,8|0,0:0|0:0,0:0:0:0:
408,112,220615,1,8,0:0:0:0:
324,52,220790,1,0,0:0:0:0:
228,68,220964,1,0,0:0:0:0:
184,168,221139,2,0,B|176:220|176:220|128:244|128:244|72:232,1,140,8|0,0:0|0:0,0:0:0:0:
52,120,221662,5,0,0:0:0:0:
176,80,221836,1,0,0:0:0:0:
52,120,222011,1,0,0:0:0:0:
176,80,222185,1,0,0:0:0:0:
308,108,222360,5,8,0:0:0:0:
308,108,222534,1,8,0:0:0:0:
308,108,222708,1,8,0:0:0:0:
308,108,222883,2,0,L|444:108,1,132.999996448517,8|0,0:0|0:0,0:0:0:0:
244,192,223406,2,8,L|320:192,1,73.4999977569581
192,280,223755,5,8,0:0:0:0:
192,280,223929,1,8,0:0:0:0:
192,280,224104,1,8,0:0:0:0:
192,280,224278,2,8,L|344:280,1,132.999996448517,8|8,0:0|0:0,0:0:0:0:
252,192,224801,2,8,L|182:192,1,70
116,92,225150,5,8,0:0:0:0:
32,24,225325,1,8,0:0:0:0:
116,92,225499,1,8,0:0:0:0:
228,92,225674,2,8,B|252:60|252:60|352:60,1,140,8|8,0:0|0:0,0:0:0:0:
416,168,226197,5,8,0:0:0:0:
508,112,226371,1,0,0:0:0:0:
416,168,226546,1,0,0:0:0:0:
400,284,226720,2,0,B|364:312|364:312|256:312,1,140,8|0,0:0|0:0,0:0:0:0:
160,256,227243,2,0,B|128:232|128:232|128:192,1,70,8|0,0:0|0:0,0:0:0:0:
224,160,227592,2,0,B|224:124|224:124|252:96,1,70,8|0,0:0|0:0,0:0:0:0:
429,61,227941,5,0,0:0:0:0:
497,144,228115,1,0,0:0:0:0:
461,247,228290,1,0,0:0:0:0:
358,274,228464,1,0,0:0:0:0:
393,169,228639,5,0,0:0:0:0:
321,87,228813,1,0,0:0:0:0:
285,192,228988,1,0,0:0:0:0:
181,216,229162,1,0,0:0:0:0:
89,95,229336,5,0,0:0:0:0:
247,59,229511,1,0,0:0:0:0:
130,178,229685,1,0,0:0:0:0:
155,14,229860,1,0,0:0:0:0:
236,149,230034,5,0,0:0:0:0:
236,337,230208,1,0,0:0:0:0:
130,178,230383,1,0,0:0:0:0:
306,238,230557,1,0,0:0:0:0:
120,298,230732,6,0,B|67:297|67:297|23:246|23:246|23:202,1,140,4|0,0:0|0:0,0:0:0:0:
128,52,231429,1,0,0:0:0:0:
252,108,231778,1,0,0:0:0:0:
252,108,231953,1,0,0:0:0:0:
252,108,232127,6,0,B|316:108|316:108|324:80|324:80|384:80,1,140,4|0,0:0|0:0,0:0:0:0:
376,240,232825,1,0,0:0:0:0:
376,240,233174,1,0,0:0:0:0:
376,240,233522,6,0,B|328:300|328:300|260:300,1,140,4|0,0:0|0:0,0:0:0:0:
140,296,234220,1,0,0:0:0:0:
100,208,234394,2,0,L|36:160,2,70,4|0|0,0:0|0:0|0:0,0:0:0:0:
192,216,234918,2,0,B|236:216|236:216|256:188|256:188|332:188,1,140,4|0,0:0|0:0,0:0:0:0:
368,76,235615,1,0,0:0:0:0:
368,76,235964,1,0,0:0:0:0:
368,76,236313,6,0,B|344:104|344:104|304:104|304:104|272:76|272:76|236:76,1,140,4|0,0:0|0:0,0:0:0:0:
116,76,237011,1,0,0:0:0:0:
132,224,237360,1,0,0:0:0:0:
132,224,237534,1,0,0:0:0:0:
132,224,237708,6,0,B|164:264|164:264|164:288|164:288|192:312|192:312|224:312,1,140,4|0,0:0|0:0,0:0:0:0:
332,228,238406,1,0,0:0:0:0:
332,228,238755,1,0,0:0:0:0:
332,228,239104,6,0,B|300:196|300:196|196:196,1,140,4|0,0:0|0:0,0:0:0:0:
164,80,239801,1,0,0:0:0:0:
268,72,239974,2,0,L|268:0,2,70,4|0|0,0:0|0:0|0:0,0:0:0:0:
328,152,240499,2,0,B|352:196|352:196|352:256|352:256|328:284,1,140,4|0,0:0|0:0,0:0:0:0:
184,312,241197,1,0,0:0:0:0:
184,312,241546,1,0,0:0:0:0:
92,204,241894,6,0,P|88:152|96:128,1,70,8|0,0:0|0:0,0:0:0:0:
184,140,242243,2,0,P|208:112|252:104,1,70,0|0,0:0|0:0,0:0:0:0:
288,176,242592,1,0,0:0:0:0:
416,96,242941,1,8,0:0:0:0:
328,44,243115,1,8,0:0:0:0:
238,102,243290,2,0,P|198:82|174:58,1,70,0|0,0:0|0:0,0:0:0:0:
238,106,243639,1,0,0:0:0:0:
292,184,243813,1,0,0:0:0:0:
248,264,243988,2,0,B|280:288|280:288|336:288|336:288|364:248,1,140,0|8,0:0|0:0,0:0:0:0:
396,148,244685,6,0,P|376:96|360:80,1,70,8|0,0:0|0:0,0:0:0:0:
276,128,245034,2,0,P|256:96|248:64,1,70,0|0,0:0|0:0,0:0:0:0:
164,128,245383,2,0,P|152:84|156:48,2,70,0|8|8,0:0|0:0|0:0,0:0:0:0:
220,208,245906,1,8,0:0:0:0:
320,220,246081,2,0,P|360:196|376:172,1,70,0|0,0:0|0:0,0:0:0:0:
320,220,246429,1,0,0:0:0:0:
260,304,246604,1,0,0:0:0:0:
152,304,246778,2,0,B|108:304|108:304|68:268|68:268|68:216,1,140,0|0,0:0|0:0,0:0:0:0:
152,92,247476,6,0,B|228:92|228:92|256:60|256:60|288:60|288:60|320:112|320:112|404:112,1,280,12|0,0:0|0:0,0:0:0:0:
400,224,248522,2,8,B|374:246|374:246|338:246,1,70
216,180,248871,2,0,B|168:180|168:180|120:128|120:128|56:128|56:128|52:204|72:256,1,280,4|0,0:0|0:0,0:0:0:0:
244,296,249918,1,8,0:0:0:0:
244,296,250267,2,0,B|308:244|308:244|308:168|308:168|268:144|268:144|268:64,1,280,12|0,0:0|0:0,0:0:0:0:
368,12,251137,2,8,L|448:12,2,70
268,69,251662,2,0,B|268:144|268:144|308:168|308:168|308:244|308:244|244:296,1,280,12|0,0:0|0:0,0:0:0:0:
256,192,253144,12,0,255499,0:0:0:0:
336,108,255848,6,0,L|384:80,23,35
412,112,257941,2,0,L|380:144,1,35,4|0,0:0|0:0,0:0:0:0:
296,260,258115,1,4,0:0:0:0:
148,56,258639,5,0,0:0:0:0:
184,56,258726,1,0,0:0:0:0:
220,56,258813,1,0,0:0:0:0:
240,88,258900,1,0,0:0:0:0:
260,120,258988,1,0,0:0:0:0:
300,124,259075,1,0,0:0:0:0:
332,96,259162,1,0,0:0:0:0:
364,68,259249,1,0,0:0:0:0:
404,68,259336,1,0,0:0:0:0:
436,96,259424,1,0,0:0:0:0:
436,136,259511,1,0,0:0:0:0:
436,176,259598,1,0,0:0:0:0:
404,204,259685,1,0,0:0:0:0:
396,244,259801,2,0,B|396:276|396:276|376:292,1,46.6666666666667,8|8,0:0|0:0,0:0:0:0:
328,280,260034,6,0,B|292:280|292:280|284:264|284:264|240:264|240:264|200:284,1,140,8|0,0:0|0:0,0:0:0:0:
96,268,260557,2,0,B|64:236|64:236|64:208|64:208|92:184|92:184|92:148,1,140,8|0,0:0|0:0,0:0:0:0:
148,56,261081,2,0,B|180:56|180:56|212:28,1,70,8|0,0:0|0:0,0:0:0:0:
324,56,261429,5,0,0:0:0:0:
352,76,261517,1,0,0:0:0:0:
380,96,261604,1,0,0:0:0:0:
380,136,261691,1,0,0:0:0:0:
380,176,261778,1,0,0:0:0:0:
348,196,261865,1,0,0:0:0:0:
312,216,261953,1,0,0:0:0:0:
312,256,262040,1,0,0:0:0:0:
276,280,262127,1,0,0:0:0:0:
240,300,262214,1,0,0:0:0:0:
200,288,262301,1,0,0:0:0:0:
160,268,262389,1,0,0:0:0:0:
160,228,262476,2,0,L|120:188,2,46.6666666666667,8|8|8,0:0|0:0|0:0,0:0:0:0:
232,196,262825,6,0,B|232:164|232:164|312:128|312:128|280:108,1,140,8|0,0:0|0:0,0:0:0:0:
168,132,263348,2,0,B|168:80|168:80|116:64|116:64|76:80,2,140,8|0|0,0:0|0:0|0:0,0:0:0:0:
88,220,264220,2,0,B|88:260|88:260|128:276,1,70
236,292,264569,1,8,0:0:0:0:
236,292,264743,2,0,B|272:236|272:236|336:236|336:236|344:224,1,140,8|0,0:0|0:0,0:0:0:0:
408,148,265267,2,0,B|408:108|408:108|380:88,1,70
284,36,265615,5,0,0:0:0:0:
216,120,265790,1,0,0:0:0:0:
136,36,265964,1,8,0:0:0:0:
48,120,266139,2,0,B|72:160|72:160|144:160|144:160|160:180,1,140,8|0,0:0|0:0,0:0:0:0:
244,288,266662,1,8,0:0:0:0:
244,288,266836,1,8,0:0:0:0:
272,176,267011,2,0,L|272:36,1,140,4|0,0:0|0:0,0:0:0:0:
164,200,267534,2,0,L|164:60,1,140,4|0,0:0|0:0,0:0:0:0:
240,284,268057,2,0,L|240:204,1,70,4|0,0:0|0:0,0:0:0:0:
352,316,268406,6,0,B|352:260|352:260|392:240|392:240|392:196,1,140,4|0,0:0|0:0,0:0:0:0:
388,80,268929,1,0,0:0:0:0:
276,160,269104,2,0,B|244:140|244:140|244:104|244:104|220:84|220:84|180:84,1,140,4|0,0:0|0:0,0:0:0:0:
76,168,269627,2,0,B|112:192|112:192|112:232,1,70,0|8,0:0|0:0,0:0:0:0:
236,288,269976,5,0,0:0:0:0:
248,304,270150,1,0,0:0:0:0:
272,312,270325,1,0,0:0:0:0:
312,296,270499,2,0,B|344:272|344:272|344:240,1,70
264,144,270848,2,0,B|264:100|264:100|288:88,1,70,8|0,0:0|0:0,0:0:0:0:
420,68,271197,2,0,B|448:92|448:92|448:132,1,70,8|0,0:0|0:0,0:0:0:0:
436,256,271546,1,8,0:0:0:0:
436,256,271720,1,8,0:0:0:0:
440,260,271894,2,0,B|416:304|416:304|380:304,1,70,0|8,0:0|0:0,0:0:0:0:
320,212,272243,2,0,B|291:183|291:183|252:184|252:184,1,70,0|8,0:0|0:0,0:0:0:0:
144,224,272591,5,0,0:0:0:0:
128,233,272765,1,0,0:0:0:0:
102,230,272940,1,0,0:0:0:0:
72,212,273114,1,0,0:0:0:0:
48,169,273289,2,0,B|49:125|49:125|88:104,1,70
236,80,273639,1,8,0:0:0:0:
236,80,273813,1,0,0:0:0:0:
236,80,273988,2,0,B|292:80|292:80|316:108,1,70,8|0,0:0|0:0,0:0:0:0:
376,240,274336,1,8,0:0:0:0:
376,240,274510,1,8,0:0:0:0:
376,240,274685,2,0,B|320:240|320:240|296:212,1,70,0|8,0:0|0:0,0:0:0:0:
208,144,275034,2,0,B|136:144,1,70,0|8,0:0|0:0,0:0:0:0:
56,240,275383,5,0,0:0:0:0:
53,259,275557,1,0,0:0:0:0:
64,282,275732,1,0,0:0:0:0:
92,304,275906,1,0,0:0:0:0:
140,312,276081,2,0,B|180:296|180:296|224:296,1,70
348,336,276429,2,0,B|400:336|400:336|412:304,1,70
424,188,276778,2,0,B|396:160|396:160|396:124,1,70
316,52,277127,2,0,B|280:52|280:52|252:80,1,70
172,184,277476,5,8,0:0:0:0:
172,184,277650,1,8,0:0:0:0:
48,144,277825,1,8,0:0:0:0:
48,144,277999,1,8,0:0:0:0:
112,256,278172,6,0,B|176:288|176:288|248:288,1,140,8|0,0:0|0:0,0:0:0:0:
376,204,278697,1,0,0:0:0:0:
376,204,278871,2,0,B|336:140|336:140|264:140,1,140,8|0,0:0|0:0,0:0:0:0:
144,84,279394,1,0,0:0:0:0:
276,48,279569,2,0,B|352:48|352:48|392:64|392:64|416:64,1,140,8|0,0:0|0:0,0:0:0:0:
408,188,280092,1,0,0:0:0:0:
408,188,280267,2,0,B|396:224|396:224|348:224,1,70,8|0,0:0|0:0,0:0:0:0:
204,272,280615,1,8,0:0:0:0:
204,272,280790,2,0,B|216:308|216:308|320:308,1,140,8|0,0:0|0:0,0:0:0:0:
348,180,281313,5,0,0:0:0:0:
416,232,281488,1,0,0:0:0:0:
500,228,281662,1,0,0:0:0:0:
352,184,281836,5,0,0:0:0:0:
420,236,282011,1,8,0:0:0:0:
504,232,282185,1,0,0:0:0:0:
468,120,282360,2,0,B|440:84|440:84|392:84,1,70,8|0,0:0|0:0,0:0:0:0:
320,172,282708,1,8,0:0:0:0:
320,172,282883,2,0,B|276:172|276:172|256:156,1,70,8|0,0:0|0:0,0:0:0:0:
216,40,283232,1,8,0:0:0:0:
216,40,283406,2,0,B|172:40|172:40|152:56,1,70,0|8,0:0|0:0,0:0:0:0:
80,144,283755,2,0,B|80:184|80:184|108:204,1,70
216,264,284104,5,0,0:0:0:0:
329,259,284278,1,0,0:0:0:0:
268,159,284453,1,0,0:0:0:0:
220,268,284627,5,0,0:0:0:0:
334,264,284801,1,8,0:0:0:0:
272,164,284976,1,0,0:0:0:0:
344,72,285150,2,0,B|384:72|384:72|412:88,1,70,8|0,0:0|0:0,0:0:0:0:
480,184,285499,1,8,0:0:0:0:
480,184,285674,2,0,B|460:228|460:228|416:228,1,70,8|0,0:0|0:0,0:0:0:0:
300,152,286022,1,8,0:0:0:0:
300,152,286197,2,0,B|264:152|264:152|236:184,1,70,0|8,0:0|0:0,0:0:0:0:
156,292,286546,2,0,B|121:291|121:291|96:260,1,70
92,140,286894,5,0,0:0:0:0:
208,164,287069,1,0,0:0:0:0:
292,80,287243,1,0,0:0:0:0:
96,144,287418,5,0,0:0:0:0:
212,168,287593,1,8,0:0:0:0:
296,84,287767,1,0,0:0:0:0:
344,184,287941,2,0,B|356:216|356:216|356:256,1,70,8|0,0:0|0:0,0:0:0:0:
272,328,288290,1,8,0:0:0:0:
148,304,288464,2,0,B|104:304|104:304|76:276,1,70,8|0,0:0|0:0,0:0:0:0:
132,148,288813,1,8,0:0:0:0:
256,172,288987,2,0,B|300:172|300:172|328:200,1,70,0|8,0:0|0:0,0:0:0:0:
436,264,289336,2,0,B|480:240|480:240|480:204,1,70
416,80,289685,5,0,0:0:0:0:
276,52,289860,1,0,0:0:0:0:
324,180,290034,1,0,0:0:0:0:
420,84,290208,1,0,0:0:0:0:
280,56,290383,1,8,0:0:0:0:
328,184,290557,1,0,0:0:0:0:
276,308,290732,5,8,0:0:0:0:
144,300,290906,1,0,0:0:0:0:
276,308,291081,1,8,0:0:0:0:
216,184,291255,5,8,0:0:0:0:
148,304,291429,1,0,0:0:0:0:
276,308,291604,1,8,0:0:0:0:
220,188,291778,1,0,0:0:0:0:
152,308,291951,1,8,0:0:0:0:
280,312,292126,5,0,0:0:0:0:
320,296,292214,1,0,0:0:0:0:
348,260,292301,2,0,B|348:224|348:224|348:216,1,35
280,144,292476,5,8,0:0:0:0:
280,104,292563,1,0,0:0:0:0:
300,68,292650,2,0,B|316:48|316:48|328:48,1,35
424,104,292825,5,8,0:0:0:0:
420,144,292912,1,0,0:0:0:0:
404,180,292999,2,0,B|388:200|388:200|376:200,1,35
288,244,293174,5,8,0:0:0:0:
248,244,293261,1,0,0:0:0:0:
216,272,293348,2,0,L|172:272,1,35
100,216,293523,5,8,0:0:0:0:
68,188,293610,1,0,0:0:0:0:
68,148,293697,2,0,L|68:108,1,35
164,72,293871,5,8,0:0:0:0:
200,96,293958,1,0,0:0:0:0:
244,96,294046,2,0,L|284:96,1,35,8|0,0:0|0:0,0:0:0:0:
364,152,294220,5,0,0:0:0:0:
404,152,294307,1,0,0:0:0:0:
440,124,294394,2,0,B|452:108|452:108|452:92,1,35,8|0,0:0|0:0,0:0:0:0:
372,28,294569,6,0,B|328:28|328:28|304:40,1,70,0|8,0:0|0:0,0:0:0:0:
236,120,294918,5,0,0:0:0:0:
216,152,295005,1,0,0:0:0:0:
192,184,295092,2,0,L|144:184,1,35
80,256,295267,5,8,0:0:0:0:
80,296,295354,1,0,0:0:0:0:
104,332,295441,2,0,B|120:352|120:352|144:352,1,35
224,304,295615,5,8,0:0:0:0:
252,272,295703,1,0,0:0:0:0:
292,272,295790,2,0,B|312:272|312:272|324:256,1,35
360,168,295964,5,8,0:0:0:0:
332,140,296051,1,0,0:0:0:0:
292,136,296139,2,0,L|256:136,1,35
168,180,296313,5,8,0:0:0:0:
128,180,296400,1,0,0:0:0:0:
96,152,296488,2,0,B|84:132|84:132|84:116,1,35
168,56,296662,5,8,0:0:0:0:
208,56,296749,1,0,0:0:0:0:
248,56,296836,2,0,B|268:56|268:56|296:80,1,35,8|0,0:0|0:0,0:0:0:0:
364,136,297011,5,0,0:0:0:0:
396,164,297098,1,0,0:0:0:0:
396,204,297185,2,0,L|396:240,1,35,8|0,0:0|0:0,0:0:0:0:
316,312,297360,6,0,B|268:312|268:312|240:292,1,70,0|8,0:0|0:0,0:0:0:0:
160,228,297708,5,0,0:0:0:0:
136,192,297796,1,0,0:0:0:0:
136,152,297883,2,0,B|136:124|136:124|148:116,1,35
252,72,298057,5,8,0:0:0:0:
276,108,298145,1,0,0:0:0:0:
276,148,298232,2,0,B|276:176|276:176|264:184,1,35
224,272,298406,5,8,0:0:0:0:
224,312,298493,1,0,0:0:0:0:
252,344,298581,2,0,B|268:360|268:360|292:360,1,35
376,312,298755,5,8,0:0:0:0:
416,312,298842,1,0,0:0:0:0:
448,284,298929,2,0,B|464:264|464:264|464:248,1,35
416,164,299104,5,8,0:0:0:0:
384,140,299191,1,0,0:0:0:0:
384,100,299278,2,0,B|384:80|384:80|372:72,1,35
260,100,299453,5,8,0:0:0:0:
232,128,299540,1,0,0:0:0:0:
192,132,299627,2,0,L|152:132,1,35,8|8,0:0|0:0,0:0:0:0:
76,216,299801,5,0,0:0:0:0:
76,260,299889,1,0,0:0:0:0:
100,292,299976,2,0,B|112:304|112:304|136:304,1,35,8|8,0:0|0:0,0:0:0:0:
224,232,300150,5,8,0:0:0:0:
224,188,300238,1,0,0:0:0:0:
200,156,300325,2,0,B|188:144|188:144|164:144,1,35
64,100,300499,6,0,B|28:68|28:68|28:36|28:36|56:16|56:16|84:16,1,140,8|0,0:0|0:0,0:0:0:0:
120,36,300935,1,0,0:0:0:0:
160,48,301022,1,0,0:0:0:0:
204,52,301110,1,0,0:0:0:0:
244,52,301197,6,0,B|292:52|292:52|308:72|308:72|376:72,1,140,8|0,0:0|0:0,0:0:0:0:
416,84,301631,1,0,0:0:0:0:
444,124,301719,1,0,0:0:0:0:
412,160,301806,1,0,0:0:0:0:
380,192,301894,6,0,B|352:224|352:224|352:264|352:264|352:292|352:292|332:320,1,140,8|0,0:0|0:0,0:0:0:0:
292,340,302329,1,0,0:0:0:0:
252,316,302416,1,0,0:0:0:0:
252,268,302503,1,0,0:0:0:0:
288,232,302592,6,0,B|348:232|348:232|372:272|372:272|348:316,1,140,8|0,0:0|0:0,0:0:0:0:
308,324,303027,1,0,0:0:0:0:
256,324,303114,1,0,0:0:0:0:
204,324,303201,1,0,0:0:0:0:
168,288,303288,5,8,0:0:0:0:
100,208,303463,2,0,B|76:176|76:176|76:72,1,140,8|0,0:0|0:0,0:0:0:0:
184,12,303988,1,8,0:0:0:0:
272,100,304162,2,0,B|296:132|296:132|296:236,1,140,8|0,0:0|0:0,0:0:0:0:
100,208,304684,1,8,0:0:0:0:
272,100,304860,2,0,B|320:100|320:100|364:136|364:136|364:172,1,140,8|0,0:0|0:0,0:0:0:0:
232,316,305383,1,8,0:0:0:0:
232,316,305557,2,0,B|184:316|184:316|172:288|172:288|120:288|120:288|112:264,1,140,8|0,0:0|0:0,0:0:0:0:
119,186,306081,5,8,0:0:0:0:
143,119,306255,1,0,0:0:0:0:
222,108,306429,1,8,0:0:0:0:
260,188,306604,1,0,0:0:0:0:
344,224,306778,5,8,0:0:0:0:
408,148,306953,1,0,0:0:0:0:
352,60,307127,1,8,0:0:0:0:
246,39,307301,1,0,0:0:0:0:
189,170,307476,5,8,0:0:0:0:
317,288,307650,1,0,0:0:0:0:
287,110,307825,1,8,0:0:0:0:
190,269,307999,1,0,0:0:0:0:
413,225,308174,5,8,0:0:0:0:
222,108,308348,1,0,0:0:0:0:
262,338,308522,1,8,0:0:0:0:
348,129,308697,1,0,0:0:0:0:
192,52,308870,5,8,0:0:0:0:
156,96,308988,1,0,0:0:0:0:
168,152,309104,1,0,0:0:0:0:
152,200,309220,1,0,0:0:0:0:
200,220,309336,5,0,0:0:0:0:
208,268,309453,1,0,0:0:0:0:
256,260,309567,1,8,0:0:0:0:
296,284,309685,1,0,0:0:0:0:
324,252,309801,1,0,0:0:0:0:
360,240,309918,1,0,0:0:0:0:
356,204,310034,5,0,0:0:0:0:
380,180,310150,1,0,0:0:0:0:
364,152,310267,1,8,0:0:0:0:
368,124,310383,1,0,0:0:0:0:
348,104,310499,1,0,0:0:0:0:
344,76,310615,1,0,0:0:0:0:
316,72,310732,5,0,0:0:0:0:
300,48,310848,1,0,0:0:0:0:
260,60,310964,2,0,L|244:44,5,23.3333333333333
212,60,311313,2,0,L|180:68,5,23.3333333333333
144,80,311660,1,8,0:0:0:0:
284,88,312011,6,0,L|276:116,5,26.25
284,156,312447,1,0,0:0:0:0:
292,192,312534,1,0,0:0:0:0:
300,228,312621,1,0,0:0:0:0:
304,260,312708,1,0,0:0:0:0:
312,296,312825,2,0,L|292:352,1,46.6666666666667
392,216,313057,5,8,0:0:0:0:
424,188,313144,1,0,0:0:0:0:
428,144,313232,1,0,0:0:0:0:
428,104,313319,1,0,0:0:0:0:
396,72,313406,1,0,0:0:0:0:
368,48,313493,1,0,0:0:0:0:
328,48,313581,1,8,0:0:0:0:
288,48,313668,1,0,0:0:0:0:
264,76,313755,1,0,0:0:0:0:
264,116,313842,1,0,0:0:0:0:
240,140,313929,1,0,0:0:0:0:
212,160,314017,1,0,0:0:0:0:
184,180,314102,6,8,L|184:232,1,46.6666666666667,8|0,0:0|0:0,0:0:0:0:
252,272,314336,2,0,L|252:225,1,46.6666666666667,0|8,0:0|0:0,0:0:0:0:
332,200,314540,2,0,L|332:164,2,35
316,308,314801,5,0,0:0:0:0:
292,336,314889,1,0,0:0:0:0:
256,340,314976,1,0,0:0:0:0:
220,340,315063,1,0,0:0:0:0:
188,320,315150,2,0,L|188:280,3,35
212,240,315499,2,0,L|244:200,2,46.6666666666667
136,184,315848,5,8,0:0:0:0:
104,156,315935,1,0,0:0:0:0:
72,128,316022,1,0,0:0:0:0:
72,84,316110,1,0,0:0:0:0:
76,44,316197,1,0,0:0:0:0:
108,16,316284,1,0,0:0:0:0:
148,16,316371,1,8,0:0:0:0:
188,16,316458,1,0,0:0:0:0:
212,44,316546,1,0,0:0:0:0:
236,72,316633,1,0,0:0:0:0:
260,100,316720,1,0,0:0:0:0:
296,100,316807,1,0,0:0:0:0:
332,100,316894,6,8,B|364:100|364:100|388:116,1,46.6666666666667,8|0,0:0|0:0,0:0:0:0:
412,204,317127,2,8,B|384:224|384:224|360:224,1,46.6666666666667,0|8,0:0|0:0,0:0:0:0:
256,184,317331,2,0,L|244:148,2,35
188,280,317592,5,0,0:0:0:0:
216,300,317679,1,0,0:0:0:0:
252,304,317767,1,0,0:0:0:0:
276,280,317854,1,0,0:0:0:0:
304,244,317941,2,0,L|344:244,3,35
376,276,318290,2,0,L|432:332,2,46.6666666666667
380,160,318639,5,8,0:0:0:0:
380,120,318726,1,0,0:0:0:0:
380,80,318813,1,0,0:0:0:0:
408,48,318900,1,0,0:0:0:0:
452,48,318988,1,0,0:0:0:0:
484,76,319075,1,0,0:0:0:0:
484,116,319162,1,8,0:0:0:0:
484,156,319249,1,0,0:0:0:0:
464,188,319336,1,0,0:0:0:0:
444,220,319424,1,0,0:0:0:0:
424,248,319511,1,0,0:0:0:0:
388,248,319598,1,0,0:0:0:0:
352,248,319685,6,8,L|288:248,1,46.6666666666667,8|0,0:0|0:0,0:0:0:0:
224,148,319918,2,8,L|276:148,1,46.6666666666667,0|8,0:0|0:0,0:0:0:0:
168,248,320121,2,0,L|168:288,2,35
72,160,320383,5,0,0:0:0:0:
72,112,320470,1,0,0:0:0:0:
72,76,320557,1,0,0:0:0:0:
100,56,320644,1,0,0:0:0:0:
128,76,320732,2,0,L|164:76,3,35
204,104,321081,2,0,B|228:136|228:136|240:136,2,46.6666666666667
300,80,321429,5,8,0:0:0:0:
344,80,321517,1,0,0:0:0:0:
384,80,321604,1,0,0:0:0:0:
412,112,321691,1,0,0:0:0:0:
412,152,321778,1,0,0:0:0:0:
380,180,321865,1,0,0:0:0:0:
348,204,321953,1,8,0:0:0:0:
316,228,322040,1,0,0:0:0:0:
284,252,322127,1,0,0:0:0:0:
248,252,322214,1,0,0:0:0:0:
212,252,322301,1,0,0:0:0:0:
176,252,322389,1,0,0:0:0:0:
148,232,322474,2,8,B|120:208|120:208|120:188,3,46.6666666666667,8|0|0|8,0:0|0:0|0:0|0:0,0:0:0:0:
120,96,322999,5,0,0:0:0:0:
232,52,323174,6,0,B|272:52|272:52|296:76,1,70,8|0,0:0|0:0,0:0:0:0:
372,56,323522,2,0,B|400:80|400:80|400:116,1,70,8|0,0:0|0:0,0:0:0:0:
312,172,323871,2,0,B|312:212|312:212|344:232,1,70,8|0,0:0|0:0,0:0:0:0:
436,232,324220,2,0,B|468:248|468:248|468:288,1,70,8|0,0:0|0:0,0:0:0:0:
344,336,324569,2,0,B|304:336|304:336|272:312,1,70,8|0,0:0|0:0,0:0:0:0:
272,208,324918,2,0,B|232:208|232:208|196:236,1,70,8|0,0:0|0:0,0:0:0:0:
88,256,325267,2,0,B|64:228|64:228|64:188,1,70,8|0,0:0|0:0,0:0:0:0:
156,96,325615,6,0,B|156:56|156:56|124:44,2,70,8|0|8,0:0|0:0|0:0,0:0:0:0:
192,208,326139,1,0,0:0:0:0:
284,132,326313,2,0,B|312:104|312:104|344:104,1,70,8|0,0:0|0:0,0:0:0:0:
448,212,326662,5,8,0:0:0:0:
448,212,326836,1,0,0:0:0:0:
448,212,327011,2,0,B|448:260|448:260|416:280,1,70,8|0,0:0|0:0,0:0:0:0:
320,164,327360,2,0,B|320:120|320:120|360:100,1,70,8|0,0:0|0:0,0:0:0:0:
456,60,327708,2,0,B|416:32|416:32|376:32,1,70,8|0,0:0|0:0,0:0:0:0:
280,32,328057,2,0,B|240:32|240:32|216:72|216:72|156:72,1,140,8|8,0:0|0:0,0:0:0:0:
60,144,328581,5,0,0:0:0:0:
60,144,328755,2,0,L|60:220,1,70,8|0,0:0|0:0,0:0:0:0:
140,192,329104,2,0,L|176:256,1,70,8|0,0:0|0:0,0:0:0:0:
256,192,329453,5,8,0:0:0:0:
256,192,329626,1,0,0:0:0:0:
256,192,329801,2,0,L|328:200,1,70,8|0,0:0|0:0,0:0:0:0:
340,96,330150,2,0,L|408:148,1,70,8|0,0:0|0:0,0:0:0:0:
412,248,330499,2,0,L|344:196,1,70,8|0,0:0|0:0,0:0:0:0:
276,148,330848,2,0,L|196:168,1,70,8|0,0:0|0:0,0:0:0:0:
88,108,331197,5,8,0:0:0:0:
88,108,331371,1,0,0:0:0:0:
88,108,331546,2,0,L|160:72,1,70,8|0,0:0|0:0,0:0:0:0:
192,144,331894,2,0,L|276:152,1,70,8|0,0:0|0:0,0:0:0:0:
288,68,332243,5,8,0:0:0:0:
288,68,332418,1,0,0:0:0:0:
288,68,332592,2,0,L|360:96,1,70,8|0,0:0|0:0,0:0:0:0:
440,96,332941,2,0,L|428:184,1,70,8|0,0:0|0:0,0:0:0:0:
452,248,333290,2,0,L|372:272,1,70,8|0,0:0|0:0,0:0:0:0:
328,340,333639,2,0,L|264:288,1,70,8|0,0:0|0:0,0:0:0:0:
216,152,333988,5,8,0:0:0:0:
216,152,334162,1,0,0:0:0:0:
216,152,334336,2,0,L|280:192,1,70,8|0,0:0|0:0,0:0:0:0:
144,120,334685,2,0,L|146:44,1,70,8|0,0:0|0:0,0:0:0:0:
152,196,335033,2,8,L|76:193,1,70,8|0,0:0|0:0,0:0:0:0:
236,192,335383,2,0,L|196:268,1,70,8|0,0:0|0:0,0:0:0:0:
272,100,335732,2,0,L|320:184,1,70,8|0,0:0|0:0,0:0:0:0:
352,72,336081,2,0,L|312:8,1,70,8|0,0:0|0:0,0:0:0:0:
412,140,336428,2,0,L|432:64,1,70,8|0,0:0|0:0,0:0:0:0:
376,208,336778,6,8,L|472:216,1,70
296,188,337130,2,8,L|320:272,1,70
212,140,337493,2,8,L|288:108,1,70
120,172,337872,2,8,L|136:88,1,70
200,232,338272,2,8,L|116:252,1,70
276,216,338672,2,8,L|264:296,1,70
324,156,339072,1,8,0:0:0:0:
284,92,339516,1,8,0:0:0:0:
226,198,339960,6,0,B|280:207|327:215|340:250|340:250|302:292|302:292|358:282|358:282|390:333|390:333|398:270|398:270|457:255|457:255|402:232|402:232|403:174|403:174|367:218|367:218|323:201|285:168|243:88,1,787.5
329,66,345294,6,8,L|345:30,3,23.3333333333333
369,62,347038,6,8,L|392:30,4,23.3333333333333
