osu file format v14

[General]
AudioFilename: Kono Oto Tomare - Tone OP.mp3
AudioLeadIn: 0
PreviewTime: 56093
Countdown: 0
SampleSet: None
StackLeniency: 0.7
Mode: 3
LetterboxInBreaks: 0
SpecialStyle: 0
WidescreenStoryboard: 1

[Editor]
DistanceSpacing: 0.3
BeatDivisor: 8
GridSize: 32
TimelineZoom: 2.999999

[Metadata]
Title:3rd Pack
TitleUnicode:3rd Pack
Artist:Anime Spring 2019
ArtistUnicode:Anime Spring 2019
Creator:LostCool
Version:Shouta Aoi - Tone
Source:
Tags:
BeatmapID:2162885
BeatmapSetID:1034513

[Difficulty]
HPDrainRate:6.9
CircleSize:7
OverallDifficulty:5.5
ApproachRate:5
SliderMultiplier:1.4
SliderTickRate:1

[Events]
//Background and Video events
0,0,"kono oto tone.jpg",0,0
//Break Periods
//Storyboard Layer 0 (Background)
//Storyboard Layer 1 (Fail)
//Storyboard Layer 2 (Pass)
//Storyboard Layer 3 (Foreground)
//Storyboard Layer 4 (Overlay)
//Storyboard Sound Samples

[TimingPoints]
74,461.538461538462,4,2,0,0,1,0

[Colours]
Combo1 : 255,128,64
Combo2 : 255,0,128
Combo3 : 255,0,0

[HitObjects]
109,192,766,5,0,0:0:0:0:
329,192,766,1,0,0:0:0:0:
182,192,997,1,0,0:0:0:0:
402,192,997,1,0,0:0:0:0:
256,192,1227,1,0,0:0:0:0:
475,192,1227,1,0,0:0:0:0:
36,192,1343,1,0,0:0:0:0:
182,192,1458,1,0,0:0:0:0:
402,192,1458,1,0,0:0:0:0:
329,192,1689,128,0,1920:0:0:0:0:
109,192,1689,128,0,1920:0:0:0:0:
182,192,1766,128,0,1920:0:0:0:0:
402,192,1766,128,0,1920:0:0:0:0:
256,192,1843,128,0,1920:0:0:0:0:
475,192,1843,128,0,1920:0:0:0:0:
36,192,1920,128,0,2843:0:0:0:0:
109,192,2150,128,0,2381:0:0:0:0:
182,192,2150,128,0,2381:0:0:0:0:
256,192,2381,1,0,0:0:0:0:
329,192,2381,1,0,0:0:0:0:
256,192,2612,128,0,2843:0:0:0:0:
329,192,2612,128,0,2843:0:0:0:0:
402,192,2612,1,0,0:0:0:0:
475,192,2612,1,0,0:0:0:0:
475,192,2843,128,0,3189:0:0:0:0:
402,192,2843,128,0,3189:0:0:0:0:
182,192,2843,1,0,0:0:0:0:
109,192,2843,1,0,0:0:0:0:
182,192,3074,128,0,3420:0:0:0:0:
109,192,3074,128,0,3420:0:0:0:0:
329,192,3304,128,0,3650:0:0:0:0:
402,192,3304,128,0,3650:0:0:0:0:
475,192,3304,1,0,0:0:0:0:
109,192,3535,128,0,3766:0:0:0:0:
36,192,3535,128,0,3766:0:0:0:0:
182,192,3535,1,0,0:0:0:0:
329,192,3766,1,0,0:0:0:0:
402,192,3766,128,0,3997:0:0:0:0:
475,192,3766,128,0,3997:0:0:0:0:
256,192,3766,128,0,4689:0:0:0:0:
182,192,3997,128,0,4227:0:0:0:0:
329,192,3997,128,0,4227:0:0:0:0:
109,192,4227,128,0,4458:0:0:0:0:
36,192,4227,128,0,4458:0:0:0:0:
182,192,4458,128,0,4689:0:0:0:0:
329,192,4458,128,0,4689:0:0:0:0:
475,192,4689,128,0,5381:0:0:0:0:
36,192,4689,128,0,5035:0:0:0:0:
109,192,4689,128,0,5035:0:0:0:0:
402,192,4689,1,0,0:0:0:0:
329,192,4920,128,0,5266:0:0:0:0:
402,192,4920,128,0,5266:0:0:0:0:
256,192,5035,128,0,5150:0:0:0:0:
182,192,5035,128,0,5150:0:0:0:0:
109,192,5150,1,0,0:0:0:0:
36,192,5150,1,0,0:0:0:0:
329,192,5381,1,0,0:0:0:0:
402,192,5381,1,0,0:0:0:0:
182,192,5497,128,0,5727:0:0:0:0:
256,192,5497,128,0,5727:0:0:0:0:
109,192,5612,1,0,0:0:0:0:
36,192,5612,1,0,0:0:0:0:
402,192,5612,128,0,5843:0:0:0:0:
475,192,5612,128,0,5843:0:0:0:0:
329,192,5727,1,0,0:0:0:0:
256,192,5843,1,0,0:0:0:0:
182,192,5843,1,0,0:0:0:0:
475,192,5958,1,0,0:0:0:0:
402,192,5958,1,0,0:0:0:0:
182,192,6074,1,0,0:0:0:0:
109,192,6074,1,0,0:0:0:0:
329,192,6189,128,0,6420:0:0:0:0:
256,192,6189,128,0,6420:0:0:0:0:
402,192,6304,1,0,0:0:0:0:
475,192,6304,1,0,0:0:0:0:
109,192,6304,128,0,6535:0:0:0:0:
36,192,6304,128,0,6535:0:0:0:0:
182,192,6420,1,0,0:0:0:0:
256,192,6535,1,0,0:0:0:0:
329,192,6535,1,0,0:0:0:0:
36,192,6650,1,0,0:0:0:0:
109,192,6650,1,0,0:0:0:0:
329,192,6766,1,0,0:0:0:0:
402,192,6766,1,0,0:0:0:0:
182,192,6881,1,0,0:0:0:0:
109,192,6881,1,0,0:0:0:0:
402,192,6997,1,0,0:0:0:0:
475,192,6997,1,0,0:0:0:0:
256,192,7112,1,0,0:0:0:0:
182,192,7112,1,0,0:0:0:0:
329,192,7227,1,0,0:0:0:0:
402,192,7227,1,0,0:0:0:0:
475,192,7227,1,0,0:0:0:0:
182,192,7343,1,0,0:0:0:0:
109,192,7343,1,0,0:0:0:0:
36,192,7343,1,0,0:0:0:0:
329,192,7458,1,0,0:0:0:0:
402,192,7458,1,0,0:0:0:0:
475,192,7458,1,0,0:0:0:0:
329,192,7804,1,0,0:0:0:0:
256,192,7804,1,0,0:0:0:0:
182,192,7804,1,0,0:0:0:0:
182,192,8150,1,0,0:0:0:0:
109,192,8150,1,0,0:0:0:0:
36,192,8150,1,0,0:0:0:0:
109,192,8612,1,0,0:0:0:0:
182,192,8670,1,0,0:0:0:0:
329,192,8727,1,0,0:0:0:0:
402,192,8785,1,0,0:0:0:0:
36,192,8843,1,0,0:0:0:0:
475,192,8843,1,0,0:0:0:0:
109,192,8900,1,0,0:0:0:0:
182,192,8958,1,0,0:0:0:0:
329,192,8958,1,0,0:0:0:0:
402,192,9016,1,0,0:0:0:0:
475,192,9074,1,0,0:0:0:0:
36,192,9074,1,0,0:0:0:0:
329,192,9189,1,0,0:0:0:0:
182,192,9189,1,0,0:0:0:0:
36,192,9304,1,0,0:0:0:0:
475,192,9304,1,0,0:0:0:0:
256,192,9304,128,0,9708:0:0:0:0:
109,192,9420,1,0,0:0:0:0:
402,192,9420,1,0,0:0:0:0:
475,192,9535,1,0,0:0:0:0:
36,192,9535,1,0,0:0:0:0:
109,192,9650,1,0,0:0:0:0:
402,192,9650,1,0,0:0:0:0:
36,192,9766,1,0,0:0:0:0:
475,192,9766,1,0,0:0:0:0:
256,192,9766,128,0,10170:0:0:0:0:
109,192,9881,1,0,0:0:0:0:
402,192,9881,1,0,0:0:0:0:
475,192,9997,1,0,0:0:0:0:
36,192,9997,1,0,0:0:0:0:
109,192,10112,1,0,0:0:0:0:
402,192,10112,1,0,0:0:0:0:
36,192,10227,1,0,0:0:0:0:
475,192,10227,1,0,0:0:0:0:
256,192,10227,128,0,10631:0:0:0:0:
109,192,10343,1,0,0:0:0:0:
402,192,10343,1,0,0:0:0:0:
329,192,10458,1,0,0:0:0:0:
182,192,10458,1,0,0:0:0:0:
109,192,10574,1,0,0:0:0:0:
402,192,10574,1,0,0:0:0:0:
329,192,10689,1,0,0:0:0:0:
182,192,10689,1,0,0:0:0:0:
256,192,10689,128,0,11093:0:0:0:0:
109,192,10804,1,0,0:0:0:0:
402,192,10804,1,0,0:0:0:0:
329,192,10920,1,0,0:0:0:0:
182,192,10920,1,0,0:0:0:0:
109,192,11035,1,0,0:0:0:0:
402,192,11035,1,0,0:0:0:0:
475,192,11150,1,0,0:0:0:0:
36,192,11150,1,0,0:0:0:0:
256,192,11150,128,0,11554:0:0:0:0:
109,192,11266,1,0,0:0:0:0:
402,192,11266,1,0,0:0:0:0:
182,192,11381,1,0,0:0:0:0:
329,192,11381,1,0,0:0:0:0:
109,192,11497,1,0,0:0:0:0:
402,192,11497,1,0,0:0:0:0:
36,192,11612,1,0,0:0:0:0:
475,192,11612,1,0,0:0:0:0:
256,192,11612,128,0,12016:0:0:0:0:
109,192,11727,1,0,0:0:0:0:
402,192,11727,1,0,0:0:0:0:
182,192,11843,1,0,0:0:0:0:
329,192,11843,1,0,0:0:0:0:
402,192,11958,1,0,0:0:0:0:
109,192,11958,1,0,0:0:0:0:
475,192,12074,1,0,0:0:0:0:
36,192,12074,1,0,0:0:0:0:
256,192,12074,128,0,12477:0:0:0:0:
402,192,12189,1,0,0:0:0:0:
109,192,12189,1,0,0:0:0:0:
329,192,12304,1,0,0:0:0:0:
182,192,12304,1,0,0:0:0:0:
109,192,12420,1,0,0:0:0:0:
402,192,12420,1,0,0:0:0:0:
36,192,12535,1,0,0:0:0:0:
475,192,12535,1,0,0:0:0:0:
256,192,12535,128,0,12939:0:0:0:0:
109,192,12650,1,0,0:0:0:0:
402,192,12650,1,0,0:0:0:0:
182,192,12766,1,0,0:0:0:0:
329,192,12766,1,0,0:0:0:0:
402,192,12881,1,0,0:0:0:0:
109,192,12881,1,0,0:0:0:0:
475,192,12997,1,0,0:0:0:0:
36,192,12997,1,0,0:0:0:0:
182,192,12997,128,0,13227:0:0:0:0:
329,192,12997,128,0,13227:0:0:0:0:
256,192,12997,128,0,13227:0:0:0:0:
109,192,13227,1,0,0:0:0:0:
402,192,13227,1,0,0:0:0:0:
36,192,13227,128,0,13458:0:0:0:0:
475,192,13227,128,0,13458:0:0:0:0:
182,192,13343,1,0,0:0:0:0:
329,192,13343,1,0,0:0:0:0:
329,192,13458,1,0,0:0:0:0:
182,192,13458,1,0,0:0:0:0:
256,192,13458,128,0,13689:0:0:0:0:
475,192,13689,1,0,0:0:0:0:
36,192,13689,1,0,0:0:0:0:
109,192,13689,1,0,0:0:0:0:
402,192,13689,1,0,0:0:0:0:
182,192,13689,128,0,13920:0:0:0:0:
329,192,13689,128,0,13920:0:0:0:0:
256,192,13804,1,0,0:0:0:0:
475,192,13920,1,0,0:0:0:0:
36,192,13920,1,0,0:0:0:0:
256,192,13920,128,0,14150:0:0:0:0:
109,192,13920,1,0,0:0:0:0:
402,192,13920,1,0,0:0:0:0:
182,192,14150,1,0,0:0:0:0:
329,192,14150,1,0,0:0:0:0:
402,192,14150,1,0,0:0:0:0:
109,192,14150,1,0,0:0:0:0:
36,192,14150,128,0,14381:0:0:0:0:
475,192,14150,128,0,14381:0:0:0:0:
182,192,14266,1,0,0:0:0:0:
329,192,14266,1,0,0:0:0:0:
182,192,14381,1,0,0:0:0:0:
329,192,14381,1,0,0:0:0:0:
256,192,14381,128,0,14612:0:0:0:0:
109,192,14381,1,0,0:0:0:0:
402,192,14381,1,0,0:0:0:0:
475,192,14612,1,0,0:0:0:0:
36,192,14612,1,0,0:0:0:0:
109,192,14612,1,0,0:0:0:0:
402,192,14612,1,0,0:0:0:0:
182,192,14612,128,0,14843:0:0:0:0:
329,192,14612,128,0,14843:0:0:0:0:
256,192,14843,1,0,0:0:0:0:
475,192,14843,1,0,0:0:0:0:
36,192,14843,1,0,0:0:0:0:
109,192,14843,128,0,15131:0:0:0:0:
402,192,14843,128,0,15131:0:0:0:0:
256,192,15189,1,0,0:0:0:0:
402,192,15189,1,0,0:0:0:0:
475,192,15189,1,0,0:0:0:0:
109,192,15189,1,0,0:0:0:0:
36,192,15189,1,0,0:0:0:0:
256,192,15535,1,0,0:0:0:0:
329,192,15535,1,0,0:0:0:0:
182,192,15535,1,0,0:0:0:0:
402,192,15535,1,0,0:0:0:0:
109,192,15535,1,0,0:0:0:0:
109,192,15766,128,0,16112:0:0:0:0:
402,192,15766,128,0,16112:0:0:0:0:
329,192,15997,1,0,0:0:0:0:
182,192,16054,1,0,0:0:0:0:
329,192,16112,1,0,0:0:0:0:
182,192,16170,1,0,0:0:0:0:
109,192,16227,1,0,0:0:0:0:
36,192,16227,1,0,0:0:0:0:
475,192,16227,1,0,0:0:0:0:
402,192,16285,1,0,0:0:0:0:
329,192,16343,1,0,0:0:0:0:
256,192,16400,1,0,0:0:0:0:
36,192,16458,1,0,0:0:0:0:
109,192,16516,1,0,0:0:0:0:
182,192,16574,1,0,0:0:0:0:
256,192,16631,1,0,0:0:0:0:
329,192,16689,1,0,0:0:0:0:
402,192,16689,1,0,0:0:0:0:
36,192,16689,128,0,17266:0:0:0:0:
475,192,16689,128,0,17035:0:0:0:0:
182,192,16920,1,0,0:0:0:0:
329,192,16920,128,0,17035:0:0:0:0:
256,192,17035,1,0,0:0:0:0:
329,192,17150,1,0,0:0:0:0:
475,192,17150,1,0,0:0:0:0:
182,192,17150,128,0,17266:0:0:0:0:
402,192,17150,128,0,17497:0:0:0:0:
182,192,17381,1,0,0:0:0:0:
36,192,17381,1,0,0:0:0:0:
109,192,17381,128,0,17843:0:0:0:0:
329,192,17381,128,0,17497:0:0:0:0:
329,192,17612,1,0,0:0:0:0:
475,192,17612,1,0,0:0:0:0:
402,192,17612,128,0,17843:0:0:0:0:
36,192,17843,1,0,0:0:0:0:
475,192,17843,128,0,17958:0:0:0:0:
182,192,17958,1,0,0:0:0:0:
329,192,18074,1,0,0:0:0:0:
475,192,18074,1,0,0:0:0:0:
402,192,18074,128,0,18420:0:0:0:0:
36,192,18074,128,0,18189:0:0:0:0:
256,192,18304,1,0,0:0:0:0:
182,192,18304,1,0,0:0:0:0:
109,192,18304,1,0,0:0:0:0:
36,192,18304,1,0,0:0:0:0:
182,192,18535,1,0,0:0:0:0:
109,192,18535,1,0,0:0:0:0:
475,192,18535,128,0,19112:0:0:0:0:
36,192,18535,128,0,18881:0:0:0:0:
402,192,18535,1,0,0:0:0:0:
329,192,18535,128,0,18650:0:0:0:0:
329,192,18766,1,0,0:0:0:0:
182,192,18766,128,0,18881:0:0:0:0:
256,192,18881,1,0,0:0:0:0:
182,192,18997,1,0,0:0:0:0:
36,192,18997,1,0,0:0:0:0:
329,192,18997,128,0,19112:0:0:0:0:
109,192,18997,128,0,19343:0:0:0:0:
329,192,19227,1,0,0:0:0:0:
475,192,19227,1,0,0:0:0:0:
402,192,19227,128,0,19689:0:0:0:0:
182,192,19227,128,0,19343:0:0:0:0:
256,192,19343,1,0,0:0:0:0:
182,192,19458,1,0,0:0:0:0:
36,192,19458,1,0,0:0:0:0:
109,192,19458,128,0,19689:0:0:0:0:
475,192,19689,1,0,0:0:0:0:
36,192,19689,128,0,19804:0:0:0:0:
329,192,19804,1,0,0:0:0:0:
182,192,19920,1,0,0:0:0:0:
36,192,19920,1,0,0:0:0:0:
109,192,19920,128,0,20266:0:0:0:0:
475,192,19920,128,0,20035:0:0:0:0:
256,192,20150,1,0,0:0:0:0:
329,192,20150,1,0,0:0:0:0:
402,192,20150,1,0,0:0:0:0:
475,192,20150,1,0,0:0:0:0:
36,192,20381,128,0,20958:0:0:0:0:
475,192,20381,128,0,20727:0:0:0:0:
329,192,20381,1,0,0:0:0:0:
402,192,20381,1,0,0:0:0:0:
182,192,20381,128,0,20497:0:0:0:0:
109,192,20381,1,0,0:0:0:0:
329,192,20612,128,0,20727:0:0:0:0:
182,192,20612,1,0,0:0:0:0:
256,192,20727,1,0,0:0:0:0:
182,192,20843,128,0,20958:0:0:0:0:
402,192,20843,128,0,21189:0:0:0:0:
329,192,20843,1,0,0:0:0:0:
475,192,20843,1,0,0:0:0:0:
109,192,21074,128,0,21535:0:0:0:0:
329,192,21074,128,0,21189:0:0:0:0:
182,192,21074,1,0,0:0:0:0:
36,192,21074,1,0,0:0:0:0:
475,192,21074,1,0,0:0:0:0:
256,192,21189,128,0,21304:0:0:0:0:
402,192,21304,128,0,21535:0:0:0:0:
475,192,21304,1,0,0:0:0:0:
329,192,21304,1,0,0:0:0:0:
36,192,21304,1,0,0:0:0:0:
182,192,21304,128,0,21420:0:0:0:0:
475,192,21535,128,0,21650:0:0:0:0:
36,192,21535,1,0,0:0:0:0:
182,192,21650,1,0,0:0:0:0:
402,192,21766,128,0,22112:0:0:0:0:
36,192,21766,128,0,21881:0:0:0:0:
329,192,21766,1,0,0:0:0:0:
475,192,21766,1,0,0:0:0:0:
109,192,21997,1,0,0:0:0:0:
36,192,21997,1,0,0:0:0:0:
256,192,21997,1,0,0:0:0:0:
182,192,21997,1,0,0:0:0:0:
329,192,22227,1,0,0:0:0:0:
256,192,22227,1,0,0:0:0:0:
182,192,22227,1,0,0:0:0:0:
109,192,22227,1,0,0:0:0:0:
475,192,22227,128,0,22574:0:0:0:0:
329,192,22458,128,0,22574:0:0:0:0:
256,192,22458,128,0,22574:0:0:0:0:
182,192,22458,128,0,22574:0:0:0:0:
109,192,22458,128,0,22574:0:0:0:0:
182,192,22689,1,0,0:0:0:0:
256,192,22689,1,0,0:0:0:0:
329,192,22689,1,0,0:0:0:0:
402,192,22689,1,0,0:0:0:0:
36,192,22689,128,0,23035:0:0:0:0:
182,192,22920,128,0,23035:0:0:0:0:
256,192,22920,128,0,23035:0:0:0:0:
329,192,22920,128,0,23035:0:0:0:0:
402,192,22920,128,0,23035:0:0:0:0:
329,192,23150,1,0,0:0:0:0:
402,192,23150,1,0,0:0:0:0:
475,192,23150,1,0,0:0:0:0:
256,192,23150,128,0,23381:0:0:0:0:
182,192,23150,128,0,23266:0:0:0:0:
36,192,23150,128,0,23266:0:0:0:0:
182,192,23381,1,0,0:0:0:0:
36,192,23381,1,0,0:0:0:0:
109,192,23381,128,0,23612:0:0:0:0:
329,192,23381,128,0,23497:0:0:0:0:
475,192,23381,128,0,23497:0:0:0:0:
256,192,23497,1,0,0:0:0:0:
329,192,23612,1,0,0:0:0:0:
475,192,23612,1,0,0:0:0:0:
402,192,23612,128,0,23843:0:0:0:0:
182,192,23612,128,0,23727:0:0:0:0:
36,192,23612,128,0,23727:0:0:0:0:
182,192,23843,1,0,0:0:0:0:
109,192,23843,1,0,0:0:0:0:
36,192,23843,1,0,0:0:0:0:
256,192,23843,128,0,24074:0:0:0:0:
329,192,23843,128,0,23958:0:0:0:0:
475,192,23843,128,0,23958:0:0:0:0:
402,192,24074,128,0,24881:0:0:0:0:
36,192,24074,1,0,0:0:0:0:
109,192,24074,128,0,24420:0:0:0:0:
475,192,24074,1,0,0:0:0:0:
36,192,24304,1,0,0:0:0:0:
182,192,24304,1,0,0:0:0:0:
329,192,24420,1,0,0:0:0:0:
475,192,24420,1,0,0:0:0:0:
256,192,24535,1,0,0:0:0:0:
109,192,24535,1,0,0:0:0:0:
182,192,24766,1,0,0:0:0:0:
329,192,24766,1,0,0:0:0:0:
329,192,24997,1,0,0:0:0:0:
475,192,24997,1,0,0:0:0:0:
109,192,24997,128,0,25343:0:0:0:0:
36,192,24997,1,0,0:0:0:0:
475,192,25227,1,0,0:0:0:0:
36,192,25227,1,0,0:0:0:0:
256,192,25343,1,0,0:0:0:0:
402,192,25343,1,0,0:0:0:0:
256,192,25458,128,0,25920:0:0:0:0:
329,192,25458,1,0,0:0:0:0:
182,192,25458,1,0,0:0:0:0:
36,192,25458,1,0,0:0:0:0:
475,192,25458,1,0,0:0:0:0:
182,192,25689,1,0,0:0:0:0:
36,192,25689,1,0,0:0:0:0:
329,192,25689,1,0,0:0:0:0:
475,192,25689,1,0,0:0:0:0:
475,192,25920,128,0,26266:0:0:0:0:
36,192,25920,128,0,26266:0:0:0:0:
402,192,25920,1,0,0:0:0:0:
329,192,25920,1,0,0:0:0:0:
182,192,25920,1,0,0:0:0:0:
109,192,25920,1,0,0:0:0:0:
109,192,26266,1,0,0:0:0:0:
182,192,26266,1,0,0:0:0:0:
256,192,26266,1,0,0:0:0:0:
402,192,26266,1,0,0:0:0:0:
329,192,26266,1,0,0:0:0:0:
182,192,26612,1,0,0:0:0:0:
256,192,26612,1,0,0:0:0:0:
329,192,26612,1,0,0:0:0:0:
329,192,27074,1,0,0:0:0:0:
182,192,27131,1,0,0:0:0:0:
329,192,27189,1,0,0:0:0:0:
182,192,27247,1,0,0:0:0:0:
329,192,27304,1,0,0:0:0:0:
182,192,27535,1,0,0:0:0:0:
256,192,27766,1,0,0:0:0:0:
109,192,27766,128,0,27939:0:0:0:0:
109,192,27997,1,0,0:0:0:0:
256,192,28227,1,0,0:0:0:0:
109,192,28227,128,0,28400:0:0:0:0:
109,192,28458,1,0,0:0:0:0:
256,192,28689,1,0,0:0:0:0:
109,192,28689,128,0,28862:0:0:0:0:
109,192,28920,1,0,0:0:0:0:
256,192,29150,1,0,0:0:0:0:
109,192,29150,128,0,29324:0:0:0:0:
109,192,29381,1,0,0:0:0:0:
256,192,29612,1,0,0:0:0:0:
109,192,29612,1,0,0:0:0:0:
402,192,29612,128,0,29785:0:0:0:0:
402,192,29843,1,0,0:0:0:0:
109,192,29958,1,0,0:0:0:0:
256,192,30074,1,0,0:0:0:0:
402,192,30074,128,0,30247:0:0:0:0:
402,192,30304,1,0,0:0:0:0:
109,192,30304,1,0,0:0:0:0:
256,192,30535,1,0,0:0:0:0:
402,192,30535,128,0,30708:0:0:0:0:
109,192,30650,1,0,0:0:0:0:
402,192,30766,1,0,0:0:0:0:
402,192,30997,128,0,31170:0:0:0:0:
256,192,30997,1,0,0:0:0:0:
402,192,31227,1,0,0:0:0:0:
109,192,31227,128,0,31400:0:0:0:0:
109,192,31458,1,0,0:0:0:0:
256,192,31458,128,0,33304:0:0:0:0:
402,192,31689,1,0,0:0:0:0:
109,192,31920,1,0,0:0:0:0:
402,192,32150,1,0,0:0:0:0:
109,192,32381,1,0,0:0:0:0:
402,192,32612,1,0,0:0:0:0:
329,192,32612,128,0,32843:0:0:0:0:
109,192,32843,1,0,0:0:0:0:
182,192,32843,128,0,33074:0:0:0:0:
402,192,33074,1,0,0:0:0:0:
329,192,33074,128,0,33304:0:0:0:0:
109,192,33304,1,0,0:0:0:0:
475,192,33304,128,0,33593:0:0:0:0:
402,192,33650,128,0,33939:0:0:0:0:
109,192,33766,1,0,0:0:0:0:
329,192,33997,128,0,34285:0:0:0:0:
109,192,34227,1,0,0:0:0:0:
256,192,34343,128,0,34689:0:0:0:0:
402,192,34689,128,0,34804:0:0:0:0:
109,192,34689,128,0,34804:0:0:0:0:
182,192,34920,128,0,35035:0:0:0:0:
329,192,34920,128,0,35035:0:0:0:0:
402,192,35150,128,0,36997:0:0:0:0:
256,192,35150,1,0,0:0:0:0:
109,192,35150,1,0,0:0:0:0:
36,192,35150,1,0,0:0:0:0:
36,192,35381,1,0,0:0:0:0:
182,192,35497,1,0,0:0:0:0:
256,192,35612,1,0,0:0:0:0:
109,192,35843,1,0,0:0:0:0:
256,192,36074,1,0,0:0:0:0:
36,192,36304,1,0,0:0:0:0:
182,192,36420,1,0,0:0:0:0:
256,192,36535,1,0,0:0:0:0:
109,192,36766,1,0,0:0:0:0:
109,192,36997,128,0,38843:0:0:0:0:
256,192,36997,1,0,0:0:0:0:
475,192,37227,1,0,0:0:0:0:
329,192,37343,1,0,0:0:0:0:
256,192,37458,1,0,0:0:0:0:
402,192,37689,1,0,0:0:0:0:
256,192,37920,1,0,0:0:0:0:
475,192,38150,1,0,0:0:0:0:
329,192,38266,1,0,0:0:0:0:
256,192,38381,1,0,0:0:0:0:
402,192,38612,1,0,0:0:0:0:
475,192,38843,128,0,42535:0:0:0:0:
256,192,38843,1,0,0:0:0:0:
36,192,38843,128,0,39074:0:0:0:0:
109,192,39074,128,0,39304:0:0:0:0:
256,192,39304,1,0,0:0:0:0:
182,192,39304,128,0,39535:0:0:0:0:
109,192,39535,128,0,39997:0:0:0:0:
256,192,39766,1,0,0:0:0:0:
402,192,39997,128,0,40458:0:0:0:0:
256,192,40227,1,0,0:0:0:0:
109,192,40458,128,0,41612:0:0:0:0:
36,192,40689,128,0,42535:0:0:0:0:
182,192,40689,1,0,0:0:0:0:
329,192,40689,1,0,0:0:0:0:
402,192,40689,128,0,41612:0:0:0:0:
329,192,41150,1,0,0:0:0:0:
182,192,41150,1,0,0:0:0:0:
256,192,41381,1,0,0:0:0:0:
329,192,41612,1,0,0:0:0:0:
182,192,41612,1,0,0:0:0:0:
256,192,41612,128,0,42074:0:0:0:0:
109,192,41727,1,0,0:0:0:0:
402,192,41727,1,0,0:0:0:0:
329,192,41843,1,0,0:0:0:0:
182,192,41843,1,0,0:0:0:0:
109,192,41958,1,0,0:0:0:0:
402,192,41958,1,0,0:0:0:0:
182,192,42074,1,0,0:0:0:0:
329,192,42074,1,0,0:0:0:0:
256,192,42304,1,0,0:0:0:0:
182,192,42535,1,0,0:0:0:0:
329,192,42535,1,0,0:0:0:0:
256,192,42535,1,0,0:0:0:0:
402,192,42766,128,0,43227:0:0:0:0:
329,192,42766,128,0,43227:0:0:0:0:
475,192,42766,128,0,43227:0:0:0:0:
256,192,42881,1,0,0:0:0:0:
182,192,42881,1,0,0:0:0:0:
109,192,42881,1,0,0:0:0:0:
36,192,42881,128,0,43227:0:0:0:0:
182,192,43227,1,0,0:0:0:0:
109,192,43227,1,0,0:0:0:0:
256,192,43227,128,0,43458:0:0:0:0:
329,192,43458,1,0,0:0:0:0:
402,192,43458,1,0,0:0:0:0:
475,192,43458,1,0,0:0:0:0:
182,192,43689,128,0,44150:0:0:0:0:
109,192,43689,128,0,44150:0:0:0:0:
36,192,43689,128,0,44150:0:0:0:0:
256,192,43804,1,0,0:0:0:0:
329,192,43804,1,0,0:0:0:0:
402,192,43804,1,0,0:0:0:0:
475,192,43804,128,0,44150:0:0:0:0:
256,192,44150,1,0,0:0:0:0:
329,192,44150,1,0,0:0:0:0:
402,192,44150,1,0,0:0:0:0:
182,192,44381,1,0,0:0:0:0:
109,192,44381,1,0,0:0:0:0:
36,192,44381,1,0,0:0:0:0:
256,192,44381,128,0,44612:0:0:0:0:
329,192,44612,1,0,0:0:0:0:
402,192,44612,1,0,0:0:0:0:
475,192,44612,1,0,0:0:0:0:
182,192,44727,1,0,0:0:0:0:
109,192,44727,1,0,0:0:0:0:
36,192,44727,1,0,0:0:0:0:
256,192,44727,128,0,45074:0:0:0:0:
402,192,44843,1,0,0:0:0:0:
329,192,44843,1,0,0:0:0:0:
475,192,44843,1,0,0:0:0:0:
182,192,45074,1,0,0:0:0:0:
36,192,45074,1,0,0:0:0:0:
109,192,45074,128,0,45304:0:0:0:0:
329,192,45304,1,0,0:0:0:0:
182,192,45304,1,0,0:0:0:0:
256,192,45304,128,0,45535:0:0:0:0:
329,192,45535,1,0,0:0:0:0:
475,192,45535,1,0,0:0:0:0:
402,192,45535,128,0,45766:0:0:0:0:
329,192,45766,1,0,0:0:0:0:
182,192,45766,1,0,0:0:0:0:
256,192,45766,128,0,45997:0:0:0:0:
182,192,45997,1,0,0:0:0:0:
36,192,45997,1,0,0:0:0:0:
109,192,45997,128,0,46227:0:0:0:0:
329,192,46227,1,0,0:0:0:0:
182,192,46227,1,0,0:0:0:0:
256,192,46227,1,0,0:0:0:0:
475,192,46227,128,0,46458:0:0:0:0:
182,192,46458,128,0,46920:0:0:0:0:
109,192,46458,128,0,46920:0:0:0:0:
36,192,46458,128,0,46920:0:0:0:0:
256,192,46574,1,0,0:0:0:0:
329,192,46574,1,0,0:0:0:0:
402,192,46574,1,0,0:0:0:0:
475,192,46574,128,0,46920:0:0:0:0:
256,192,46920,1,0,0:0:0:0:
329,192,46920,1,0,0:0:0:0:
402,192,46920,1,0,0:0:0:0:
329,192,47150,1,0,0:0:0:0:
256,192,47150,1,0,0:0:0:0:
182,192,47150,1,0,0:0:0:0:
36,192,47150,128,0,47843:0:0:0:0:
329,192,47381,128,0,47843:0:0:0:0:
402,192,47381,128,0,47843:0:0:0:0:
475,192,47381,128,0,47843:0:0:0:0:
256,192,47497,1,0,0:0:0:0:
182,192,47497,1,0,0:0:0:0:
109,192,47497,1,0,0:0:0:0:
256,192,47843,1,0,0:0:0:0:
182,192,47843,1,0,0:0:0:0:
109,192,47843,1,0,0:0:0:0:
329,192,48074,1,0,0:0:0:0:
402,192,48074,1,0,0:0:0:0:
475,192,48074,1,0,0:0:0:0:
256,192,48074,1,0,0:0:0:0:
182,192,48189,128,0,48420:0:0:0:0:
109,192,48189,128,0,48420:0:0:0:0:
36,192,48189,128,0,48420:0:0:0:0:
329,192,48420,1,0,0:0:0:0:
402,192,48420,1,0,0:0:0:0:
475,192,48420,1,0,0:0:0:0:
256,192,48420,1,0,0:0:0:0:
182,192,48535,128,0,48766:0:0:0:0:
109,192,48535,128,0,48766:0:0:0:0:
36,192,48535,128,0,48766:0:0:0:0:
329,192,48766,1,0,0:0:0:0:
402,192,48766,1,0,0:0:0:0:
475,192,48766,1,0,0:0:0:0:
256,192,48766,1,0,0:0:0:0:
182,192,48997,1,0,0:0:0:0:
256,192,48997,1,0,0:0:0:0:
329,192,48997,1,0,0:0:0:0:
402,192,48997,1,0,0:0:0:0:
182,192,49227,1,0,0:0:0:0:
36,192,49227,1,0,0:0:0:0:
109,192,49227,1,0,0:0:0:0:
256,192,49227,1,0,0:0:0:0:
182,192,49458,1,0,0:0:0:0:
256,192,49458,1,0,0:0:0:0:
329,192,49458,1,0,0:0:0:0:
109,192,49458,1,0,0:0:0:0:
182,192,49689,1,0,0:0:0:0:
256,192,49689,1,0,0:0:0:0:
329,192,49689,1,0,0:0:0:0:
402,192,49689,1,0,0:0:0:0:
256,192,49920,1,0,0:0:0:0:
329,192,49920,1,0,0:0:0:0:
36,192,49920,128,0,51535:0:0:0:0:
182,192,49920,128,0,51535:0:0:0:0:
402,192,49920,128,0,50266:0:0:0:0:
475,192,49920,128,0,50266:0:0:0:0:
109,192,49920,1,0,0:0:0:0:
256,192,50150,1,0,0:0:0:0:
329,192,50266,128,0,50381:0:0:0:0:
402,192,50381,1,0,0:0:0:0:
475,192,50381,1,0,0:0:0:0:
256,192,50381,128,0,50612:0:0:0:0:
329,192,50612,1,0,0:0:0:0:
256,192,50843,1,0,0:0:0:0:
329,192,50843,1,0,0:0:0:0:
402,192,50843,128,0,51189:0:0:0:0:
475,192,50843,128,0,51189:0:0:0:0:
256,192,51074,1,0,0:0:0:0:
329,192,51189,128,0,51304:0:0:0:0:
402,192,51304,1,0,0:0:0:0:
475,192,51304,1,0,0:0:0:0:
256,192,51304,128,0,51535:0:0:0:0:
329,192,51535,1,0,0:0:0:0:
256,192,51766,1,0,0:0:0:0:
182,192,51766,1,0,0:0:0:0:
329,192,51766,128,0,53381:0:0:0:0:
475,192,51766,128,0,53381:0:0:0:0:
109,192,51766,128,0,52112:0:0:0:0:
36,192,51766,128,0,52112:0:0:0:0:
256,192,51997,1,0,0:0:0:0:
182,192,52112,128,0,52227:0:0:0:0:
109,192,52227,1,0,0:0:0:0:
36,192,52227,1,0,0:0:0:0:
256,192,52227,128,0,52458:0:0:0:0:
182,192,52458,1,0,0:0:0:0:
256,192,52689,1,0,0:0:0:0:
182,192,52689,1,0,0:0:0:0:
109,192,52689,128,0,53035:0:0:0:0:
36,192,52689,128,0,53035:0:0:0:0:
256,192,52920,1,0,0:0:0:0:
182,192,53035,128,0,53150:0:0:0:0:
109,192,53150,1,0,0:0:0:0:
36,192,53150,1,0,0:0:0:0:
256,192,53150,128,0,53381:0:0:0:0:
182,192,53381,1,0,0:0:0:0:
109,192,53612,1,0,0:0:0:0:
36,192,53612,1,0,0:0:0:0:
256,192,53612,1,0,0:0:0:0:
329,192,53612,1,0,0:0:0:0:
475,192,53612,1,0,0:0:0:0:
109,192,54535,1,0,0:0:0:0:
256,192,54574,1,0,0:0:0:0:
329,192,54612,1,0,0:0:0:0:
475,192,55458,1,0,0:0:0:0:
36,192,55458,1,0,0:0:0:0:
109,192,55458,128,0,55804:0:0:0:0:
402,192,55458,128,0,55804:0:0:0:0:
256,192,55804,1,0,0:0:0:0:
329,192,55804,128,0,56150:0:0:0:0:
182,192,55804,128,0,56150:0:0:0:0:
109,192,56150,1,0,0:0:0:0:
36,192,56150,1,0,0:0:0:0:
402,192,56150,1,0,0:0:0:0:
475,192,56150,1,0,0:0:0:0:
256,192,56150,128,0,56381:0:0:0:0:
182,192,56381,1,0,0:0:0:0:
329,192,56381,1,0,0:0:0:0:
109,192,56381,128,0,56612:0:0:0:0:
402,192,56381,128,0,56612:0:0:0:0:
329,192,56612,1,0,0:0:0:0:
182,192,56670,1,0,0:0:0:0:
329,192,56727,1,0,0:0:0:0:
182,192,56785,1,0,0:0:0:0:
109,192,56843,1,0,0:0:0:0:
402,192,56843,1,0,0:0:0:0:
36,192,56843,128,0,57189:0:0:0:0:
475,192,56843,128,0,57189:0:0:0:0:
329,192,57074,128,0,57189:0:0:0:0:
182,192,57074,128,0,57189:0:0:0:0:
36,192,57304,128,0,57650:0:0:0:0:
329,192,57304,1,0,0:0:0:0:
182,192,57304,1,0,0:0:0:0:
475,192,57304,1,0,0:0:0:0:
402,192,57420,1,0,0:0:0:0:
329,192,57535,1,0,0:0:0:0:
475,192,57535,1,0,0:0:0:0:
256,192,57650,1,0,0:0:0:0:
402,192,57650,1,0,0:0:0:0:
329,192,57766,1,0,0:0:0:0:
182,192,57766,1,0,0:0:0:0:
36,192,57766,128,0,58112:0:0:0:0:
402,192,57881,1,0,0:0:0:0:
256,192,57997,1,0,0:0:0:0:
402,192,58112,1,0,0:0:0:0:
329,192,58227,1,0,0:0:0:0:
182,192,58227,1,0,0:0:0:0:
475,192,58227,128,0,58574:0:0:0:0:
36,192,58227,1,0,0:0:0:0:
109,192,58343,1,0,0:0:0:0:
182,192,58458,1,0,0:0:0:0:
36,192,58458,1,0,0:0:0:0:
256,192,58574,1,0,0:0:0:0:
109,192,58574,1,0,0:0:0:0:
475,192,58689,128,0,59035:0:0:0:0:
182,192,58689,1,0,0:0:0:0:
329,192,58689,1,0,0:0:0:0:
109,192,58804,1,0,0:0:0:0:
256,192,58920,1,0,0:0:0:0:
109,192,59035,1,0,0:0:0:0:
36,192,59150,128,0,60074:0:0:0:0:
475,192,59150,128,0,59612:0:0:0:0:
182,192,59150,1,0,0:0:0:0:
329,192,59150,1,0,0:0:0:0:
402,192,59266,1,0,0:0:0:0:
329,192,59381,1,0,0:0:0:0:
182,192,59381,1,0,0:0:0:0:
109,192,59497,1,0,0:0:0:0:
402,192,59612,128,0,59727:0:0:0:0:
256,192,59612,1,0,0:0:0:0:
182,192,59612,1,0,0:0:0:0:
329,192,59727,128,0,59843:0:0:0:0:
256,192,59843,128,0,59958:0:0:0:0:
109,192,59843,1,0,0:0:0:0:
475,192,59843,1,0,0:0:0:0:
182,192,59958,128,0,60074:0:0:0:0:
109,192,60074,128,0,60189:0:0:0:0:
256,192,60074,1,0,0:0:0:0:
402,192,60074,1,0,0:0:0:0:
182,192,60189,128,0,60304:0:0:0:0:
256,192,60304,128,0,60420:0:0:0:0:
402,192,60304,1,0,0:0:0:0:
475,192,60304,1,0,0:0:0:0:
329,192,60420,128,0,60535:0:0:0:0:
402,192,60535,128,0,60650:0:0:0:0:
256,192,60535,1,0,0:0:0:0:
36,192,60535,1,0,0:0:0:0:
329,192,60650,128,0,60766:0:0:0:0:
256,192,60766,128,0,60881:0:0:0:0:
109,192,60766,1,0,0:0:0:0:
475,192,60766,1,0,0:0:0:0:
182,192,60881,128,0,60997:0:0:0:0:
109,192,60997,128,0,61458:0:0:0:0:
36,192,60997,1,0,0:0:0:0:
329,192,60997,1,0,0:0:0:0:
475,192,61112,1,0,0:0:0:0:
36,192,61227,1,0,0:0:0:0:
256,192,61227,1,0,0:0:0:0:
475,192,61343,1,0,0:0:0:0:
329,192,61343,1,0,0:0:0:0:
256,192,61458,128,0,61920:0:0:0:0:
36,192,61458,128,0,61574:0:0:0:0:
402,192,61458,1,0,0:0:0:0:
475,192,61574,128,0,61689:0:0:0:0:
329,192,61574,1,0,0:0:0:0:
36,192,61689,128,0,61804:0:0:0:0:
182,192,61689,1,0,0:0:0:0:
475,192,61804,128,0,61920:0:0:0:0:
329,192,61804,1,0,0:0:0:0:
402,192,61920,128,0,62381:0:0:0:0:
36,192,61920,1,0,0:0:0:0:
182,192,61920,1,0,0:0:0:0:
475,192,62035,1,0,0:0:0:0:
329,192,62035,1,0,0:0:0:0:
36,192,62150,1,0,0:0:0:0:
182,192,62150,1,0,0:0:0:0:
475,192,62266,1,0,0:0:0:0:
256,192,62266,1,0,0:0:0:0:
109,192,62381,128,0,62843:0:0:0:0:
36,192,62381,128,0,62497:0:0:0:0:
329,192,62381,1,0,0:0:0:0:
475,192,62497,128,0,62612:0:0:0:0:
256,192,62497,1,0,0:0:0:0:
36,192,62612,128,0,62727:0:0:0:0:
182,192,62612,1,0,0:0:0:0:
475,192,62727,128,0,62843:0:0:0:0:
256,192,62727,1,0,0:0:0:0:
402,192,62843,128,0,63189:0:0:0:0:
36,192,62843,1,0,0:0:0:0:
256,192,62843,1,0,0:0:0:0:
109,192,63189,128,0,63535:0:0:0:0:
256,192,63189,1,0,0:0:0:0:
475,192,63189,1,0,0:0:0:0:
402,192,63535,128,0,63997:0:0:0:0:
256,192,63535,1,0,0:0:0:0:
36,192,63535,1,0,0:0:0:0:
182,192,63997,1,0,0:0:0:0:
36,192,63997,1,0,0:0:0:0:
256,192,64054,1,0,0:0:0:0:
329,192,64112,1,0,0:0:0:0:
402,192,64170,1,0,0:0:0:0:
329,192,64227,1,0,0:0:0:0:
256,192,64285,1,0,0:0:0:0:
182,192,64343,1,0,0:0:0:0:
109,192,64400,1,0,0:0:0:0:
256,192,64458,1,0,0:0:0:0:
329,192,64516,1,0,0:0:0:0:
402,192,64574,1,0,0:0:0:0:
475,192,64631,1,0,0:0:0:0:
182,192,64689,128,0,65035:0:0:0:0:
36,192,64689,1,0,0:0:0:0:
109,192,64689,1,0,0:0:0:0:
329,192,64689,128,0,64804:0:0:0:0:
402,192,64804,1,0,0:0:0:0:
36,192,64920,128,0,65727:0:0:0:0:
475,192,64920,1,0,0:0:0:0:
109,192,65035,128,0,65612:0:0:0:0:
402,192,65035,1,0,0:0:0:0:
182,192,65150,128,0,65381:0:0:0:0:
256,192,65150,1,0,0:0:0:0:
329,192,65150,128,0,65266:0:0:0:0:
256,192,65381,128,0,65497:0:0:0:0:
329,192,65381,1,0,0:0:0:0:
475,192,65612,1,0,0:0:0:0:
402,192,65612,1,0,0:0:0:0:
329,192,65612,128,0,65958:0:0:0:0:
182,192,65612,128,0,65727:0:0:0:0:
109,192,65727,1,0,0:0:0:0:
475,192,65843,128,0,66650:0:0:0:0:
36,192,65843,1,0,0:0:0:0:
402,192,65958,128,0,66535:0:0:0:0:
109,192,65958,1,0,0:0:0:0:
329,192,66074,128,0,66304:0:0:0:0:
182,192,66074,128,0,66189:0:0:0:0:
256,192,66074,1,0,0:0:0:0:
182,192,66304,1,0,0:0:0:0:
256,192,66304,128,0,66420:0:0:0:0:
182,192,66535,128,0,66881:0:0:0:0:
329,192,66535,128,0,66650:0:0:0:0:
109,192,66535,128,0,66766:0:0:0:0:
36,192,66535,128,0,66650:0:0:0:0:
256,192,66535,1,0,0:0:0:0:
402,192,66650,1,0,0:0:0:0:
36,192,66766,128,0,67574:0:0:0:0:
475,192,66766,1,0,0:0:0:0:
109,192,66881,128,0,67458:0:0:0:0:
402,192,66881,1,0,0:0:0:0:
182,192,66997,128,0,67227:0:0:0:0:
256,192,66997,1,0,0:0:0:0:
329,192,66997,128,0,67112:0:0:0:0:
256,192,67227,128,0,67343:0:0:0:0:
329,192,67227,1,0,0:0:0:0:
402,192,67227,1,0,0:0:0:0:
329,192,67458,128,0,67804:0:0:0:0:
182,192,67458,128,0,67574:0:0:0:0:
402,192,67458,128,0,67689:0:0:0:0:
475,192,67458,128,0,67574:0:0:0:0:
109,192,67574,1,0,0:0:0:0:
475,192,67689,128,0,68381:0:0:0:0:
36,192,67689,1,0,0:0:0:0:
402,192,67804,128,0,68266:0:0:0:0:
109,192,67804,1,0,0:0:0:0:
329,192,67920,128,0,68150:0:0:0:0:
182,192,67920,128,0,68035:0:0:0:0:
256,192,67920,1,0,0:0:0:0:
182,192,68150,1,0,0:0:0:0:
256,192,68150,128,0,68843:0:0:0:0:
109,192,68150,1,0,0:0:0:0:
329,192,68266,128,0,68727:0:0:0:0:
402,192,68381,128,0,68612:0:0:0:0:
109,192,68381,1,0,0:0:0:0:
36,192,68381,1,0,0:0:0:0:
475,192,68612,1,0,0:0:0:0:
402,192,68727,1,0,0:0:0:0:
329,192,68843,1,0,0:0:0:0:
475,192,68843,1,0,0:0:0:0:
182,192,68843,128,0,69074:0:0:0:0:
109,192,68843,128,0,69189:0:0:0:0:
36,192,68843,1,0,0:0:0:0:
256,192,69074,128,0,69766:0:0:0:0:
329,192,69074,1,0,0:0:0:0:
402,192,69074,1,0,0:0:0:0:
182,192,69189,128,0,69650:0:0:0:0:
109,192,69304,128,0,69535:0:0:0:0:
36,192,69304,1,0,0:0:0:0:
402,192,69304,1,0,0:0:0:0:
475,192,69304,1,0,0:0:0:0:
36,192,69535,1,0,0:0:0:0:
109,192,69650,1,0,0:0:0:0:
182,192,69766,1,0,0:0:0:0:
36,192,69766,1,0,0:0:0:0:
329,192,69766,128,0,69997:0:0:0:0:
402,192,69766,128,0,70112:0:0:0:0:
475,192,69766,1,0,0:0:0:0:
256,192,69997,128,0,70920:0:0:0:0:
182,192,70112,128,0,70574:0:0:0:0:
329,192,70112,128,0,70574:0:0:0:0:
109,192,70227,128,0,70574:0:0:0:0:
475,192,70227,1,0,0:0:0:0:
402,192,70227,128,0,70574:0:0:0:0:
36,192,70227,1,0,0:0:0:0:
36,192,70574,1,0,0:0:0:0:
475,192,70574,1,0,0:0:0:0:
109,192,70804,1,0,0:0:0:0:
402,192,70804,1,0,0:0:0:0:
329,192,70920,1,0,0:0:0:0:
182,192,70920,1,0,0:0:0:0:
256,192,71035,1,0,0:0:0:0:
256,192,71150,128,0,71554:0:0:0:0:
182,192,71150,1,0,0:0:0:0:
329,192,71150,1,0,0:0:0:0:
109,192,71266,1,0,0:0:0:0:
402,192,71266,1,0,0:0:0:0:
36,192,71381,1,0,0:0:0:0:
475,192,71381,1,0,0:0:0:0:
402,192,71497,1,0,0:0:0:0:
109,192,71497,1,0,0:0:0:0:
329,192,71612,1,0,0:0:0:0:
182,192,71612,1,0,0:0:0:0:
256,192,71612,128,0,72074:0:0:0:0:
109,192,71727,1,0,0:0:0:0:
402,192,71727,1,0,0:0:0:0:
36,192,71843,1,0,0:0:0:0:
475,192,71843,1,0,0:0:0:0:
109,192,71958,1,0,0:0:0:0:
402,192,71958,1,0,0:0:0:0:
329,192,72074,1,0,0:0:0:0:
182,192,72074,128,0,72189:0:0:0:0:
109,192,72189,128,0,72304:0:0:0:0:
36,192,72304,128,0,72420:0:0:0:0:
475,192,72304,128,0,72420:0:0:0:0:
109,192,72420,128,0,72535:0:0:0:0:
402,192,72420,128,0,72535:0:0:0:0:
329,192,72535,128,0,72650:0:0:0:0:
256,192,72535,1,0,0:0:0:0:
182,192,72535,128,0,72650:0:0:0:0:
402,192,72650,128,0,72766:0:0:0:0:
109,192,72650,128,0,72766:0:0:0:0:
475,192,72766,128,0,73112:0:0:0:0:
36,192,72766,128,0,72881:0:0:0:0:
402,192,72881,128,0,73227:0:0:0:0:
109,192,72881,128,0,72997:0:0:0:0:
329,192,72997,128,0,73343:0:0:0:0:
182,192,72997,128,0,73112:0:0:0:0:
109,192,73112,128,0,73227:0:0:0:0:
36,192,73227,128,0,73804:0:0:0:0:
475,192,73227,128,0,73343:0:0:0:0:
109,192,73343,128,0,73689:0:0:0:0:
402,192,73343,128,0,73458:0:0:0:0:
182,192,73458,128,0,73574:0:0:0:0:
329,192,73458,128,0,73574:0:0:0:0:
256,192,73574,128,0,73689:0:0:0:0:
329,192,73689,128,0,73804:0:0:0:0:
182,192,73689,128,0,73804:0:0:0:0:
109,192,73804,128,0,73920:0:0:0:0:
402,192,73804,128,0,73920:0:0:0:0:
36,192,73920,128,0,74035:0:0:0:0:
475,192,73920,128,0,74035:0:0:0:0:
109,192,74035,128,0,74150:0:0:0:0:
402,192,74035,128,0,74150:0:0:0:0:
182,192,74150,128,0,74727:0:0:0:0:
329,192,74150,128,0,74266:0:0:0:0:
109,192,74266,128,0,74612:0:0:0:0:
402,192,74266,128,0,74381:0:0:0:0:
36,192,74381,128,0,74497:0:0:0:0:
475,192,74381,128,0,74497:0:0:0:0:
402,192,74497,128,0,74612:0:0:0:0:
329,192,74612,128,0,74958:0:0:0:0:
36,192,74612,128,0,74727:0:0:0:0:
402,192,74727,128,0,75304:0:0:0:0:
109,192,74727,128,0,74843:0:0:0:0:
475,192,74843,128,0,75189:0:0:0:0:
182,192,74843,128,0,74958:0:0:0:0:
256,192,74958,128,0,75074:0:0:0:0:
329,192,75074,128,0,75189:0:0:0:0:
109,192,75074,128,0,75535:0:0:0:0:
256,192,75189,128,0,75304:0:0:0:0:
36,192,75189,128,0,75650:0:0:0:0:
182,192,75304,128,0,75420:0:0:0:0:
475,192,75304,128,0,75420:0:0:0:0:
402,192,75420,128,0,75535:0:0:0:0:
329,192,75535,128,0,75650:0:0:0:0:
182,192,75535,128,0,75650:0:0:0:0:
109,192,75650,128,0,75766:0:0:0:0:
402,192,75650,128,0,75766:0:0:0:0:
256,192,75766,1,0,0:0:0:0:
36,192,75766,128,0,76112:0:0:0:0:
475,192,75766,128,0,76112:0:0:0:0:
109,192,75881,128,0,75997:0:0:0:0:
402,192,75881,128,0,75997:0:0:0:0:
182,192,75997,128,0,76343:0:0:0:0:
329,192,75997,128,0,76343:0:0:0:0:
109,192,76112,128,0,76227:0:0:0:0:
402,192,76112,128,0,76227:0:0:0:0:
256,192,76227,1,0,0:0:0:0:
36,192,76227,128,0,76574:0:0:0:0:
475,192,76227,128,0,76574:0:0:0:0:
109,192,76343,128,0,76458:0:0:0:0:
402,192,76343,128,0,76458:0:0:0:0:
182,192,76458,128,0,76804:0:0:0:0:
329,192,76458,128,0,76804:0:0:0:0:
109,192,76574,128,0,76689:0:0:0:0:
402,192,76574,128,0,76689:0:0:0:0:
256,192,76689,1,0,0:0:0:0:
36,192,76689,128,0,77035:0:0:0:0:
475,192,76689,128,0,77035:0:0:0:0:
109,192,76804,128,0,76920:0:0:0:0:
402,192,76804,128,0,76920:0:0:0:0:
182,192,76920,128,0,77266:0:0:0:0:
329,192,76920,128,0,77266:0:0:0:0:
109,192,77035,128,0,77150:0:0:0:0:
402,192,77035,128,0,77150:0:0:0:0:
256,192,77150,1,0,0:0:0:0:
36,192,77150,128,0,77612:0:0:0:0:
475,192,77150,128,0,77612:0:0:0:0:
109,192,77266,128,0,77612:0:0:0:0:
402,192,77266,128,0,77612:0:0:0:0:
182,192,77381,128,0,77612:0:0:0:0:
329,192,77381,128,0,77612:0:0:0:0:
256,192,77497,1,0,0:0:0:0:
256,192,77612,128,0,77900:0:0:0:0:
256,192,77958,128,0,78247:0:0:0:0:
256,192,78304,128,0,78997:0:0:0:0:
36,192,78535,1,0,0:0:0:0:
109,192,78593,1,0,0:0:0:0:
182,192,78650,1,0,0:0:0:0:
475,192,78708,1,0,0:0:0:0:
402,192,78766,1,0,0:0:0:0:
329,192,78824,1,0,0:0:0:0:
182,192,78881,1,0,0:0:0:0:
109,192,78939,1,0,0:0:0:0:
36,192,78997,1,0,0:0:0:0:
475,192,78997,1,0,0:0:0:0:
402,192,79054,1,0,0:0:0:0:
329,192,79112,1,0,0:0:0:0:
36,192,79170,1,0,0:0:0:0:
109,192,79227,1,0,0:0:0:0:
182,192,79285,1,0,0:0:0:0:
329,192,79343,1,0,0:0:0:0:
402,192,79400,1,0,0:0:0:0:
475,192,79458,1,0,0:0:0:0:
36,192,79458,128,0,79804:0:0:0:0:
256,192,79458,1,0,0:0:0:0:
182,192,79458,128,0,79574:0:0:0:0:
109,192,79574,128,0,79689:0:0:0:0:
329,192,79689,1,0,0:0:0:0:
182,192,79689,128,0,79804:0:0:0:0:
475,192,79804,1,0,0:0:0:0:
109,192,79804,128,0,79920:0:0:0:0:
36,192,79920,128,0,80150:0:0:0:0:
329,192,79920,1,0,0:0:0:0:
256,192,79920,1,0,0:0:0:0:
182,192,79920,128,0,80035:0:0:0:0:
109,192,80035,128,0,80150:0:0:0:0:
329,192,80150,1,0,0:0:0:0:
475,192,80150,1,0,0:0:0:0:
182,192,80150,128,0,80266:0:0:0:0:
36,192,80266,128,0,80381:0:0:0:0:
256,192,80381,128,0,80727:0:0:0:0:
402,192,80381,1,0,0:0:0:0:
109,192,80381,1,0,0:0:0:0:
329,192,80381,128,0,80497:0:0:0:0:
182,192,80497,128,0,80612:0:0:0:0:
402,192,80612,128,0,80727:0:0:0:0:
109,192,80727,128,0,80843:0:0:0:0:
256,192,80843,128,0,81074:0:0:0:0:
475,192,80843,1,0,0:0:0:0:
36,192,80843,1,0,0:0:0:0:
182,192,80843,1,0,0:0:0:0:
329,192,80843,128,0,80958:0:0:0:0:
109,192,80958,128,0,81074:0:0:0:0:
402,192,81074,128,0,81189:0:0:0:0:
329,192,81074,1,0,0:0:0:0:
182,192,81189,128,0,81304:0:0:0:0:
475,192,81304,128,0,81650:0:0:0:0:
256,192,81304,1,0,0:0:0:0:
36,192,81304,1,0,0:0:0:0:
329,192,81304,128,0,81420:0:0:0:0:
402,192,81420,128,0,81535:0:0:0:0:
182,192,81535,1,0,0:0:0:0:
329,192,81535,128,0,81650:0:0:0:0:
36,192,81650,1,0,0:0:0:0:
402,192,81650,128,0,81766:0:0:0:0:
475,192,81766,128,0,81997:0:0:0:0:
182,192,81766,1,0,0:0:0:0:
256,192,81766,1,0,0:0:0:0:
329,192,81766,128,0,81881:0:0:0:0:
402,192,81881,128,0,81997:0:0:0:0:
182,192,81997,1,0,0:0:0:0:
36,192,81997,1,0,0:0:0:0:
329,192,81997,128,0,82112:0:0:0:0:
256,192,82112,128,0,82227:0:0:0:0:
109,192,82227,128,0,82574:0:0:0:0:
402,192,82227,128,0,82574:0:0:0:0:
329,192,82227,1,0,0:0:0:0:
475,192,82227,1,0,0:0:0:0:
182,192,82227,128,0,82343:0:0:0:0:
256,192,82343,128,0,82458:0:0:0:0:
182,192,82458,1,0,0:0:0:0:
36,192,82458,1,0,0:0:0:0:
329,192,82458,128,0,82574:0:0:0:0:
256,192,82574,1,0,0:0:0:0:
109,192,82689,128,0,82920:0:0:0:0:
402,192,82689,128,0,82920:0:0:0:0:
329,192,82689,1,0,0:0:0:0:
475,192,82689,1,0,0:0:0:0:
182,192,82689,128,0,82804:0:0:0:0:
256,192,82804,128,0,82920:0:0:0:0:
36,192,82920,1,0,0:0:0:0:
182,192,82920,1,0,0:0:0:0:
329,192,82920,128,0,83035:0:0:0:0:
256,192,83035,128,0,83150:0:0:0:0:
36,192,83150,128,0,83266:0:0:0:0:
475,192,83150,128,0,83266:0:0:0:0:
256,192,83266,128,0,83381:0:0:0:0:
36,192,83381,128,0,83497:0:0:0:0:
475,192,83381,128,0,83497:0:0:0:0:
256,192,83497,128,0,83612:0:0:0:0:
109,192,83612,128,0,83727:0:0:0:0:
182,192,83612,128,0,83727:0:0:0:0:
329,192,83612,128,0,83727:0:0:0:0:
402,192,83612,128,0,83727:0:0:0:0:
36,192,83612,1,0,0:0:0:0:
475,192,83612,1,0,0:0:0:0:
256,192,83727,128,0,83843:0:0:0:0:
402,192,83843,128,0,83958:0:0:0:0:
329,192,83843,128,0,83958:0:0:0:0:
182,192,83843,128,0,83958:0:0:0:0:
109,192,83843,128,0,83958:0:0:0:0:
256,192,83958,128,0,84074:0:0:0:0:
109,192,84074,128,0,84189:0:0:0:0:
36,192,84074,128,0,84189:0:0:0:0:
402,192,84074,128,0,84189:0:0:0:0:
475,192,84074,128,0,84189:0:0:0:0:
329,192,84074,1,0,0:0:0:0:
182,192,84074,1,0,0:0:0:0:
256,192,84189,128,0,84304:0:0:0:0:
475,192,84304,128,0,84420:0:0:0:0:
402,192,84304,128,0,84420:0:0:0:0:
109,192,84304,128,0,84420:0:0:0:0:
36,192,84304,128,0,84420:0:0:0:0:
256,192,84420,1,0,0:0:0:0:
182,192,84535,128,0,84650:0:0:0:0:
109,192,84535,128,0,84650:0:0:0:0:
36,192,84535,128,0,84650:0:0:0:0:
329,192,84535,128,0,84650:0:0:0:0:
402,192,84535,128,0,84650:0:0:0:0:
475,192,84535,128,0,84650:0:0:0:0:
182,192,84766,1,0,0:0:0:0:
109,192,84766,1,0,0:0:0:0:
36,192,84766,1,0,0:0:0:0:
329,192,84766,1,0,0:0:0:0:
475,192,84766,1,0,0:0:0:0:
402,192,84766,1,0,0:0:0:0:
109,192,84997,1,0,0:0:0:0:
36,192,84997,1,0,0:0:0:0:
182,192,84997,1,0,0:0:0:0:
329,192,84997,1,0,0:0:0:0:
475,192,84997,1,0,0:0:0:0:
402,192,84997,1,0,0:0:0:0:
256,192,84997,1,0,0:0:0:0:
256,192,85227,128,0,85343:0:0:0:0:
182,192,85343,1,0,0:0:0:0:
109,192,85343,1,0,0:0:0:0:
36,192,85343,1,0,0:0:0:0:
329,192,85343,1,0,0:0:0:0:
475,192,85343,1,0,0:0:0:0:
402,192,85343,1,0,0:0:0:0:
109,192,85689,1,0,0:0:0:0:
402,192,85920,1,0,0:0:0:0:
402,192,86150,1,0,0:0:0:0:
329,192,86208,1,0,0:0:0:0:
109,192,86266,1,0,0:0:0:0:
182,192,86324,1,0,0:0:0:0:
329,192,86381,1,0,0:0:0:0:
475,192,86381,1,0,0:0:0:0:
36,192,86439,1,0,0:0:0:0:
182,192,86497,1,0,0:0:0:0:
329,192,86554,1,0,0:0:0:0:
475,192,86612,1,0,0:0:0:0:
36,192,86670,1,0,0:0:0:0:
182,192,86727,1,0,0:0:0:0:
329,192,86785,1,0,0:0:0:0:
256,192,86843,1,0,0:0:0:0:
109,192,86843,1,0,0:0:0:0:
475,192,86843,128,0,87420:0:0:0:0:
36,192,86843,128,0,87189:0:0:0:0:
402,192,86958,1,0,0:0:0:0:
329,192,87074,1,0,0:0:0:0:
182,192,87074,128,0,87189:0:0:0:0:
256,192,87189,1,0,0:0:0:0:
182,192,87304,1,0,0:0:0:0:
36,192,87304,1,0,0:0:0:0:
329,192,87304,128,0,87420:0:0:0:0:
109,192,87304,128,0,87650:0:0:0:0:
256,192,87420,1,0,0:0:0:0:
329,192,87535,1,0,0:0:0:0:
475,192,87535,1,0,0:0:0:0:
402,192,87535,128,0,87997:0:0:0:0:
182,192,87535,128,0,87650:0:0:0:0:
256,192,87650,1,0,0:0:0:0:
182,192,87766,1,0,0:0:0:0:
36,192,87766,1,0,0:0:0:0:
109,192,87766,128,0,87997:0:0:0:0:
256,192,87881,1,0,0:0:0:0:
475,192,87997,1,0,0:0:0:0:
36,192,87997,128,0,88112:0:0:0:0:
329,192,88112,1,0,0:0:0:0:
36,192,88227,1,0,0:0:0:0:
109,192,88227,128,0,88574:0:0:0:0:
475,192,88227,128,0,88343:0:0:0:0:
256,192,88227,1,0,0:0:0:0:
182,192,88343,1,0,0:0:0:0:
402,192,88458,1,0,0:0:0:0:
329,192,88458,1,0,0:0:0:0:
475,192,88458,1,0,0:0:0:0:
256,192,88574,1,0,0:0:0:0:
329,192,88689,1,0,0:0:0:0:
402,192,88689,1,0,0:0:0:0:
36,192,88689,128,0,89266:0:0:0:0:
475,192,88689,128,0,89035:0:0:0:0:
109,192,88689,1,0,0:0:0:0:
182,192,88689,128,0,88804:0:0:0:0:
256,192,88804,1,0,0:0:0:0:
182,192,88920,1,0,0:0:0:0:
329,192,88920,128,0,89035:0:0:0:0:
256,192,89035,1,0,0:0:0:0:
329,192,89150,1,0,0:0:0:0:
475,192,89150,1,0,0:0:0:0:
182,192,89150,128,0,89266:0:0:0:0:
402,192,89150,128,0,89497:0:0:0:0:
256,192,89266,1,0,0:0:0:0:
182,192,89381,1,0,0:0:0:0:
36,192,89381,1,0,0:0:0:0:
109,192,89381,128,0,89843:0:0:0:0:
329,192,89381,128,0,89497:0:0:0:0:
256,192,89497,1,0,0:0:0:0:
329,192,89612,1,0,0:0:0:0:
475,192,89612,1,0,0:0:0:0:
402,192,89612,128,0,89843:0:0:0:0:
182,192,89727,1,0,0:0:0:0:
36,192,89843,1,0,0:0:0:0:
475,192,89843,128,0,89958:0:0:0:0:
182,192,89958,1,0,0:0:0:0:
329,192,90074,1,0,0:0:0:0:
475,192,90074,1,0,0:0:0:0:
402,192,90074,128,0,90420:0:0:0:0:
36,192,90074,128,0,90189:0:0:0:0:
256,192,90189,1,0,0:0:0:0:
182,192,90304,1,0,0:0:0:0:
109,192,90304,1,0,0:0:0:0:
36,192,90304,1,0,0:0:0:0:
256,192,90420,1,0,0:0:0:0:
475,192,90535,128,0,91112:0:0:0:0:
36,192,90535,128,0,90881:0:0:0:0:
182,192,90535,1,0,0:0:0:0:
109,192,90535,1,0,0:0:0:0:
329,192,90535,128,0,90650:0:0:0:0:
402,192,90535,1,0,0:0:0:0:
256,192,90650,1,0,0:0:0:0:
182,192,90766,128,0,90881:0:0:0:0:
329,192,90766,1,0,0:0:0:0:
256,192,90881,1,0,0:0:0:0:
329,192,90997,128,0,91112:0:0:0:0:
109,192,90997,128,0,91343:0:0:0:0:
182,192,90997,1,0,0:0:0:0:
36,192,90997,1,0,0:0:0:0:
256,192,91112,1,0,0:0:0:0:
402,192,91227,128,0,91689:0:0:0:0:
182,192,91227,128,0,91343:0:0:0:0:
329,192,91227,1,0,0:0:0:0:
475,192,91227,1,0,0:0:0:0:
36,192,91227,1,0,0:0:0:0:
256,192,91343,128,0,91458:0:0:0:0:
109,192,91458,128,0,91689:0:0:0:0:
36,192,91458,1,0,0:0:0:0:
182,192,91458,1,0,0:0:0:0:
475,192,91458,1,0,0:0:0:0:
329,192,91458,128,0,91574:0:0:0:0:
256,192,91574,1,0,0:0:0:0:
36,192,91689,128,0,91804:0:0:0:0:
475,192,91689,1,0,0:0:0:0:
329,192,91804,1,0,0:0:0:0:
109,192,91920,128,0,92266:0:0:0:0:
475,192,91920,128,0,92035:0:0:0:0:
182,192,91920,1,0,0:0:0:0:
36,192,91920,1,0,0:0:0:0:
256,192,92035,1,0,0:0:0:0:
402,192,92150,1,0,0:0:0:0:
475,192,92150,1,0,0:0:0:0:
329,192,92150,1,0,0:0:0:0:
182,192,92266,1,0,0:0:0:0:
256,192,92381,1,0,0:0:0:0:
329,192,92381,1,0,0:0:0:0:
402,192,92381,1,0,0:0:0:0:
36,192,92381,128,0,92727:0:0:0:0:
475,192,92381,1,0,0:0:0:0:
109,192,92381,1,0,0:0:0:0:
182,192,92612,128,0,92727:0:0:0:0:
256,192,92612,128,0,92727:0:0:0:0:
329,192,92612,128,0,92727:0:0:0:0:
475,192,92612,128,0,92727:0:0:0:0:
402,192,92727,1,0,0:0:0:0:
329,192,92843,1,0,0:0:0:0:
256,192,92843,1,0,0:0:0:0:
182,192,92843,1,0,0:0:0:0:
109,192,92843,1,0,0:0:0:0:
475,192,92843,128,0,93189:0:0:0:0:
36,192,92843,1,0,0:0:0:0:
329,192,93074,128,0,93189:0:0:0:0:
256,192,93074,128,0,93189:0:0:0:0:
182,192,93074,128,0,93189:0:0:0:0:
109,192,93074,128,0,93189:0:0:0:0:
36,192,93074,128,0,93189:0:0:0:0:
182,192,93304,1,0,0:0:0:0:
109,192,93304,1,0,0:0:0:0:
36,192,93304,1,0,0:0:0:0:
256,192,93304,128,0,93535:0:0:0:0:
329,192,93304,128,0,93420:0:0:0:0:
475,192,93304,128,0,93420:0:0:0:0:
329,192,93535,1,0,0:0:0:0:
475,192,93535,1,0,0:0:0:0:
402,192,93535,128,0,93766:0:0:0:0:
182,192,93535,128,0,93650:0:0:0:0:
36,192,93535,128,0,93650:0:0:0:0:
256,192,93650,1,0,0:0:0:0:
182,192,93766,1,0,0:0:0:0:
36,192,93766,1,0,0:0:0:0:
109,192,93766,128,0,93997:0:0:0:0:
329,192,93766,128,0,93881:0:0:0:0:
475,192,93766,128,0,93881:0:0:0:0:
329,192,93997,1,0,0:0:0:0:
402,192,93997,1,0,0:0:0:0:
475,192,93997,1,0,0:0:0:0:
182,192,93997,128,0,94112:0:0:0:0:
36,192,93997,128,0,94112:0:0:0:0:
109,192,94227,128,0,95035:0:0:0:0:
475,192,94227,1,0,0:0:0:0:
402,192,94227,128,0,94574:0:0:0:0:
36,192,94227,1,0,0:0:0:0:
256,192,94227,1,0,0:0:0:0:
182,192,94343,1,0,0:0:0:0:
475,192,94458,1,0,0:0:0:0:
329,192,94458,1,0,0:0:0:0:
182,192,94574,1,0,0:0:0:0:
36,192,94574,1,0,0:0:0:0:
256,192,94689,1,0,0:0:0:0:
402,192,94689,1,0,0:0:0:0:
329,192,94920,1,0,0:0:0:0:
182,192,94920,1,0,0:0:0:0:
182,192,95150,1,0,0:0:0:0:
36,192,95150,1,0,0:0:0:0:
402,192,95150,128,0,95497:0:0:0:0:
475,192,95150,1,0,0:0:0:0:
256,192,95266,1,0,0:0:0:0:
36,192,95381,1,0,0:0:0:0:
475,192,95381,1,0,0:0:0:0:
329,192,95497,1,0,0:0:0:0:
182,192,95497,1,0,0:0:0:0:
256,192,95612,128,0,96074:0:0:0:0:
182,192,95612,1,0,0:0:0:0:
329,192,95612,1,0,0:0:0:0:
329,192,95843,1,0,0:0:0:0:
475,192,95843,1,0,0:0:0:0:
182,192,95843,1,0,0:0:0:0:
36,192,95843,1,0,0:0:0:0:
36,192,96074,128,0,96420:0:0:0:0:
475,192,96074,128,0,96420:0:0:0:0:
109,192,96074,1,0,0:0:0:0:
182,192,96074,1,0,0:0:0:0:
329,192,96074,1,0,0:0:0:0:
402,192,96074,1,0,0:0:0:0:
182,192,96304,1,0,0:0:0:0:
329,192,96304,1,0,0:0:0:0:
402,192,96420,1,0,0:0:0:0:
256,192,96420,1,0,0:0:0:0:
109,192,96420,1,0,0:0:0:0:
329,192,96535,1,0,0:0:0:0:
182,192,96535,1,0,0:0:0:0:
329,192,96650,1,0,0:0:0:0:
182,192,96650,1,0,0:0:0:0:
182,192,96881,1,0,0:0:0:0:
329,192,96881,1,0,0:0:0:0:
182,192,97112,1,0,0:0:0:0:
329,192,97170,1,0,0:0:0:0:
182,192,97227,1,0,0:0:0:0:
329,192,97343,128,0,97920:0:0:0:0:
256,192,97920,1,0,0:0:0:0:
109,192,97920,1,0,0:0:0:0:
