osu file format v14

[General]
AudioFilename: Etude by Mewhan Hachigatsu no Cinderella Nine OP.mp3
AudioLeadIn: 0
PreviewTime: 44977
Countdown: 0
SampleSet: None
StackLeniency: 0.7
Mode: 3
LetterboxInBreaks: 0
SpecialStyle: 0
WidescreenStoryboard: 1

[Editor]
DistanceSpacing: 0.3
BeatDivisor: 4
GridSize: 32
TimelineZoom: 3.399999

[Metadata]
Title:3rd Pack
TitleUnicode:3rd Pack
Artist:Anime Spring 2019
ArtistUnicode:Anime Spring 2019
Creator:LostCool
Version:Mewhan - Etude
Source:
Tags:
BeatmapID:2162882
BeatmapSetID:1034513

[Difficulty]
HPDrainRate:7.5
CircleSize:7
OverallDifficulty:3
ApproachRate:5
SliderMultiplier:1.4
SliderTickRate:1

[Events]
//Background and Video events
0,0,"cd9.jpg",0,0
//Break Periods
//Storyboard Layer 0 (Background)
//Storyboard Layer 1 (Fail)
//Storyboard Layer 2 (Pass)
//Storyboard Layer 3 (Foreground)
//Storyboard Layer 4 (Overlay)
//Storyboard Sound Samples

[TimingPoints]
375,265.486725663717,4,2,0,0,1,0

[Colours]
Combo1 : 255,128,64
Combo2 : 255,0,128
Combo3 : 255,0,0

[HitObjects]
36,192,905,128,0,972:0:0:0:0:
329,192,905,128,0,972:0:0:0:0:
109,192,1171,128,0,1237:0:0:0:0:
402,192,1171,128,0,1237:0:0:0:0:
182,192,1436,128,0,1503:0:0:0:0:
475,192,1436,128,0,1503:0:0:0:0:
36,192,1702,128,0,1768:0:0:0:0:
329,192,1702,128,0,1768:0:0:0:0:
109,192,1967,128,0,2034:0:0:0:0:
402,192,1967,128,0,2034:0:0:0:0:
182,192,2233,128,0,2299:0:0:0:0:
475,192,2233,128,0,2299:0:0:0:0:
182,192,2366,1,0,0:0:0:0:
475,192,2366,1,0,0:0:0:0:
402,192,2498,128,0,3029:0:0:0:0:
109,192,2498,128,0,3560:0:0:0:0:
256,192,2498,1,0,0:0:0:0:
329,192,3029,1,0,0:0:0:0:
329,192,3428,1,0,0:0:0:0:
329,192,3560,128,0,4091:0:0:0:0:
36,192,3560,128,0,4622:0:0:0:0:
402,192,3560,1,0,0:0:0:0:
109,192,3826,1,0,0:0:0:0:
182,192,4091,1,0,0:0:0:0:
256,192,4357,1,0,0:0:0:0:
109,192,4622,128,0,5153:0:0:0:0:
402,192,4622,128,0,5684:0:0:0:0:
329,192,4622,1,0,0:0:0:0:
475,192,4888,1,0,0:0:0:0:
256,192,5153,128,0,5684:0:0:0:0:
329,192,5153,1,0,0:0:0:0:
182,192,5419,1,0,0:0:0:0:
182,192,5684,128,0,6215:0:0:0:0:
475,192,5684,128,0,6746:0:0:0:0:
36,192,5684,1,0,0:0:0:0:
329,192,6215,128,0,6746:0:0:0:0:
36,192,6215,1,0,0:0:0:0:
182,192,6481,128,0,6746:0:0:0:0:
109,192,6481,1,0,0:0:0:0:
36,192,6746,128,0,7808:0:0:0:0:
256,192,6746,1,0,0:0:0:0:
109,192,7012,128,0,7543:0:0:0:0:
329,192,7012,1,0,0:0:0:0:
182,192,7277,128,0,7344:0:0:0:0:
402,192,7277,1,0,0:0:0:0:
329,192,7543,1,0,0:0:0:0:
329,192,7808,128,0,8870:0:0:0:0:
256,192,7808,1,0,0:0:0:0:
256,192,8074,128,0,8605:0:0:0:0:
182,192,8074,1,0,0:0:0:0:
182,192,8339,128,0,8405:0:0:0:0:
109,192,8339,1,0,0:0:0:0:
182,192,8605,1,0,0:0:0:0:
182,192,8870,128,0,9932:0:0:0:0:
256,192,8870,1,0,0:0:0:0:
256,192,9136,128,0,9667:0:0:0:0:
329,192,9136,1,0,0:0:0:0:
329,192,9401,128,0,9467:0:0:0:0:
402,192,9401,1,0,0:0:0:0:
475,192,9667,1,0,0:0:0:0:
475,192,9932,128,0,10994:0:0:0:0:
402,192,9932,1,0,0:0:0:0:
402,192,10198,128,0,10728:0:0:0:0:
329,192,10198,1,0,0:0:0:0:
329,192,10463,128,0,10529:0:0:0:0:
256,192,10463,1,0,0:0:0:0:
36,192,10994,1,0,0:0:0:0:
402,192,10994,128,0,11060:0:0:0:0:
36,192,11259,1,0,0:0:0:0:
329,192,11259,128,0,11326:0:0:0:0:
36,192,11525,1,0,0:0:0:0:
256,192,11525,128,0,11591:0:0:0:0:
36,192,11790,1,0,0:0:0:0:
182,192,11790,128,0,11857:0:0:0:0:
109,192,12056,128,0,12122:0:0:0:0:
36,192,12056,128,0,12122:0:0:0:0:
329,192,12056,1,0,0:0:0:0:
402,192,12056,1,0,0:0:0:0:
475,192,12056,1,0,0:0:0:0:
36,192,12189,1,0,0:0:0:0:
109,192,12189,1,0,0:0:0:0:
402,192,12189,1,0,0:0:0:0:
329,192,12189,1,0,0:0:0:0:
256,192,12189,1,0,0:0:0:0:
182,192,12587,1,0,0:0:0:0:
109,192,12587,1,0,0:0:0:0:
36,192,12587,1,0,0:0:0:0:
402,192,12587,128,0,12653:0:0:0:0:
475,192,12587,128,0,12653:0:0:0:0:
109,192,12720,1,0,0:0:0:0:
256,192,12720,1,0,0:0:0:0:
182,192,12720,1,0,0:0:0:0:
475,192,12720,1,0,0:0:0:0:
402,192,12720,1,0,0:0:0:0:
475,192,13118,128,0,13649:0:0:0:0:
256,192,13118,1,0,0:0:0:0:
36,192,13118,1,0,0:0:0:0:
402,192,13184,1,0,0:0:0:0:
182,192,13184,1,0,0:0:0:0:
329,192,13251,1,0,0:0:0:0:
109,192,13251,1,0,0:0:0:0:
256,192,13317,1,0,0:0:0:0:
36,192,13317,1,0,0:0:0:0:
182,192,13383,128,0,13649:0:0:0:0:
402,192,13383,1,0,0:0:0:0:
329,192,13450,1,0,0:0:0:0:
256,192,13516,1,0,0:0:0:0:
109,192,13582,1,0,0:0:0:0:
402,192,13649,128,0,14180:0:0:0:0:
36,192,13649,1,0,0:0:0:0:
329,192,13649,1,0,0:0:0:0:
475,192,13715,1,0,0:0:0:0:
109,192,13715,1,0,0:0:0:0:
182,192,13782,1,0,0:0:0:0:
329,192,13782,1,0,0:0:0:0:
256,192,13848,1,0,0:0:0:0:
475,192,13848,1,0,0:0:0:0:
109,192,13914,128,0,14180:0:0:0:0:
182,192,13914,1,0,0:0:0:0:
36,192,13914,1,0,0:0:0:0:
256,192,13981,1,0,0:0:0:0:
329,192,14047,128,0,14113:0:0:0:0:
475,192,14047,1,0,0:0:0:0:
256,192,14113,1,0,0:0:0:0:
329,192,14180,128,0,14445:0:0:0:0:
36,192,14180,128,0,14445:0:0:0:0:
182,192,14180,1,0,0:0:0:0:
475,192,14180,1,0,0:0:0:0:
109,192,14313,1,0,0:0:0:0:
256,192,14313,128,0,14379:0:0:0:0:
182,192,14313,128,0,14379:0:0:0:0:
109,192,14445,128,0,14711:0:0:0:0:
402,192,14445,128,0,14711:0:0:0:0:
256,192,14445,1,0,0:0:0:0:
475,192,14445,1,0,0:0:0:0:
182,192,14578,1,0,0:0:0:0:
256,192,14578,128,0,14644:0:0:0:0:
329,192,14578,128,0,14644:0:0:0:0:
182,192,14711,128,0,14976:0:0:0:0:
475,192,14711,128,0,14976:0:0:0:0:
329,192,14711,1,0,0:0:0:0:
36,192,14711,1,0,0:0:0:0:
256,192,14844,1,0,0:0:0:0:
329,192,14844,128,0,14910:0:0:0:0:
402,192,14844,128,0,14910:0:0:0:0:
402,192,14976,128,0,15242:0:0:0:0:
109,192,14976,128,0,15242:0:0:0:0:
256,192,14976,1,0,0:0:0:0:
36,192,14976,1,0,0:0:0:0:
182,192,15109,1,0,0:0:0:0:
256,192,15109,128,0,15175:0:0:0:0:
329,192,15109,1,0,0:0:0:0:
36,192,15242,128,0,15507:0:0:0:0:
256,192,15242,128,0,15308:0:0:0:0:
109,192,15308,128,0,15441:0:0:0:0:
329,192,15308,128,0,15375:0:0:0:0:
182,192,15375,128,0,15408:0:0:0:0:
402,192,15375,128,0,15441:0:0:0:0:
329,192,15507,128,0,15773:0:0:0:0:
475,192,15507,128,0,15574:0:0:0:0:
182,192,15507,1,0,0:0:0:0:
256,192,15507,1,0,0:0:0:0:
256,192,15574,128,0,15706:0:0:0:0:
402,192,15574,128,0,15640:0:0:0:0:
182,192,15640,128,0,15673:0:0:0:0:
36,192,15640,128,0,15706:0:0:0:0:
36,192,15773,128,0,15839:0:0:0:0:
182,192,15773,128,0,16038:0:0:0:0:
256,192,15839,128,0,15972:0:0:0:0:
109,192,15839,128,0,15905:0:0:0:0:
329,192,15905,128,0,15939:0:0:0:0:
475,192,15905,128,0,15972:0:0:0:0:
475,192,16038,128,0,16304:0:0:0:0:
256,192,16038,128,0,16105:0:0:0:0:
402,192,16038,1,0,0:0:0:0:
329,192,16038,1,0,0:0:0:0:
402,192,16105,128,0,16237:0:0:0:0:
182,192,16105,128,0,16171:0:0:0:0:
329,192,16171,128,0,16204:0:0:0:0:
109,192,16171,128,0,16237:0:0:0:0:
36,192,16304,1,0,0:0:0:0:
256,192,16304,128,0,16503:0:0:0:0:
329,192,16304,1,0,0:0:0:0:
109,192,16370,1,0,0:0:0:0:
402,192,16370,1,0,0:0:0:0:
182,192,16436,128,0,16503:0:0:0:0:
329,192,16436,128,0,16503:0:0:0:0:
402,192,16503,1,0,0:0:0:0:
182,192,16569,1,0,0:0:0:0:
329,192,16569,128,0,16768:0:0:0:0:
36,192,16569,1,0,0:0:0:0:
109,192,16636,1,0,0:0:0:0:
475,192,16636,1,0,0:0:0:0:
182,192,16702,1,0,0:0:0:0:
256,192,16702,128,0,16768:0:0:0:0:
402,192,16702,128,0,16768:0:0:0:0:
109,192,16768,1,0,0:0:0:0:
402,192,16835,1,0,0:0:0:0:
182,192,16835,128,0,17034:0:0:0:0:
36,192,16835,1,0,0:0:0:0:
475,192,16901,1,0,0:0:0:0:
329,192,16901,1,0,0:0:0:0:
402,192,16967,1,0,0:0:0:0:
109,192,16967,128,0,17034:0:0:0:0:
256,192,16967,128,0,17034:0:0:0:0:
475,192,17034,1,0,0:0:0:0:
109,192,17100,1,0,0:0:0:0:
402,192,17100,128,0,17299:0:0:0:0:
329,192,17100,1,0,0:0:0:0:
36,192,17167,1,0,0:0:0:0:
256,192,17167,1,0,0:0:0:0:
109,192,17233,1,0,0:0:0:0:
329,192,17233,128,0,17299:0:0:0:0:
475,192,17233,128,0,17299:0:0:0:0:
36,192,17299,1,0,0:0:0:0:
475,192,17366,128,0,17432:0:0:0:0:
402,192,17366,128,0,17432:0:0:0:0:
329,192,17366,128,0,17565:0:0:0:0:
36,192,17432,128,0,17631:0:0:0:0:
402,192,17498,1,0,0:0:0:0:
475,192,17498,1,0,0:0:0:0:
109,192,17498,128,0,17631:0:0:0:0:
182,192,17565,128,0,17631:0:0:0:0:
256,192,17631,128,0,17830:0:0:0:0:
329,192,17631,1,0,0:0:0:0:
475,192,17698,128,0,17897:0:0:0:0:
402,192,17764,128,0,17897:0:0:0:0:
329,192,17830,128,0,17897:0:0:0:0:
36,192,17897,128,0,17963:0:0:0:0:
109,192,17897,128,0,17963:0:0:0:0:
182,192,17897,128,0,18096:0:0:0:0:
475,192,17963,128,0,18162:0:0:0:0:
36,192,18029,1,0,0:0:0:0:
402,192,18029,128,0,18162:0:0:0:0:
109,192,18029,1,0,0:0:0:0:
329,192,18096,128,0,18162:0:0:0:0:
182,192,18162,1,0,0:0:0:0:
256,192,18162,128,0,18361:0:0:0:0:
36,192,18228,128,0,18428:0:0:0:0:
109,192,18295,128,0,18428:0:0:0:0:
182,192,18361,128,0,18428:0:0:0:0:
329,192,18428,128,0,18959:0:0:0:0:
402,192,18428,128,0,18959:0:0:0:0:
475,192,18428,1,0,0:0:0:0:
36,192,18959,1,0,0:0:0:0:
109,192,18959,128,0,19490:0:0:0:0:
182,192,18959,128,0,19490:0:0:0:0:
329,192,19357,128,0,19423:0:0:0:0:
402,192,19357,128,0,19423:0:0:0:0:
402,192,19490,1,0,0:0:0:0:
329,192,19490,1,0,0:0:0:0:
402,192,19755,1,0,0:0:0:0:
329,192,19755,1,0,0:0:0:0:
329,192,20021,1,0,0:0:0:0:
402,192,20021,1,0,0:0:0:0:
402,192,20286,1,0,0:0:0:0:
329,192,20286,1,0,0:0:0:0:
402,192,20551,1,0,0:0:0:0:
329,192,20551,1,0,0:0:0:0:
329,192,20817,1,0,0:0:0:0:
402,192,20817,1,0,0:0:0:0:
329,192,21082,1,0,0:0:0:0:
402,192,21082,1,0,0:0:0:0:
402,192,21348,1,0,0:0:0:0:
329,192,21348,1,0,0:0:0:0:
402,192,21613,1,0,0:0:0:0:
329,192,21613,1,0,0:0:0:0:
182,192,21613,128,0,21647:0:0:0:0:
329,192,21879,1,0,0:0:0:0:
402,192,21879,1,0,0:0:0:0:
329,192,22144,1,0,0:0:0:0:
402,192,22144,1,0,0:0:0:0:
109,192,22144,128,0,22178:0:0:0:0:
402,192,22410,1,0,0:0:0:0:
329,192,22410,1,0,0:0:0:0:
402,192,22675,1,0,0:0:0:0:
329,192,22675,1,0,0:0:0:0:
36,192,22675,128,0,22709:0:0:0:0:
329,192,22941,1,0,0:0:0:0:
402,192,22941,1,0,0:0:0:0:
329,192,23206,1,0,0:0:0:0:
402,192,23206,1,0,0:0:0:0:
402,192,23472,1,0,0:0:0:0:
329,192,23472,1,0,0:0:0:0:
109,192,23737,1,0,0:0:0:0:
182,192,23737,1,0,0:0:0:0:
475,192,23737,128,0,23771:0:0:0:0:
256,192,23737,128,0,24799:0:0:0:0:
109,192,24003,1,0,0:0:0:0:
182,192,24003,1,0,0:0:0:0:
182,192,24268,1,0,0:0:0:0:
109,192,24268,1,0,0:0:0:0:
109,192,24534,1,0,0:0:0:0:
182,192,24534,1,0,0:0:0:0:
109,192,24799,1,0,0:0:0:0:
182,192,24799,1,0,0:0:0:0:
329,192,24799,128,0,24832:0:0:0:0:
475,192,24799,128,0,25861:0:0:0:0:
182,192,25065,1,0,0:0:0:0:
109,192,25065,1,0,0:0:0:0:
182,192,25330,1,0,0:0:0:0:
109,192,25330,1,0,0:0:0:0:
109,192,25596,1,0,0:0:0:0:
182,192,25596,1,0,0:0:0:0:
109,192,25861,1,0,0:0:0:0:
182,192,25861,1,0,0:0:0:0:
329,192,25861,128,0,25894:0:0:0:0:
182,192,26127,1,0,0:0:0:0:
109,192,26127,1,0,0:0:0:0:
329,192,26127,128,0,26392:0:0:0:0:
182,192,26392,1,0,0:0:0:0:
109,192,26392,1,0,0:0:0:0:
402,192,26392,128,0,26425:0:0:0:0:
109,192,26658,1,0,0:0:0:0:
182,192,26658,1,0,0:0:0:0:
402,192,26658,128,0,26923:0:0:0:0:
329,192,26790,1,0,0:0:0:0:
109,192,26923,1,0,0:0:0:0:
182,192,26923,1,0,0:0:0:0:
475,192,26923,128,0,26956:0:0:0:0:
182,192,27189,1,0,0:0:0:0:
109,192,27189,1,0,0:0:0:0:
475,192,27189,128,0,27454:0:0:0:0:
182,192,27454,1,0,0:0:0:0:
109,192,27454,1,0,0:0:0:0:
402,192,27454,128,0,27487:0:0:0:0:
329,192,27653,1,0,0:0:0:0:
402,192,27653,1,0,0:0:0:0:
109,192,27720,1,0,0:0:0:0:
182,192,27720,1,0,0:0:0:0:
329,192,27852,1,0,0:0:0:0:
402,192,27852,1,0,0:0:0:0:
182,192,27985,1,0,0:0:0:0:
109,192,27985,1,0,0:0:0:0:
36,192,27985,1,0,0:0:0:0:
256,192,27985,128,0,30109:0:0:0:0:
475,192,27985,1,0,0:0:0:0:
329,192,28118,1,0,0:0:0:0:
36,192,28118,1,0,0:0:0:0:
36,192,28251,1,0,0:0:0:0:
329,192,28251,1,0,0:0:0:0:
402,192,28251,1,0,0:0:0:0:
475,192,28251,1,0,0:0:0:0:
109,192,28383,1,0,0:0:0:0:
402,192,28383,1,0,0:0:0:0:
182,192,28516,1,0,0:0:0:0:
109,192,28516,1,0,0:0:0:0:
36,192,28516,1,0,0:0:0:0:
475,192,28516,1,0,0:0:0:0:
182,192,28649,1,0,0:0:0:0:
475,192,28649,1,0,0:0:0:0:
329,192,28782,1,0,0:0:0:0:
402,192,28782,1,0,0:0:0:0:
475,192,28782,1,0,0:0:0:0:
36,192,28782,1,0,0:0:0:0:
402,192,28914,1,0,0:0:0:0:
109,192,28914,1,0,0:0:0:0:
36,192,29047,128,0,29213:0:0:0:0:
182,192,29047,1,0,0:0:0:0:
329,192,29047,1,0,0:0:0:0:
475,192,29047,1,0,0:0:0:0:
109,192,29180,128,0,29213:0:0:0:0:
402,192,29180,1,0,0:0:0:0:
182,192,29313,128,0,29478:0:0:0:0:
36,192,29313,1,0,0:0:0:0:
329,192,29313,1,0,0:0:0:0:
475,192,29313,1,0,0:0:0:0:
109,192,29445,128,0,29478:0:0:0:0:
402,192,29445,1,0,0:0:0:0:
36,192,29578,128,0,29744:0:0:0:0:
329,192,29578,1,0,0:0:0:0:
475,192,29578,1,0,0:0:0:0:
109,192,29711,128,0,29744:0:0:0:0:
402,192,29711,1,0,0:0:0:0:
182,192,29844,128,0,30009:0:0:0:0:
329,192,29844,1,0,0:0:0:0:
475,192,29844,1,0,0:0:0:0:
36,192,29844,1,0,0:0:0:0:
109,192,29976,128,0,30009:0:0:0:0:
402,192,29976,1,0,0:0:0:0:
329,192,30109,128,0,30275:0:0:0:0:
36,192,30109,1,0,0:0:0:0:
182,192,30109,1,0,0:0:0:0:
475,192,30109,1,0,0:0:0:0:
109,192,30109,1,0,0:0:0:0:
256,192,30242,128,0,30275:0:0:0:0:
402,192,30242,1,0,0:0:0:0:
182,192,30375,128,0,30540:0:0:0:0:
329,192,30375,1,0,0:0:0:0:
402,192,30375,1,0,0:0:0:0:
475,192,30375,1,0,0:0:0:0:
36,192,30375,1,0,0:0:0:0:
256,192,30507,128,0,30540:0:0:0:0:
109,192,30507,1,0,0:0:0:0:
329,192,30640,128,0,30806:0:0:0:0:
182,192,30640,1,0,0:0:0:0:
109,192,30640,1,0,0:0:0:0:
36,192,30640,1,0,0:0:0:0:
475,192,30640,1,0,0:0:0:0:
256,192,30773,128,0,30806:0:0:0:0:
402,192,30773,1,0,0:0:0:0:
182,192,30905,128,0,31071:0:0:0:0:
402,192,30905,1,0,0:0:0:0:
36,192,30905,1,0,0:0:0:0:
475,192,30905,1,0,0:0:0:0:
329,192,30905,1,0,0:0:0:0:
256,192,31038,128,0,31071:0:0:0:0:
109,192,31038,1,0,0:0:0:0:
329,192,31171,128,0,31337:0:0:0:0:
182,192,31171,1,0,0:0:0:0:
109,192,31171,1,0,0:0:0:0:
36,192,31171,1,0,0:0:0:0:
475,192,31171,1,0,0:0:0:0:
402,192,31304,128,0,31337:0:0:0:0:
109,192,31304,1,0,0:0:0:0:
475,192,31436,128,0,31602:0:0:0:0:
182,192,31436,1,0,0:0:0:0:
256,192,31436,1,0,0:0:0:0:
329,192,31436,1,0,0:0:0:0:
36,192,31436,1,0,0:0:0:0:
402,192,31569,128,0,31602:0:0:0:0:
182,192,31569,1,0,0:0:0:0:
329,192,31702,128,0,31868:0:0:0:0:
36,192,31702,1,0,0:0:0:0:
109,192,31702,1,0,0:0:0:0:
182,192,31702,1,0,0:0:0:0:
475,192,31702,1,0,0:0:0:0:
402,192,31835,128,0,31868:0:0:0:0:
109,192,31835,1,0,0:0:0:0:
475,192,31967,128,0,32133:0:0:0:0:
329,192,31967,1,0,0:0:0:0:
256,192,31967,1,0,0:0:0:0:
182,192,31967,1,0,0:0:0:0:
36,192,31967,1,0,0:0:0:0:
402,192,32100,128,0,32133:0:0:0:0:
36,192,32100,1,0,0:0:0:0:
256,192,32233,128,0,33295:0:0:0:0:
329,192,32233,128,0,32399:0:0:0:0:
109,192,32233,1,0,0:0:0:0:
36,192,32233,1,0,0:0:0:0:
475,192,32233,1,0,0:0:0:0:
182,192,32366,128,0,32399:0:0:0:0:
402,192,32366,1,0,0:0:0:0:
109,192,32498,128,0,32664:0:0:0:0:
329,192,32498,1,0,0:0:0:0:
475,192,32498,1,0,0:0:0:0:
36,192,32498,1,0,0:0:0:0:
182,192,32631,128,0,32664:0:0:0:0:
402,192,32631,1,0,0:0:0:0:
329,192,32764,128,0,32930:0:0:0:0:
109,192,32764,1,0,0:0:0:0:
36,192,32764,1,0,0:0:0:0:
475,192,32764,1,0,0:0:0:0:
182,192,32897,128,0,32930:0:0:0:0:
402,192,32897,1,0,0:0:0:0:
402,192,33029,128,0,34357:0:0:0:0:
109,192,33029,128,0,33195:0:0:0:0:
475,192,33029,1,0,0:0:0:0:
329,192,33029,1,0,0:0:0:0:
36,192,33029,1,0,0:0:0:0:
182,192,33162,128,0,33195:0:0:0:0:
475,192,33162,1,0,0:0:0:0:
329,192,33295,128,0,33461:0:0:0:0:
182,192,33295,1,0,0:0:0:0:
109,192,33295,1,0,0:0:0:0:
36,192,33295,1,0,0:0:0:0:
475,192,33428,128,0,33461:0:0:0:0:
182,192,33428,1,0,0:0:0:0:
329,192,33560,128,0,33726:0:0:0:0:
109,192,33560,1,0,0:0:0:0:
36,192,33560,1,0,0:0:0:0:
256,192,33560,1,0,0:0:0:0:
182,192,33693,128,0,33726:0:0:0:0:
36,192,33693,1,0,0:0:0:0:
109,192,33826,128,0,34357:0:0:0:0:
182,192,33826,128,0,33992:0:0:0:0:
475,192,33826,1,0,0:0:0:0:
329,192,33826,1,0,0:0:0:0:
256,192,33826,1,0,0:0:0:0:
36,192,33959,128,0,33992:0:0:0:0:
329,192,33959,1,0,0:0:0:0:
182,192,34091,128,0,34257:0:0:0:0:
256,192,34091,1,0,0:0:0:0:
475,192,34091,1,0,0:0:0:0:
36,192,34091,1,0,0:0:0:0:
329,192,34224,128,0,34257:0:0:0:0:
475,192,34224,1,0,0:0:0:0:
329,192,34357,1,0,0:0:0:0:
182,192,34357,1,0,0:0:0:0:
256,192,34357,1,0,0:0:0:0:
475,192,34357,128,0,34556:0:0:0:0:
256,192,34490,1,0,0:0:0:0:
182,192,34490,1,0,0:0:0:0:
109,192,34490,1,0,0:0:0:0:
182,192,34622,1,0,0:0:0:0:
109,192,34622,1,0,0:0:0:0:
36,192,34622,1,0,0:0:0:0:
475,192,34622,128,0,34821:0:0:0:0:
475,192,34888,128,0,35087:0:0:0:0:
256,192,34888,1,0,0:0:0:0:
182,192,34888,1,0,0:0:0:0:
109,192,34888,1,0,0:0:0:0:
36,192,34888,1,0,0:0:0:0:
475,192,35153,128,0,35419:0:0:0:0:
109,192,35153,1,0,0:0:0:0:
256,192,35153,1,0,0:0:0:0:
329,192,35153,1,0,0:0:0:0:
182,192,35153,1,0,0:0:0:0:
329,192,35286,1,0,0:0:0:0:
402,192,35286,1,0,0:0:0:0:
36,192,35419,128,0,35618:0:0:0:0:
329,192,35419,1,0,0:0:0:0:
256,192,35419,1,0,0:0:0:0:
182,192,35419,1,0,0:0:0:0:
109,192,35419,1,0,0:0:0:0:
182,192,35551,1,0,0:0:0:0:
109,192,35551,1,0,0:0:0:0:
36,192,35684,128,0,35883:0:0:0:0:
256,192,35684,1,0,0:0:0:0:
329,192,35684,1,0,0:0:0:0:
402,192,35684,1,0,0:0:0:0:
475,192,35684,1,0,0:0:0:0:
475,192,35817,1,0,0:0:0:0:
402,192,35817,1,0,0:0:0:0:
36,192,35950,128,0,36149:0:0:0:0:
329,192,35950,1,0,0:0:0:0:
256,192,35950,1,0,0:0:0:0:
182,192,35950,1,0,0:0:0:0:
256,192,36082,1,0,0:0:0:0:
329,192,36082,1,0,0:0:0:0:
402,192,36082,1,0,0:0:0:0:
36,192,36215,128,0,36481:0:0:0:0:
329,192,36215,1,0,0:0:0:0:
475,192,36215,1,0,0:0:0:0:
402,192,36215,1,0,0:0:0:0:
402,192,36348,128,0,36414:0:0:0:0:
475,192,36348,128,0,36414:0:0:0:0:
475,192,36481,1,0,0:0:0:0:
402,192,36481,1,0,0:0:0:0:
329,192,36481,128,0,36746:0:0:0:0:
256,192,36746,1,0,0:0:0:0:
182,192,36746,1,0,0:0:0:0:
109,192,36746,128,0,37012:0:0:0:0:
256,192,37012,1,0,0:0:0:0:
36,192,37012,1,0,0:0:0:0:
475,192,37012,128,0,37078:0:0:0:0:
36,192,37144,1,0,0:0:0:0:
256,192,37144,1,0,0:0:0:0:
475,192,37144,1,0,0:0:0:0:
329,192,37277,1,0,0:0:0:0:
109,192,37277,1,0,0:0:0:0:
475,192,37277,128,0,37344:0:0:0:0:
109,192,37410,1,0,0:0:0:0:
329,192,37410,1,0,0:0:0:0:
475,192,37410,1,0,0:0:0:0:
36,192,37543,1,0,0:0:0:0:
109,192,37543,1,0,0:0:0:0:
182,192,37543,128,0,37808:0:0:0:0:
402,192,37543,1,0,0:0:0:0:
402,192,37675,1,0,0:0:0:0:
256,192,37808,1,0,0:0:0:0:
329,192,37808,1,0,0:0:0:0:
402,192,37808,128,0,38074:0:0:0:0:
109,192,37808,1,0,0:0:0:0:
109,192,37941,1,0,0:0:0:0:
256,192,38074,1,0,0:0:0:0:
475,192,38074,1,0,0:0:0:0:
36,192,38074,128,0,38140:0:0:0:0:
109,192,38074,1,0,0:0:0:0:
475,192,38206,1,0,0:0:0:0:
256,192,38206,1,0,0:0:0:0:
36,192,38206,1,0,0:0:0:0:
182,192,38339,1,0,0:0:0:0:
402,192,38339,1,0,0:0:0:0:
36,192,38339,128,0,38405:0:0:0:0:
329,192,38339,1,0,0:0:0:0:
402,192,38472,1,0,0:0:0:0:
182,192,38472,1,0,0:0:0:0:
36,192,38472,1,0,0:0:0:0:
329,192,38472,1,0,0:0:0:0:
256,192,38605,128,0,38936:0:0:0:0:
109,192,38605,128,0,38936:0:0:0:0:
475,192,38605,128,0,38804:0:0:0:0:
329,192,38605,1,0,0:0:0:0:
402,192,38605,1,0,0:0:0:0:
475,192,38870,1,0,0:0:0:0:
109,192,39003,1,0,0:0:0:0:
256,192,39003,1,0,0:0:0:0:
329,192,39003,128,0,39335:0:0:0:0:
475,192,39003,128,0,39335:0:0:0:0:
36,192,39003,128,0,39202:0:0:0:0:
36,192,39268,1,0,0:0:0:0:
329,192,39401,1,0,0:0:0:0:
475,192,39401,1,0,0:0:0:0:
182,192,39401,128,0,39667:0:0:0:0:
36,192,39401,128,0,39667:0:0:0:0:
256,192,39401,1,0,0:0:0:0:
329,192,39667,128,0,39866:0:0:0:0:
475,192,39667,128,0,39866:0:0:0:0:
182,192,39799,128,0,39998:0:0:0:0:
36,192,39799,128,0,39998:0:0:0:0:
329,192,39932,1,0,0:0:0:0:
475,192,39932,1,0,0:0:0:0:
182,192,40065,1,0,0:0:0:0:
36,192,40065,1,0,0:0:0:0:
109,192,40065,128,0,40596:0:0:0:0:
329,192,40198,1,0,0:0:0:0:
475,192,40198,1,0,0:0:0:0:
402,192,40198,128,0,40330:0:0:0:0:
256,192,40198,1,0,0:0:0:0:
329,192,40330,1,0,0:0:0:0:
475,192,40330,1,0,0:0:0:0:
182,192,40463,1,0,0:0:0:0:
36,192,40463,1,0,0:0:0:0:
256,192,40463,1,0,0:0:0:0:
36,192,40596,1,0,0:0:0:0:
182,192,40596,1,0,0:0:0:0:
402,192,40728,128,0,40795:0:0:0:0:
109,192,40728,128,0,40795:0:0:0:0:
36,192,40728,128,0,40994:0:0:0:0:
475,192,40728,1,0,0:0:0:0:
329,192,40795,128,0,40861:0:0:0:0:
182,192,40795,128,0,40861:0:0:0:0:
256,192,40861,128,0,40928:0:0:0:0:
402,192,40861,128,0,40928:0:0:0:0:
475,192,40928,128,0,40994:0:0:0:0:
182,192,40928,128,0,40994:0:0:0:0:
109,192,40994,128,0,41060:0:0:0:0:
402,192,40994,128,0,41060:0:0:0:0:
329,192,40994,1,0,0:0:0:0:
329,192,41060,128,0,41127:0:0:0:0:
36,192,41060,128,0,41127:0:0:0:0:
109,192,41127,128,0,41193:0:0:0:0:
256,192,41127,128,0,41193:0:0:0:0:
182,192,41193,128,0,41259:0:0:0:0:
329,192,41193,128,0,41259:0:0:0:0:
109,192,41259,128,0,41326:0:0:0:0:
402,192,41259,128,0,41326:0:0:0:0:
475,192,41259,128,0,41525:0:0:0:0:
36,192,41259,1,0,0:0:0:0:
182,192,41326,128,0,41392:0:0:0:0:
329,192,41326,128,0,41392:0:0:0:0:
256,192,41392,128,0,41459:0:0:0:0:
109,192,41392,128,0,41459:0:0:0:0:
36,192,41459,128,0,41525:0:0:0:0:
329,192,41459,128,0,41525:0:0:0:0:
402,192,41525,128,0,41591:0:0:0:0:
109,192,41525,128,0,41591:0:0:0:0:
182,192,41525,1,0,0:0:0:0:
182,192,41591,128,0,41658:0:0:0:0:
475,192,41591,128,0,41658:0:0:0:0:
402,192,41658,128,0,41724:0:0:0:0:
256,192,41658,128,0,41724:0:0:0:0:
329,192,41724,128,0,41790:0:0:0:0:
182,192,41724,128,0,41790:0:0:0:0:
402,192,41790,128,0,41857:0:0:0:0:
109,192,41790,128,0,41857:0:0:0:0:
36,192,41790,128,0,42056:0:0:0:0:
475,192,41790,1,0,0:0:0:0:
329,192,41857,128,0,41923:0:0:0:0:
182,192,41857,128,0,41923:0:0:0:0:
256,192,41923,128,0,41990:0:0:0:0:
402,192,41923,128,0,41990:0:0:0:0:
475,192,41990,128,0,42056:0:0:0:0:
182,192,41990,128,0,42056:0:0:0:0:
109,192,42056,128,0,42122:0:0:0:0:
402,192,42056,128,0,42122:0:0:0:0:
329,192,42056,1,0,0:0:0:0:
329,192,42122,128,0,42189:0:0:0:0:
36,192,42122,128,0,42189:0:0:0:0:
109,192,42189,128,0,42255:0:0:0:0:
256,192,42189,128,0,42255:0:0:0:0:
182,192,42255,128,0,42321:0:0:0:0:
329,192,42255,128,0,42321:0:0:0:0:
109,192,42321,128,0,42388:0:0:0:0:
402,192,42321,128,0,42388:0:0:0:0:
475,192,42321,128,0,42587:0:0:0:0:
36,192,42321,1,0,0:0:0:0:
182,192,42388,128,0,42454:0:0:0:0:
329,192,42388,128,0,42454:0:0:0:0:
256,192,42454,128,0,42521:0:0:0:0:
109,192,42454,128,0,42521:0:0:0:0:
36,192,42521,128,0,42587:0:0:0:0:
329,192,42521,128,0,42587:0:0:0:0:
402,192,42587,128,0,42653:0:0:0:0:
109,192,42587,128,0,42653:0:0:0:0:
182,192,42587,1,0,0:0:0:0:
182,192,42653,128,0,42720:0:0:0:0:
475,192,42653,128,0,42720:0:0:0:0:
402,192,42720,128,0,42786:0:0:0:0:
256,192,42720,128,0,42786:0:0:0:0:
329,192,42786,128,0,42852:0:0:0:0:
182,192,42786,128,0,42852:0:0:0:0:
109,192,42852,128,0,43051:0:0:0:0:
36,192,42852,128,0,43051:0:0:0:0:
475,192,42852,128,0,42919:0:0:0:0:
475,192,42985,1,0,0:0:0:0:
256,192,42985,128,0,43051:0:0:0:0:
402,192,42985,128,0,43051:0:0:0:0:
109,192,43118,1,0,0:0:0:0:
36,192,43118,1,0,0:0:0:0:
329,192,43118,128,0,43184:0:0:0:0:
109,192,43251,128,0,43317:0:0:0:0:
256,192,43251,128,0,43317:0:0:0:0:
329,192,43251,1,0,0:0:0:0:
402,192,43383,128,0,43582:0:0:0:0:
475,192,43383,128,0,43582:0:0:0:0:
36,192,43383,128,0,43450:0:0:0:0:
36,192,43516,1,0,0:0:0:0:
109,192,43516,128,0,43582:0:0:0:0:
256,192,43516,128,0,43582:0:0:0:0:
402,192,43649,1,0,0:0:0:0:
475,192,43649,1,0,0:0:0:0:
182,192,43649,128,0,43715:0:0:0:0:
182,192,43782,1,0,0:0:0:0:
256,192,43782,128,0,43848:0:0:0:0:
402,192,43782,128,0,43848:0:0:0:0:
182,192,43914,128,0,44246:0:0:0:0:
109,192,43914,128,0,44246:0:0:0:0:
36,192,43914,128,0,44246:0:0:0:0:
329,192,43914,128,0,43981:0:0:0:0:
475,192,43914,128,0,43981:0:0:0:0:
475,192,44047,1,0,0:0:0:0:
329,192,44047,1,0,0:0:0:0:
402,192,44180,128,0,44246:0:0:0:0:
256,192,44180,128,0,44246:0:0:0:0:
182,192,44313,1,0,0:0:0:0:
109,192,44313,1,0,0:0:0:0:
36,192,44313,1,0,0:0:0:0:
402,192,44313,1,0,0:0:0:0:
256,192,44313,1,0,0:0:0:0:
402,192,44445,128,0,44777:0:0:0:0:
329,192,44445,128,0,44777:0:0:0:0:
475,192,44445,128,0,44777:0:0:0:0:
182,192,44445,128,0,44512:0:0:0:0:
36,192,44445,128,0,44512:0:0:0:0:
36,192,44578,1,0,0:0:0:0:
182,192,44578,1,0,0:0:0:0:
109,192,44711,128,0,44777:0:0:0:0:
256,192,44711,128,0,44777:0:0:0:0:
329,192,44844,1,0,0:0:0:0:
475,192,44844,1,0,0:0:0:0:
402,192,44844,1,0,0:0:0:0:
109,192,44844,1,0,0:0:0:0:
256,192,44844,1,0,0:0:0:0:
182,192,44976,1,0,0:0:0:0:
109,192,44976,1,0,0:0:0:0:
36,192,44976,1,0,0:0:0:0:
256,192,44976,1,0,0:0:0:0:
475,192,44976,1,0,0:0:0:0:
329,192,44976,1,0,0:0:0:0:
402,192,45109,1,0,0:0:0:0:
329,192,45109,1,0,0:0:0:0:
256,192,45109,1,0,0:0:0:0:
182,192,45109,1,0,0:0:0:0:
109,192,45109,1,0,0:0:0:0:
36,192,45109,1,0,0:0:0:0:
402,192,45242,1,0,0:0:0:0:
475,192,45242,1,0,0:0:0:0:
256,192,45242,1,0,0:0:0:0:
182,192,45242,1,0,0:0:0:0:
109,192,45242,1,0,0:0:0:0:
329,192,45242,1,0,0:0:0:0:
182,192,45375,1,0,0:0:0:0:
256,192,45375,1,0,0:0:0:0:
36,192,45375,1,0,0:0:0:0:
329,192,45375,1,0,0:0:0:0:
402,192,45375,1,0,0:0:0:0:
475,192,45375,1,0,0:0:0:0:
109,192,45507,1,0,0:0:0:0:
256,192,45507,1,0,0:0:0:0:
329,192,45507,1,0,0:0:0:0:
402,192,45507,1,0,0:0:0:0:
475,192,45507,1,0,0:0:0:0:
36,192,45507,1,0,0:0:0:0:
109,192,45640,1,0,0:0:0:0:
182,192,45640,1,0,0:0:0:0:
329,192,45640,1,0,0:0:0:0:
402,192,45640,1,0,0:0:0:0:
475,192,45640,1,0,0:0:0:0:
36,192,45640,1,0,0:0:0:0:
36,192,45773,1,0,0:0:0:0:
182,192,45773,1,0,0:0:0:0:
256,192,45773,1,0,0:0:0:0:
109,192,45773,1,0,0:0:0:0:
475,192,45773,1,0,0:0:0:0:
402,192,45773,1,0,0:0:0:0:
256,192,45905,1,0,0:0:0:0:
36,192,45905,1,0,0:0:0:0:
109,192,45905,1,0,0:0:0:0:
329,192,45905,1,0,0:0:0:0:
182,192,45905,1,0,0:0:0:0:
475,192,45905,1,0,0:0:0:0:
109,192,46038,128,0,46105:0:0:0:0:
182,192,46038,128,0,46171:0:0:0:0:
256,192,46038,128,0,46237:0:0:0:0:
402,192,46038,128,0,46105:0:0:0:0:
475,192,46038,128,0,46171:0:0:0:0:
36,192,46105,1,0,0:0:0:0:
329,192,46105,128,0,46304:0:0:0:0:
109,192,46171,1,0,0:0:0:0:
402,192,46171,128,0,46370:0:0:0:0:
182,192,46237,1,0,0:0:0:0:
475,192,46237,128,0,46436:0:0:0:0:
256,192,46304,1,0,0:0:0:0:
36,192,46304,128,0,46503:0:0:0:0:
109,192,46304,128,0,46503:0:0:0:0:
329,192,46370,1,0,0:0:0:0:
402,192,46436,1,0,0:0:0:0:
182,192,46436,1,0,0:0:0:0:
256,192,46436,1,0,0:0:0:0:
475,192,46503,1,0,0:0:0:0:
182,192,46569,128,0,46768:0:0:0:0:
256,192,46569,128,0,46768:0:0:0:0:
109,192,46569,128,0,46636:0:0:0:0:
402,192,46569,128,0,46636:0:0:0:0:
475,192,46636,128,0,46702:0:0:0:0:
329,192,46702,1,0,0:0:0:0:
402,192,46702,1,0,0:0:0:0:
36,192,46702,128,0,46768:0:0:0:0:
109,192,46768,128,0,46835:0:0:0:0:
329,192,46835,128,0,47034:0:0:0:0:
402,192,46835,128,0,47034:0:0:0:0:
182,192,46835,128,0,46901:0:0:0:0:
256,192,46901,128,0,46967:0:0:0:0:
475,192,46967,1,0,0:0:0:0:
109,192,46967,128,0,47034:0:0:0:0:
182,192,47034,128,0,47100:0:0:0:0:
402,192,47100,128,0,47167:0:0:0:0:
329,192,47100,128,0,47233:0:0:0:0:
256,192,47100,128,0,47299:0:0:0:0:
109,192,47100,128,0,47167:0:0:0:0:
36,192,47100,128,0,47233:0:0:0:0:
475,192,47167,1,0,0:0:0:0:
182,192,47167,128,0,47366:0:0:0:0:
402,192,47233,1,0,0:0:0:0:
109,192,47233,128,0,47432:0:0:0:0:
329,192,47299,1,0,0:0:0:0:
36,192,47299,128,0,47498:0:0:0:0:
256,192,47366,1,0,0:0:0:0:
475,192,47366,128,0,47565:0:0:0:0:
402,192,47366,128,0,47565:0:0:0:0:
182,192,47432,1,0,0:0:0:0:
109,192,47498,1,0,0:0:0:0:
329,192,47498,1,0,0:0:0:0:
256,192,47498,1,0,0:0:0:0:
36,192,47565,1,0,0:0:0:0:
329,192,47631,128,0,47830:0:0:0:0:
256,192,47631,128,0,47830:0:0:0:0:
402,192,47631,128,0,47698:0:0:0:0:
109,192,47631,128,0,47698:0:0:0:0:
36,192,47698,128,0,47764:0:0:0:0:
182,192,47764,1,0,0:0:0:0:
109,192,47764,1,0,0:0:0:0:
475,192,47764,128,0,47830:0:0:0:0:
402,192,47830,128,0,47897:0:0:0:0:
182,192,47897,128,0,48096:0:0:0:0:
109,192,47897,128,0,48096:0:0:0:0:
329,192,47897,128,0,47963:0:0:0:0:
256,192,47963,128,0,48029:0:0:0:0:
36,192,48029,1,0,0:0:0:0:
402,192,48029,128,0,48096:0:0:0:0:
329,192,48096,128,0,48162:0:0:0:0:
256,192,48162,128,0,48228:0:0:0:0:
182,192,48162,128,0,48295:0:0:0:0:
109,192,48162,128,0,48361:0:0:0:0:
36,192,48162,128,0,48428:0:0:0:0:
475,192,48162,128,0,48228:0:0:0:0:
402,192,48162,1,0,0:0:0:0:
402,192,48228,128,0,48295:0:0:0:0:
329,192,48295,128,0,48361:0:0:0:0:
256,192,48361,128,0,48428:0:0:0:0:
182,192,48428,128,0,48494:0:0:0:0:
329,192,48428,128,0,48560:0:0:0:0:
402,192,48428,128,0,48627:0:0:0:0:
475,192,48428,128,0,48693:0:0:0:0:
109,192,48428,1,0,0:0:0:0:
109,192,48494,128,0,48560:0:0:0:0:
182,192,48560,128,0,48627:0:0:0:0:
256,192,48627,128,0,48693:0:0:0:0:
329,192,48693,128,0,48759:0:0:0:0:
182,192,48693,128,0,48826:0:0:0:0:
109,192,48693,128,0,48892:0:0:0:0:
36,192,48693,128,0,48959:0:0:0:0:
402,192,48693,1,0,0:0:0:0:
402,192,48759,128,0,48826:0:0:0:0:
329,192,48826,128,0,48892:0:0:0:0:
256,192,48892,128,0,48959:0:0:0:0:
329,192,48959,128,0,49091:0:0:0:0:
402,192,48959,128,0,49158:0:0:0:0:
475,192,48959,128,0,49224:0:0:0:0:
182,192,48959,128,0,49025:0:0:0:0:
109,192,48959,1,0,0:0:0:0:
109,192,49025,128,0,49091:0:0:0:0:
182,192,49091,128,0,49158:0:0:0:0:
256,192,49158,128,0,49224:0:0:0:0:
329,192,49224,128,0,49423:0:0:0:0:
36,192,49224,128,0,49290:0:0:0:0:
182,192,49224,1,0,0:0:0:0:
402,192,49290,128,0,49490:0:0:0:0:
109,192,49290,128,0,49357:0:0:0:0:
475,192,49357,128,0,49556:0:0:0:0:
182,192,49357,128,0,49423:0:0:0:0:
256,192,49423,128,0,49490:0:0:0:0:
329,192,49490,1,0,0:0:0:0:
182,192,49490,128,0,49556:0:0:0:0:
402,192,49556,1,0,0:0:0:0:
109,192,49556,128,0,49622:0:0:0:0:
475,192,49622,1,0,0:0:0:0:
36,192,49622,128,0,49689:0:0:0:0:
109,192,49689,128,0,49755:0:0:0:0:
182,192,49755,128,0,49954:0:0:0:0:
475,192,49755,128,0,49821:0:0:0:0:
329,192,49755,1,0,0:0:0:0:
109,192,49821,128,0,50021:0:0:0:0:
402,192,49821,128,0,49888:0:0:0:0:
36,192,49888,128,0,50087:0:0:0:0:
329,192,49888,128,0,49954:0:0:0:0:
256,192,49954,128,0,50021:0:0:0:0:
182,192,50021,1,0,0:0:0:0:
329,192,50021,128,0,50087:0:0:0:0:
109,192,50087,1,0,0:0:0:0:
402,192,50087,128,0,50153:0:0:0:0:
36,192,50153,1,0,0:0:0:0:
475,192,50153,128,0,50220:0:0:0:0:
329,192,50220,128,0,50286:0:0:0:0:
256,192,50286,128,0,50352:0:0:0:0:
182,192,50286,128,0,50419:0:0:0:0:
109,192,50286,128,0,50485:0:0:0:0:
36,192,50286,128,0,50551:0:0:0:0:
402,192,50286,128,0,50352:0:0:0:0:
475,192,50286,128,0,50319:0:0:0:0:
329,192,50352,1,0,0:0:0:0:
256,192,50419,128,0,50485:0:0:0:0:
182,192,50485,1,0,0:0:0:0:
256,192,50551,128,0,50618:0:0:0:0:
329,192,50551,128,0,50684:0:0:0:0:
402,192,50551,128,0,50751:0:0:0:0:
475,192,50551,128,0,50817:0:0:0:0:
109,192,50551,128,0,50618:0:0:0:0:
182,192,50618,1,0,0:0:0:0:
256,192,50684,128,0,50751:0:0:0:0:
329,192,50751,1,0,0:0:0:0:
256,192,50817,128,0,50883:0:0:0:0:
182,192,50817,128,0,50950:0:0:0:0:
109,192,50817,128,0,51016:0:0:0:0:
36,192,50817,128,0,51082:0:0:0:0:
402,192,50817,128,0,50883:0:0:0:0:
329,192,50883,1,0,0:0:0:0:
256,192,50950,128,0,51016:0:0:0:0:
182,192,51016,1,0,0:0:0:0:
109,192,51082,128,0,51149:0:0:0:0:
256,192,51082,128,0,51149:0:0:0:0:
329,192,51082,128,0,51215:0:0:0:0:
402,192,51082,128,0,51282:0:0:0:0:
475,192,51082,128,0,51348:0:0:0:0:
182,192,51149,1,0,0:0:0:0:
256,192,51215,128,0,51282:0:0:0:0:
329,192,51282,1,0,0:0:0:0:
402,192,51348,128,0,51414:0:0:0:0:
182,192,51348,128,0,51481:0:0:0:0:
109,192,51381,128,0,51547:0:0:0:0:
329,192,51414,128,0,51481:0:0:0:0:
36,192,51414,128,0,51813:0:0:0:0:
256,192,51481,128,0,51547:0:0:0:0:
402,192,51481,1,0,0:0:0:0:
182,192,51547,128,0,51613:0:0:0:0:
109,192,51613,128,0,51680:0:0:0:0:
329,192,51613,1,0,0:0:0:0:
402,192,51613,1,0,0:0:0:0:
475,192,51613,1,0,0:0:0:0:
182,192,51680,128,0,51746:0:0:0:0:
256,192,51746,128,0,51813:0:0:0:0:
402,192,51746,1,0,0:0:0:0:
329,192,51813,128,0,51879:0:0:0:0:
402,192,51879,128,0,51945:0:0:0:0:
182,192,51879,128,0,52012:0:0:0:0:
109,192,51912,128,0,52078:0:0:0:0:
329,192,51945,128,0,52012:0:0:0:0:
36,192,51945,128,0,52344:0:0:0:0:
256,192,52012,128,0,52078:0:0:0:0:
402,192,52012,1,0,0:0:0:0:
182,192,52078,128,0,52144:0:0:0:0:
109,192,52144,128,0,52211:0:0:0:0:
402,192,52144,128,0,52211:0:0:0:0:
475,192,52144,1,0,0:0:0:0:
329,192,52144,1,0,0:0:0:0:
329,192,52211,128,0,52277:0:0:0:0:
256,192,52277,128,0,52344:0:0:0:0:
182,192,52344,128,0,52410:0:0:0:0:
475,192,52410,128,0,52675:0:0:0:0:
109,192,52410,128,0,52476:0:0:0:0:
36,192,52410,128,0,52443:0:0:0:0:
256,192,52410,128,0,52476:0:0:0:0:
329,192,52410,128,0,52543:0:0:0:0:
402,192,52410,128,0,52609:0:0:0:0:
182,192,52476,1,0,0:0:0:0:
256,192,52543,128,0,52609:0:0:0:0:
329,192,52609,1,0,0:0:0:0:
36,192,52675,128,0,52941:0:0:0:0:
402,192,52675,128,0,52742:0:0:0:0:
109,192,52675,128,0,52875:0:0:0:0:
256,192,52675,128,0,52742:0:0:0:0:
182,192,52675,128,0,52808:0:0:0:0:
329,192,52742,1,0,0:0:0:0:
256,192,52808,128,0,52875:0:0:0:0:
182,192,52875,1,0,0:0:0:0:
475,192,52941,128,0,53206:0:0:0:0:
109,192,52941,128,0,53007:0:0:0:0:
402,192,52941,128,0,53140:0:0:0:0:
256,192,52941,128,0,53007:0:0:0:0:
329,192,52941,128,0,53074:0:0:0:0:
182,192,53007,1,0,0:0:0:0:
256,192,53074,128,0,53140:0:0:0:0:
329,192,53140,1,0,0:0:0:0:
109,192,53206,128,0,53405:0:0:0:0:
36,192,53206,128,0,53472:0:0:0:0:
182,192,53206,128,0,53339:0:0:0:0:
402,192,53206,128,0,53273:0:0:0:0:
256,192,53206,128,0,53273:0:0:0:0:
329,192,53273,1,0,0:0:0:0:
256,192,53339,128,0,53405:0:0:0:0:
182,192,53405,1,0,0:0:0:0:
109,192,53472,128,0,53671:0:0:0:0:
329,192,53472,1,0,0:0:0:0:
475,192,53472,1,0,0:0:0:0:
256,192,53538,128,0,53605:0:0:0:0:
402,192,53605,128,0,53804:0:0:0:0:
256,192,53671,128,0,53737:0:0:0:0:
109,192,53737,128,0,53936:0:0:0:0:
182,192,53737,1,0,0:0:0:0:
36,192,53737,1,0,0:0:0:0:
256,192,53804,128,0,53870:0:0:0:0:
402,192,53870,128,0,53936:0:0:0:0:
256,192,53936,128,0,54003:0:0:0:0:
109,192,54003,1,0,0:0:0:0:
402,192,54003,1,0,0:0:0:0:
182,192,54003,128,0,54158:0:0:0:0:
36,192,54025,128,0,54180:0:0:0:0:
256,192,54136,1,0,0:0:0:0:
109,192,54136,1,0,0:0:0:0:
402,192,54136,1,0,0:0:0:0:
475,192,54136,128,0,54290:0:0:0:0:
329,192,54158,128,0,54313:0:0:0:0:
182,192,54202,128,0,54357:0:0:0:0:
36,192,54224,128,0,54379:0:0:0:0:
256,192,54268,1,0,0:0:0:0:
109,192,54268,1,0,0:0:0:0:
402,192,54268,1,0,0:0:0:0:
475,192,54335,128,0,54490:0:0:0:0:
329,192,54357,128,0,54490:0:0:0:0:
402,192,54401,1,0,0:0:0:0:
256,192,54401,1,0,0:0:0:0:
109,192,54401,1,0,0:0:0:0:
182,192,54401,128,0,54490:0:0:0:0:
36,192,54423,128,0,54490:0:0:0:0:
36,192,54534,128,0,54866:0:0:0:0:
256,192,54534,128,0,54600:0:0:0:0:
329,192,54534,128,0,54667:0:0:0:0:
402,192,54534,128,0,54733:0:0:0:0:
475,192,54534,128,0,54766:0:0:0:0:
182,192,54534,128,0,54567:0:0:0:0:
109,192,54600,128,0,54832:0:0:0:0:
182,192,54667,128,0,54799:0:0:0:0:
256,192,54733,128,0,54766:0:0:0:0:
329,192,54799,128,0,54965:0:0:0:0:
402,192,54799,128,0,54832:0:0:0:0:
256,192,54866,128,0,54998:0:0:0:0:
182,192,54866,128,0,54899:0:0:0:0:
109,192,54932,128,0,55032:0:0:0:0:
36,192,54932,128,0,54965:0:0:0:0:
475,192,54932,128,0,55032:0:0:0:0:
402,192,54998,128,0,55032:0:0:0:0:
475,192,55065,128,0,55397:0:0:0:0:
256,192,55065,128,0,55131:0:0:0:0:
182,192,55065,128,0,55198:0:0:0:0:
109,192,55065,128,0,55264:0:0:0:0:
36,192,55065,128,0,55297:0:0:0:0:
329,192,55065,128,0,55098:0:0:0:0:
402,192,55131,128,0,55363:0:0:0:0:
329,192,55198,128,0,55330:0:0:0:0:
256,192,55264,128,0,55297:0:0:0:0:
182,192,55330,128,0,55496:0:0:0:0:
109,192,55330,128,0,55363:0:0:0:0:
256,192,55397,128,0,55529:0:0:0:0:
329,192,55397,128,0,55430:0:0:0:0:
36,192,55463,128,0,55563:0:0:0:0:
475,192,55463,128,0,55496:0:0:0:0:
402,192,55463,128,0,55563:0:0:0:0:
109,192,55529,128,0,55563:0:0:0:0:
402,192,55596,128,0,55662:0:0:0:0:
329,192,55596,128,0,55728:0:0:0:0:
256,192,55596,128,0,55795:0:0:0:0:
182,192,55596,128,0,55662:0:0:0:0:
36,192,55596,128,0,55728:0:0:0:0:
475,192,55662,1,0,0:0:0:0:
109,192,55662,128,0,55795:0:0:0:0:
402,192,55728,1,0,0:0:0:0:
182,192,55728,128,0,55861:0:0:0:0:
329,192,55795,1,0,0:0:0:0:
36,192,55795,128,0,55994:0:0:0:0:
256,192,55861,1,0,0:0:0:0:
475,192,55861,128,0,56060:0:0:0:0:
109,192,55861,128,0,55928:0:0:0:0:
402,192,55928,128,0,56060:0:0:0:0:
182,192,55928,1,0,0:0:0:0:
109,192,55994,1,0,0:0:0:0:
329,192,55994,128,0,56060:0:0:0:0:
256,192,56060,1,0,0:0:0:0:
36,192,56060,1,0,0:0:0:0:
329,192,56127,128,0,56326:0:0:0:0:
182,192,56127,128,0,56326:0:0:0:0:
402,192,56127,128,0,56193:0:0:0:0:
109,192,56127,128,0,56193:0:0:0:0:
36,192,56193,128,0,56259:0:0:0:0:
402,192,56259,1,0,0:0:0:0:
109,192,56259,1,0,0:0:0:0:
475,192,56259,128,0,56326:0:0:0:0:
256,192,56326,128,0,56392:0:0:0:0:
402,192,56392,128,0,56591:0:0:0:0:
109,192,56392,128,0,56591:0:0:0:0:
475,192,56392,128,0,56459:0:0:0:0:
36,192,56392,128,0,56459:0:0:0:0:
329,192,56459,128,0,56525:0:0:0:0:
475,192,56525,1,0,0:0:0:0:
36,192,56525,1,0,0:0:0:0:
182,192,56525,128,0,56591:0:0:0:0:
329,192,56591,128,0,56658:0:0:0:0:
36,192,56658,128,0,56890:0:0:0:0:
475,192,56658,128,0,56890:0:0:0:0:
256,192,56658,128,0,56724:0:0:0:0:
109,192,56658,128,0,56724:0:0:0:0:
402,192,56724,128,0,56790:0:0:0:0:
109,192,56790,1,0,0:0:0:0:
329,192,56790,128,0,56857:0:0:0:0:
256,192,56857,128,0,56923:0:0:0:0:
329,192,56923,128,0,57155:0:0:0:0:
182,192,56923,128,0,57155:0:0:0:0:
402,192,56923,128,0,56990:0:0:0:0:
109,192,56923,128,0,56990:0:0:0:0:
36,192,56990,128,0,57056:0:0:0:0:
109,192,57056,1,0,0:0:0:0:
475,192,57056,128,0,57122:0:0:0:0:
402,192,57056,1,0,0:0:0:0:
256,192,57122,128,0,57189:0:0:0:0:
475,192,57189,128,0,57255:0:0:0:0:
109,192,57189,128,0,57421:0:0:0:0:
402,192,57189,128,0,57421:0:0:0:0:
36,192,57189,128,0,57255:0:0:0:0:
329,192,57255,128,0,57321:0:0:0:0:
475,192,57321,1,0,0:0:0:0:
182,192,57321,128,0,57388:0:0:0:0:
36,192,57321,1,0,0:0:0:0:
329,192,57388,128,0,57454:0:0:0:0:
36,192,57454,128,0,57686:0:0:0:0:
475,192,57454,128,0,57686:0:0:0:0:
256,192,57454,128,0,57521:0:0:0:0:
109,192,57454,128,0,57521:0:0:0:0:
402,192,57454,128,0,57521:0:0:0:0:
182,192,57521,128,0,57587:0:0:0:0:
329,192,57587,128,0,57653:0:0:0:0:
109,192,57587,1,0,0:0:0:0:
402,192,57587,1,0,0:0:0:0:
256,192,57653,128,0,57720:0:0:0:0:
36,192,57720,1,0,0:0:0:0:
475,192,57720,1,0,0:0:0:0:
402,192,57720,128,0,57985:0:0:0:0:
109,192,57720,128,0,57985:0:0:0:0:
182,192,57786,128,0,57852:0:0:0:0:
329,192,57852,128,0,57919:0:0:0:0:
475,192,57852,128,0,57919:0:0:0:0:
256,192,57919,128,0,57985:0:0:0:0:
36,192,57985,128,0,58051:0:0:0:0:
475,192,57985,128,0,58051:0:0:0:0:
329,192,57985,1,0,0:0:0:0:
182,192,58051,128,0,58118:0:0:0:0:
109,192,58118,128,0,58184:0:0:0:0:
475,192,58118,1,0,0:0:0:0:
402,192,58118,128,0,58184:0:0:0:0:
256,192,58184,128,0,58251:0:0:0:0:
329,192,58251,128,0,58516:0:0:0:0:
182,192,58251,128,0,58516:0:0:0:0:
36,192,58251,128,0,58317:0:0:0:0:
475,192,58251,128,0,58317:0:0:0:0:
109,192,58317,128,0,58383:0:0:0:0:
36,192,58383,1,0,0:0:0:0:
475,192,58383,1,0,0:0:0:0:
402,192,58383,128,0,58450:0:0:0:0:
256,192,58450,128,0,58516:0:0:0:0:
36,192,58516,128,0,58582:0:0:0:0:
109,192,58516,1,0,0:0:0:0:
475,192,58516,128,0,58582:0:0:0:0:
402,192,58582,128,0,58649:0:0:0:0:
182,192,58582,128,0,58649:0:0:0:0:
256,192,58649,128,0,58715:0:0:0:0:
109,192,58649,128,0,58715:0:0:0:0:
329,192,58715,128,0,58782:0:0:0:0:
475,192,58715,128,0,58782:0:0:0:0:
36,192,58782,128,0,58815:0:0:0:0:
109,192,58782,128,0,58848:0:0:0:0:
256,192,58782,128,0,58948:0:0:0:0:
182,192,58782,128,0,59014:0:0:0:0:
402,192,58848,1,0,0:0:0:0:
109,192,58914,1,0,0:0:0:0:
329,192,58914,1,0,0:0:0:0:
256,192,58981,1,0,0:0:0:0:
36,192,58981,128,0,59047:0:0:0:0:
182,192,59047,1,0,0:0:0:0:
256,192,59047,128,0,59213:0:0:0:0:
475,192,59047,128,0,59080:0:0:0:0:
402,192,59047,128,0,59113:0:0:0:0:
329,192,59047,128,0,59279:0:0:0:0:
109,192,59113,1,0,0:0:0:0:
402,192,59180,1,0,0:0:0:0:
182,192,59180,1,0,0:0:0:0:
256,192,59246,1,0,0:0:0:0:
475,192,59246,128,0,59313:0:0:0:0:
329,192,59313,1,0,0:0:0:0:
36,192,59313,128,0,59346:0:0:0:0:
109,192,59313,128,0,59379:0:0:0:0:
256,192,59313,128,0,59478:0:0:0:0:
182,192,59313,128,0,59545:0:0:0:0:
402,192,59379,1,0,0:0:0:0:
109,192,59445,1,0,0:0:0:0:
329,192,59445,1,0,0:0:0:0:
256,192,59512,1,0,0:0:0:0:
36,192,59512,128,0,59578:0:0:0:0:
475,192,59578,128,0,59611:0:0:0:0:
256,192,59578,128,0,59744:0:0:0:0:
329,192,59578,128,0,59810:0:0:0:0:
402,192,59578,128,0,59644:0:0:0:0:
182,192,59578,1,0,0:0:0:0:
109,192,59644,1,0,0:0:0:0:
182,192,59711,1,0,0:0:0:0:
402,192,59711,1,0,0:0:0:0:
256,192,59777,1,0,0:0:0:0:
475,192,59777,128,0,59844:0:0:0:0:
329,192,59844,1,0,0:0:0:0:
36,192,59844,128,0,59910:0:0:0:0:
109,192,59844,128,0,59910:0:0:0:0:
182,192,59844,128,0,59976:0:0:0:0:
256,192,59910,128,0,60043:0:0:0:0:
329,192,59976,128,0,60109:0:0:0:0:
109,192,59976,1,0,0:0:0:0:
36,192,59976,1,0,0:0:0:0:
402,192,60043,128,0,60076:0:0:0:0:
475,192,60043,128,0,60076:0:0:0:0:
182,192,60043,1,0,0:0:0:0:
256,192,60109,1,0,0:0:0:0:
36,192,60109,128,0,60242:0:0:0:0:
109,192,60109,128,0,60242:0:0:0:0:
329,192,60175,1,0,0:0:0:0:
402,192,60175,128,0,60308:0:0:0:0:
182,192,60242,1,0,0:0:0:0:
475,192,60242,1,0,0:0:0:0:
256,192,60242,128,0,60375:0:0:0:0:
36,192,60308,1,0,0:0:0:0:
109,192,60308,128,0,60507:0:0:0:0:
475,192,60375,128,0,60441:0:0:0:0:
402,192,60375,128,0,60441:0:0:0:0:
329,192,60375,128,0,60507:0:0:0:0:
182,192,60375,1,0,0:0:0:0:
256,192,60441,128,0,60574:0:0:0:0:
182,192,60507,128,0,60640:0:0:0:0:
402,192,60507,1,0,0:0:0:0:
475,192,60507,1,0,0:0:0:0:
109,192,60574,128,0,60607:0:0:0:0:
36,192,60574,128,0,60607:0:0:0:0:
329,192,60574,1,0,0:0:0:0:
256,192,60640,1,0,0:0:0:0:
475,192,60640,128,0,60773:0:0:0:0:
402,192,60640,128,0,60773:0:0:0:0:
182,192,60706,1,0,0:0:0:0:
109,192,60706,128,0,60839:0:0:0:0:
329,192,60773,1,0,0:0:0:0:
36,192,60773,1,0,0:0:0:0:
256,192,60773,128,0,60905:0:0:0:0:
475,192,60839,1,0,0:0:0:0:
402,192,60839,128,0,61038:0:0:0:0:
36,192,60905,128,0,60972:0:0:0:0:
109,192,60905,128,0,60972:0:0:0:0:
182,192,60905,128,0,61038:0:0:0:0:
329,192,60905,128,0,60972:0:0:0:0:
256,192,60972,128,0,61105:0:0:0:0:
329,192,61038,128,0,61171:0:0:0:0:
36,192,61038,1,0,0:0:0:0:
109,192,61038,128,0,61105:0:0:0:0:
402,192,61105,128,0,61138:0:0:0:0:
475,192,61105,128,0,61138:0:0:0:0:
182,192,61105,1,0,0:0:0:0:
36,192,61171,128,0,61304:0:0:0:0:
109,192,61171,128,0,61304:0:0:0:0:
256,192,61171,128,0,61237:0:0:0:0:
329,192,61237,1,0,0:0:0:0:
402,192,61237,128,0,61370:0:0:0:0:
182,192,61304,1,0,0:0:0:0:
475,192,61304,1,0,0:0:0:0:
256,192,61304,128,0,61436:0:0:0:0:
36,192,61370,1,0,0:0:0:0:
109,192,61370,128,0,61569:0:0:0:0:
329,192,61436,128,0,61569:0:0:0:0:
182,192,61436,128,0,61503:0:0:0:0:
475,192,61436,128,0,61503:0:0:0:0:
402,192,61436,128,0,61503:0:0:0:0:
256,192,61503,128,0,61636:0:0:0:0:
402,192,61569,128,0,61636:0:0:0:0:
182,192,61569,128,0,61702:0:0:0:0:
475,192,61569,1,0,0:0:0:0:
329,192,61636,1,0,0:0:0:0:
36,192,61636,128,0,61669:0:0:0:0:
109,192,61636,128,0,61669:0:0:0:0:
256,192,61702,128,0,61768:0:0:0:0:
475,192,61702,128,0,61835:0:0:0:0:
402,192,61702,128,0,61835:0:0:0:0:
182,192,61768,1,0,0:0:0:0:
109,192,61768,128,0,61901:0:0:0:0:
256,192,61835,128,0,61967:0:0:0:0:
329,192,61835,1,0,0:0:0:0:
36,192,61835,1,0,0:0:0:0:
475,192,61901,1,0,0:0:0:0:
402,192,61901,128,0,62100:0:0:0:0:
182,192,61901,1,0,0:0:0:0:
329,192,61967,1,0,0:0:0:0:
36,192,61967,128,0,62200:0:0:0:0:
475,192,62034,1,0,0:0:0:0:
182,192,62034,128,0,62266:0:0:0:0:
329,192,62100,128,0,62332:0:0:0:0:
109,192,62100,1,0,0:0:0:0:
475,192,62167,128,0,62399:0:0:0:0:
256,192,62167,1,0,0:0:0:0:
36,192,62233,128,0,62465:0:0:0:0:
402,192,62233,1,0,0:0:0:0:
182,192,62299,128,0,62532:0:0:0:0:
109,192,62299,1,0,0:0:0:0:
329,192,62366,128,0,62598:0:0:0:0:
256,192,62366,1,0,0:0:0:0:
475,192,62432,128,0,62664:0:0:0:0:
402,192,62432,1,0,0:0:0:0:
36,192,62498,128,0,62731:0:0:0:0:
109,192,62498,1,0,0:0:0:0:
182,192,62565,128,0,62731:0:0:0:0:
256,192,62565,1,0,0:0:0:0:
329,192,62631,128,0,62731:0:0:0:0:
402,192,62631,1,0,0:0:0:0:
475,192,62698,128,0,62764:0:0:0:0:
36,192,62764,1,0,0:0:0:0:
109,192,62764,1,0,0:0:0:0:
182,192,62764,1,0,0:0:0:0:
256,192,62764,1,0,0:0:0:0:
329,192,62764,1,0,0:0:0:0:
402,192,62764,1,0,0:0:0:0:
475,192,62897,1,0,0:0:0:0:
402,192,62897,1,0,0:0:0:0:
256,192,62897,1,0,0:0:0:0:
182,192,62897,1,0,0:0:0:0:
109,192,62897,1,0,0:0:0:0:
329,192,62897,1,0,0:0:0:0:
182,192,63029,128,0,63560:0:0:0:0:
329,192,63560,128,0,64091:0:0:0:0:
109,192,64091,128,0,64357:0:0:0:0:
182,192,64357,128,0,64622:0:0:0:0:
329,192,64622,128,0,64888:0:0:0:0:
402,192,64888,128,0,65153:0:0:0:0:
256,192,65153,128,0,65684:0:0:0:0:
36,192,65419,128,0,66215:0:0:0:0:
475,192,65684,128,0,66746:0:0:0:0:
256,192,65950,128,0,67277:0:0:0:0:
109,192,66215,128,0,67277:0:0:0:0:
402,192,66746,128,0,67277:0:0:0:0:
475,192,67277,128,0,67526:0:0:0:0:
329,192,67277,128,0,67526:0:0:0:0:
36,192,67277,128,0,67526:0:0:0:0:
182,192,67277,128,0,67526:0:0:0:0:
182,192,67543,128,0,67792:0:0:0:0:
36,192,67543,128,0,67792:0:0:0:0:
329,192,67543,128,0,67792:0:0:0:0:
475,192,67543,128,0,67792:0:0:0:0:
329,192,67808,128,0,68057:0:0:0:0:
475,192,67808,128,0,68057:0:0:0:0:
182,192,67808,128,0,68057:0:0:0:0:
36,192,67808,128,0,68057:0:0:0:0:
182,192,68074,128,0,68323:0:0:0:0:
36,192,68074,128,0,68323:0:0:0:0:
329,192,68074,128,0,68323:0:0:0:0:
475,192,68074,128,0,68323:0:0:0:0:
329,192,68339,128,0,68588:0:0:0:0:
475,192,68339,128,0,68588:0:0:0:0:
182,192,68339,128,0,68588:0:0:0:0:
36,192,68339,128,0,68588:0:0:0:0:
475,192,69401,128,0,69932:0:0:0:0:
182,192,69401,128,0,69467:0:0:0:0:
402,192,69401,128,0,69467:0:0:0:0:
256,192,69401,1,0,0:0:0:0:
109,192,69401,1,0,0:0:0:0:
36,192,69467,128,0,69534:0:0:0:0:
329,192,69467,128,0,69534:0:0:0:0:
182,192,69534,128,0,69600:0:0:0:0:
402,192,69534,128,0,69600:0:0:0:0:
36,192,69600,128,0,69667:0:0:0:0:
329,192,69600,128,0,69667:0:0:0:0:
182,192,69667,128,0,69932:0:0:0:0:
402,192,69667,128,0,69866:0:0:0:0:
256,192,69733,128,0,69799:0:0:0:0:
109,192,69733,128,0,69799:0:0:0:0:
36,192,69799,128,0,69866:0:0:0:0:
329,192,69799,128,0,69866:0:0:0:0:
256,192,69866,128,0,69932:0:0:0:0:
402,192,69932,128,0,70463:0:0:0:0:
329,192,69932,128,0,69998:0:0:0:0:
109,192,69932,128,0,69998:0:0:0:0:
36,192,69998,128,0,70065:0:0:0:0:
475,192,69998,128,0,70065:0:0:0:0:
109,192,70065,128,0,70131:0:0:0:0:
329,192,70065,128,0,70131:0:0:0:0:
182,192,70131,128,0,70198:0:0:0:0:
475,192,70131,128,0,70198:0:0:0:0:
109,192,70198,128,0,70463:0:0:0:0:
36,192,70198,1,0,0:0:0:0:
329,192,70198,128,0,70264:0:0:0:0:
256,192,70264,128,0,70330:0:0:0:0:
475,192,70264,128,0,70330:0:0:0:0:
329,192,70330,128,0,70397:0:0:0:0:
256,192,70397,128,0,70463:0:0:0:0:
329,192,70463,128,0,70728:0:0:0:0:
36,192,70463,128,0,70728:0:0:0:0:
182,192,70463,1,0,0:0:0:0:
475,192,70463,1,0,0:0:0:0:
402,192,70529,128,0,70596:0:0:0:0:
256,192,70596,128,0,70662:0:0:0:0:
109,192,70596,128,0,70662:0:0:0:0:
182,192,70662,128,0,70728:0:0:0:0:
109,192,70728,128,0,70994:0:0:0:0:
402,192,70728,128,0,70994:0:0:0:0:
475,192,70728,1,0,0:0:0:0:
36,192,70795,128,0,70861:0:0:0:0:
182,192,70861,128,0,70928:0:0:0:0:
329,192,70861,128,0,70928:0:0:0:0:
256,192,70928,128,0,70994:0:0:0:0:
182,192,70994,128,0,71259:0:0:0:0:
475,192,70994,128,0,71259:0:0:0:0:
329,192,70994,1,0,0:0:0:0:
36,192,70994,1,0,0:0:0:0:
109,192,71060,128,0,71127:0:0:0:0:
256,192,71127,128,0,71193:0:0:0:0:
402,192,71127,128,0,71193:0:0:0:0:
329,192,71193,128,0,71259:0:0:0:0:
402,192,71259,128,0,71525:0:0:0:0:
109,192,71259,128,0,71525:0:0:0:0:
36,192,71259,1,0,0:0:0:0:
256,192,71326,128,0,71392:0:0:0:0:
182,192,71392,128,0,71459:0:0:0:0:
329,192,71392,128,0,71459:0:0:0:0:
475,192,71459,128,0,71525:0:0:0:0:
36,192,71525,128,0,71790:0:0:0:0:
256,192,71525,128,0,71591:0:0:0:0:
182,192,71525,1,0,0:0:0:0:
109,192,71591,128,0,71724:0:0:0:0:
329,192,71591,128,0,71658:0:0:0:0:
182,192,71658,128,0,71691:0:0:0:0:
402,192,71658,128,0,71724:0:0:0:0:
475,192,71724,128,0,71857:0:0:0:0:
182,192,71790,128,0,72056:0:0:0:0:
329,192,71790,1,0,0:0:0:0:
256,192,71790,1,0,0:0:0:0:
402,192,71790,128,0,71923:0:0:0:0:
256,192,71857,128,0,71990:0:0:0:0:
109,192,71857,128,0,71923:0:0:0:0:
329,192,71923,128,0,71956:0:0:0:0:
36,192,71923,128,0,71990:0:0:0:0:
109,192,71990,128,0,72056:0:0:0:0:
475,192,72056,128,0,72321:0:0:0:0:
256,192,72056,128,0,72122:0:0:0:0:
329,192,72056,1,0,0:0:0:0:
402,192,72122,128,0,72255:0:0:0:0:
182,192,72122,128,0,72189:0:0:0:0:
329,192,72189,128,0,72222:0:0:0:0:
109,192,72189,128,0,72255:0:0:0:0:
36,192,72255,128,0,72388:0:0:0:0:
329,192,72321,128,0,72587:0:0:0:0:
182,192,72321,1,0,0:0:0:0:
256,192,72321,1,0,0:0:0:0:
109,192,72321,128,0,72454:0:0:0:0:
256,192,72388,128,0,72521:0:0:0:0:
402,192,72388,128,0,72454:0:0:0:0:
182,192,72454,128,0,72487:0:0:0:0:
475,192,72454,128,0,72521:0:0:0:0:
402,192,72521,128,0,72587:0:0:0:0:
475,192,72587,128,0,72786:0:0:0:0:
36,192,72587,128,0,72653:0:0:0:0:
182,192,72587,1,0,0:0:0:0:
256,192,72587,128,0,72720:0:0:0:0:
329,192,72653,128,0,72786:0:0:0:0:
109,192,72653,128,0,72720:0:0:0:0:
402,192,72720,128,0,72852:0:0:0:0:
182,192,72720,128,0,72786:0:0:0:0:
109,192,72786,128,0,72852:0:0:0:0:
36,192,72852,128,0,73051:0:0:0:0:
475,192,72852,128,0,72919:0:0:0:0:
329,192,72852,1,0,0:0:0:0:
256,192,72852,128,0,72985:0:0:0:0:
182,192,72919,128,0,73051:0:0:0:0:
402,192,72919,128,0,72985:0:0:0:0:
109,192,72985,128,0,73118:0:0:0:0:
329,192,72985,128,0,73051:0:0:0:0:
402,192,73051,128,0,73118:0:0:0:0:
182,192,73118,1,0,0:0:0:0:
36,192,73118,128,0,73317:0:0:0:0:
475,192,73118,128,0,73184:0:0:0:0:
256,192,73118,128,0,73251:0:0:0:0:
402,192,73184,128,0,73251:0:0:0:0:
182,192,73184,128,0,73317:0:0:0:0:
109,192,73251,128,0,73383:0:0:0:0:
329,192,73251,128,0,73317:0:0:0:0:
402,192,73317,128,0,73383:0:0:0:0:
36,192,73383,128,0,73450:0:0:0:0:
256,192,73383,128,0,73516:0:0:0:0:
475,192,73383,128,0,73582:0:0:0:0:
182,192,73383,1,0,0:0:0:0:
109,192,73450,128,0,73516:0:0:0:0:
329,192,73450,128,0,73582:0:0:0:0:
182,192,73516,128,0,73582:0:0:0:0:
402,192,73516,128,0,73649:0:0:0:0:
109,192,73582,128,0,73649:0:0:0:0:
475,192,73649,128,0,73759:0:0:0:0:
256,192,73649,1,0,0:0:0:0:
329,192,73671,128,0,73782:0:0:0:0:
182,192,73715,128,0,73826:0:0:0:0:
36,192,73737,1,0,0:0:0:0:
475,192,73782,128,0,73892:0:0:0:0:
329,192,73804,128,0,73914:0:0:0:0:
182,192,73848,1,0,0:0:0:0:
36,192,73870,128,0,73981:0:0:0:0:
475,192,73914,128,0,74025:0:0:0:0:
402,192,73914,1,0,0:0:0:0:
329,192,73936,1,0,0:0:0:0:
182,192,73981,128,0,74091:0:0:0:0:
36,192,74003,128,0,74113:0:0:0:0:
475,192,74047,1,0,0:0:0:0:
329,192,74069,128,0,74180:0:0:0:0:
182,192,74113,128,0,74224:0:0:0:0:
36,192,74136,128,0,74246:0:0:0:0:
475,192,74180,128,0,74290:0:0:0:0:
109,192,74180,1,0,0:0:0:0:
329,192,74202,1,0,0:0:0:0:
182,192,74246,128,0,74357:0:0:0:0:
36,192,74268,128,0,74379:0:0:0:0:
475,192,74313,128,0,74423:0:0:0:0:
329,192,74335,128,0,74445:0:0:0:0:
182,192,74379,1,0,0:0:0:0:
36,192,74401,128,0,74512:0:0:0:0:
475,192,74445,128,0,74556:0:0:0:0:
256,192,74445,1,0,0:0:0:0:
329,192,74467,128,0,74578:0:0:0:0:
182,192,74512,128,0,74622:0:0:0:0:
36,192,74534,1,0,0:0:0:0:
475,192,74578,1,0,0:0:0:0:
329,192,74600,1,0,0:0:0:0:
256,192,74644,1,0,0:0:0:0:
109,192,74667,1,0,0:0:0:0:
36,192,74711,128,0,74821:0:0:0:0:
402,192,74711,1,0,0:0:0:0:
182,192,74733,128,0,74844:0:0:0:0:
329,192,74777,128,0,74888:0:0:0:0:
475,192,74799,1,0,0:0:0:0:
36,192,74844,128,0,74954:0:0:0:0:
182,192,74866,128,0,74976:0:0:0:0:
329,192,74910,1,0,0:0:0:0:
475,192,74932,128,0,75043:0:0:0:0:
36,192,74976,128,0,75087:0:0:0:0:
256,192,74976,1,0,0:0:0:0:
182,192,74998,1,0,0:0:0:0:
329,192,75043,128,0,75153:0:0:0:0:
475,192,75065,128,0,75175:0:0:0:0:
36,192,75109,1,0,0:0:0:0:
182,192,75131,128,0,75242:0:0:0:0:
329,192,75175,128,0,75286:0:0:0:0:
475,192,75198,128,0,75308:0:0:0:0:
36,192,75242,128,0,75352:0:0:0:0:
109,192,75242,1,0,0:0:0:0:
182,192,75264,1,0,0:0:0:0:
329,192,75308,128,0,75419:0:0:0:0:
475,192,75330,128,0,75441:0:0:0:0:
36,192,75375,128,0,75485:0:0:0:0:
182,192,75397,128,0,75507:0:0:0:0:
329,192,75441,1,0,0:0:0:0:
475,192,75463,128,0,75574:0:0:0:0:
36,192,75507,128,0,75618:0:0:0:0:
256,192,75507,1,0,0:0:0:0:
182,192,75529,128,0,75640:0:0:0:0:
329,192,75574,128,0,75684:0:0:0:0:
475,192,75596,1,0,0:0:0:0:
36,192,75640,1,0,0:0:0:0:
182,192,75662,1,0,0:0:0:0:
256,192,75706,1,0,0:0:0:0:
402,192,75728,1,0,0:0:0:0:
475,192,75773,128,0,75883:0:0:0:0:
109,192,75773,1,0,0:0:0:0:
329,192,75795,128,0,75905:0:0:0:0:
182,192,75839,128,0,75950:0:0:0:0:
36,192,75861,1,0,0:0:0:0:
475,192,75905,128,0,76016:0:0:0:0:
329,192,75928,128,0,76038:0:0:0:0:
182,192,75972,1,0,0:0:0:0:
36,192,75994,128,0,76105:0:0:0:0:
475,192,76038,128,0,76149:0:0:0:0:
256,192,76038,1,0,0:0:0:0:
329,192,76060,1,0,0:0:0:0:
182,192,76105,128,0,76215:0:0:0:0:
36,192,76127,128,0,76237:0:0:0:0:
475,192,76171,1,0,0:0:0:0:
329,192,76193,128,0,76304:0:0:0:0:
182,192,76237,128,0,76348:0:0:0:0:
36,192,76259,128,0,76370:0:0:0:0:
475,192,76304,128,0,76414:0:0:0:0:
402,192,76304,1,0,0:0:0:0:
329,192,76326,1,0,0:0:0:0:
182,192,76370,128,0,76481:0:0:0:0:
36,192,76392,128,0,76503:0:0:0:0:
475,192,76436,128,0,76547:0:0:0:0:
329,192,76459,128,0,76569:0:0:0:0:
182,192,76503,1,0,0:0:0:0:
36,192,76525,128,0,76636:0:0:0:0:
475,192,76569,128,0,76680:0:0:0:0:
256,192,76569,1,0,0:0:0:0:
329,192,76591,128,0,76702:0:0:0:0:
182,192,76636,128,0,76746:0:0:0:0:
36,192,76658,1,0,0:0:0:0:
475,192,76702,1,0,0:0:0:0:
329,192,76724,1,0,0:0:0:0:
256,192,76768,1,0,0:0:0:0:
109,192,76790,1,0,0:0:0:0:
36,192,76835,128,0,76945:0:0:0:0:
402,192,76835,1,0,0:0:0:0:
182,192,76857,128,0,76967:0:0:0:0:
329,192,76901,128,0,77012:0:0:0:0:
475,192,76923,1,0,0:0:0:0:
36,192,76967,128,0,77078:0:0:0:0:
182,192,76990,128,0,77100:0:0:0:0:
329,192,77034,1,0,0:0:0:0:
475,192,77056,128,0,77167:0:0:0:0:
36,192,77100,128,0,77211:0:0:0:0:
256,192,77100,1,0,0:0:0:0:
182,192,77122,1,0,0:0:0:0:
329,192,77167,128,0,77277:0:0:0:0:
475,192,77189,128,0,77299:0:0:0:0:
36,192,77233,1,0,0:0:0:0:
182,192,77255,128,0,77366:0:0:0:0:
329,192,77299,128,0,77410:0:0:0:0:
475,192,77321,128,0,77432:0:0:0:0:
36,192,77366,128,0,77476:0:0:0:0:
109,192,77366,1,0,0:0:0:0:
182,192,77388,1,0,0:0:0:0:
329,192,77432,128,0,77543:0:0:0:0:
475,192,77454,128,0,77565:0:0:0:0:
36,192,77498,128,0,77609:0:0:0:0:
182,192,77521,128,0,77631:0:0:0:0:
329,192,77565,1,0,0:0:0:0:
475,192,77587,128,0,77698:0:0:0:0:
36,192,77631,128,0,77742:0:0:0:0:
256,192,77631,1,0,0:0:0:0:
182,192,77653,128,0,77764:0:0:0:0:
329,192,77698,128,0,77808:0:0:0:0:
475,192,77720,1,0,0:0:0:0:
36,192,77764,1,0,0:0:0:0:
182,192,77786,1,0,0:0:0:0:
256,192,77830,1,0,0:0:0:0:
402,192,77852,1,0,0:0:0:0:
36,192,77897,128,0,78378:0:0:0:0:
475,192,77897,128,0,77963:0:0:0:0:
109,192,77913,128,0,78295:0:0:0:0:
182,192,77930,128,0,78228:0:0:0:0:
402,192,77963,128,0,78029:0:0:0:0:
329,192,78029,128,0,78096:0:0:0:0:
256,192,78096,128,0,78162:0:0:0:0:
329,192,78162,128,0,78228:0:0:0:0:
402,192,78162,128,0,78361:0:0:0:0:
475,192,78162,128,0,78361:0:0:0:0:
256,192,78228,128,0,78295:0:0:0:0:
182,192,78295,128,0,78361:0:0:0:0:
109,192,78361,128,0,78428:0:0:0:0:
36,192,78428,1,0,0:0:0:0:
182,192,78428,128,0,78909:0:0:0:0:
475,192,78428,1,0,0:0:0:0:
402,192,78428,1,0,0:0:0:0:
256,192,78444,128,0,78826:0:0:0:0:
329,192,78461,128,0,78759:0:0:0:0:
36,192,78494,128,0,78560:0:0:0:0:
109,192,78560,128,0,78627:0:0:0:0:
402,192,78627,128,0,78693:0:0:0:0:
475,192,78693,128,0,78759:0:0:0:0:
109,192,78693,128,0,78892:0:0:0:0:
36,192,78693,128,0,78892:0:0:0:0:
402,192,78759,128,0,78826:0:0:0:0:
329,192,78826,128,0,78892:0:0:0:0:
256,192,78892,128,0,78959:0:0:0:0:
182,192,78959,1,0,0:0:0:0:
475,192,78959,128,0,79440:0:0:0:0:
402,192,78975,128,0,79357:0:0:0:0:
109,192,78992,1,0,0:0:0:0:
329,192,78992,128,0,79290:0:0:0:0:
36,192,79025,1,0,0:0:0:0:
256,192,79025,128,0,79091:0:0:0:0:
182,192,79091,128,0,79158:0:0:0:0:
109,192,79158,128,0,79224:0:0:0:0:
36,192,79224,128,0,79689:0:0:0:0:
182,192,79224,128,0,79290:0:0:0:0:
256,192,79290,128,0,79357:0:0:0:0:
109,192,79290,128,0,79622:0:0:0:0:
329,192,79357,128,0,79423:0:0:0:0:
182,192,79357,128,0,79556:0:0:0:0:
402,192,79423,128,0,79490:0:0:0:0:
256,192,79423,128,0,79490:0:0:0:0:
329,192,79490,128,0,79556:0:0:0:0:
475,192,79490,128,0,79954:0:0:0:0:
256,192,79556,128,0,79622:0:0:0:0:
402,192,79556,128,0,79888:0:0:0:0:
329,192,79622,128,0,79821:0:0:0:0:
182,192,79622,128,0,79689:0:0:0:0:
256,192,79689,128,0,79755:0:0:0:0:
109,192,79689,128,0,79755:0:0:0:0:
182,192,79755,128,0,79788:0:0:0:0:
36,192,79755,128,0,79788:0:0:0:0:
109,192,79821,128,0,79855:0:0:0:0:
256,192,79821,128,0,79855:0:0:0:0:
182,192,79888,128,0,79921:0:0:0:0:
329,192,79888,128,0,79921:0:0:0:0:
256,192,79954,128,0,79987:0:0:0:0:
402,192,79954,128,0,79987:0:0:0:0:
475,192,80021,128,0,80065:0:0:0:0:
182,192,80021,128,0,80153:0:0:0:0:
109,192,80021,128,0,80198:0:0:0:0:
36,192,80021,128,0,80242:0:0:0:0:
402,192,80065,128,0,80109:0:0:0:0:
329,192,80109,128,0,80153:0:0:0:0:
256,192,80153,128,0,80375:0:0:0:0:
182,192,80198,128,0,80330:0:0:0:0:
109,192,80242,128,0,80286:0:0:0:0:
329,192,80286,128,0,80419:0:0:0:0:
402,192,80286,128,0,80463:0:0:0:0:
36,192,80286,128,0,80330:0:0:0:0:
475,192,80286,128,0,80507:0:0:0:0:
109,192,80330,128,0,80375:0:0:0:0:
182,192,80375,128,0,80419:0:0:0:0:
256,192,80419,128,0,80640:0:0:0:0:
329,192,80463,128,0,80596:0:0:0:0:
402,192,80507,128,0,80551:0:0:0:0:
182,192,80551,128,0,80684:0:0:0:0:
109,192,80551,128,0,80728:0:0:0:0:
36,192,80551,128,0,80773:0:0:0:0:
475,192,80551,128,0,80596:0:0:0:0:
402,192,80596,128,0,80640:0:0:0:0:
329,192,80640,128,0,80684:0:0:0:0:
256,192,80684,128,0,80905:0:0:0:0:
182,192,80728,128,0,80861:0:0:0:0:
109,192,80773,128,0,80817:0:0:0:0:
36,192,80817,128,0,80861:0:0:0:0:
329,192,80817,128,0,80950:0:0:0:0:
402,192,80817,128,0,80994:0:0:0:0:
475,192,80817,128,0,81038:0:0:0:0:
109,192,80861,128,0,80905:0:0:0:0:
182,192,80905,128,0,80950:0:0:0:0:
256,192,80950,128,0,80994:0:0:0:0:
329,192,80994,128,0,81038:0:0:0:0:
402,192,81038,128,0,81082:0:0:0:0:
475,192,81082,128,0,81304:0:0:0:0:
256,192,81082,128,0,81127:0:0:0:0:
329,192,81149,128,0,81370:0:0:0:0:
109,192,81149,128,0,81193:0:0:0:0:
182,192,81215,128,0,81436:0:0:0:0:
402,192,81215,128,0,81259:0:0:0:0:
36,192,81282,128,0,81503:0:0:0:0:
256,192,81282,128,0,81326:0:0:0:0:
475,192,81348,128,0,81569:0:0:0:0:
109,192,81348,128,0,81392:0:0:0:0:
329,192,81414,128,0,81636:0:0:0:0:
402,192,81414,128,0,81459:0:0:0:0:
182,192,81481,128,0,81702:0:0:0:0:
256,192,81481,128,0,81525:0:0:0:0:
36,192,81547,128,0,81768:0:0:0:0:
109,192,81547,128,0,81591:0:0:0:0:
475,192,81613,128,0,81835:0:0:0:0:
402,192,81613,128,0,81658:0:0:0:0:
329,192,81680,128,0,81901:0:0:0:0:
256,192,81680,128,0,81724:0:0:0:0:
182,192,81746,128,0,81967:0:0:0:0:
109,192,81746,128,0,81790:0:0:0:0:
36,192,81813,128,0,82034:0:0:0:0:
402,192,81813,128,0,81857:0:0:0:0:
475,192,81879,128,0,81901:0:0:0:0:
256,192,81879,128,0,81923:0:0:0:0:
329,192,81945,128,0,81967:0:0:0:0:
109,192,81945,128,0,81990:0:0:0:0:
182,192,82012,128,0,82034:0:0:0:0:
36,192,82078,128,0,82100:0:0:0:0:
109,192,82144,128,0,82344:0:0:0:0:
329,192,82144,1,0,0:0:0:0:
475,192,82144,1,0,0:0:0:0:
402,192,82144,128,0,82211:0:0:0:0:
182,192,82144,1,0,0:0:0:0:
256,192,82211,128,0,82277:0:0:0:0:
402,192,82277,128,0,82476:0:0:0:0:
256,192,82344,128,0,82410:0:0:0:0:
109,192,82410,128,0,82609:0:0:0:0:
182,192,82410,1,0,0:0:0:0:
36,192,82410,1,0,0:0:0:0:
329,192,82410,1,0,0:0:0:0:
256,192,82476,128,0,82543:0:0:0:0:
402,192,82543,128,0,82609:0:0:0:0:
256,192,82609,128,0,82675:0:0:0:0:
109,192,82675,1,0,0:0:0:0:
402,192,82675,1,0,0:0:0:0:
182,192,82675,128,0,82830:0:0:0:0:
475,192,82675,128,0,82775:0:0:0:0:
329,192,82692,128,0,82792:0:0:0:0:
36,192,82698,128,0,82852:0:0:0:0:
256,192,82808,1,0,0:0:0:0:
109,192,82808,1,0,0:0:0:0:
402,192,82808,1,0,0:0:0:0:
475,192,82808,128,0,82963:0:0:0:0:
329,192,82830,128,0,82985:0:0:0:0:
182,192,82875,128,0,83029:0:0:0:0:
36,192,82897,128,0,83051:0:0:0:0:
256,192,82941,1,0,0:0:0:0:
109,192,82941,1,0,0:0:0:0:
402,192,82941,1,0,0:0:0:0:
475,192,83007,128,0,83190:0:0:0:0:
329,192,83024,128,0,83190:0:0:0:0:
402,192,83074,1,0,0:0:0:0:
256,192,83074,1,0,0:0:0:0:
109,192,83074,1,0,0:0:0:0:
182,192,83074,128,0,83190:0:0:0:0:
36,192,83090,128,0,83190:0:0:0:0:
36,192,83206,128,0,83721:0:0:0:0:
182,192,83206,128,0,83721:0:0:0:0:
329,192,83206,128,0,83721:0:0:0:0:
475,192,83206,128,0,83721:0:0:0:0:
109,192,83223,128,0,83240:0:0:0:0:
256,192,83223,128,0,83240:0:0:0:0:
402,192,83223,128,0,83240:0:0:0:0:
329,192,83737,128,0,84252:0:0:0:0:
182,192,83737,128,0,84252:0:0:0:0:
36,192,83737,128,0,84252:0:0:0:0:
475,192,83737,128,0,84252:0:0:0:0:
402,192,83754,128,0,83771:0:0:0:0:
109,192,83754,128,0,83771:0:0:0:0:
256,192,83754,128,0,83771:0:0:0:0:
36,192,84268,128,0,84285:0:0:0:0:
182,192,84268,128,0,84285:0:0:0:0:
329,192,84268,128,0,84285:0:0:0:0:
475,192,84268,128,0,84285:0:0:0:0:
109,192,84285,1,0,0:0:0:0:
402,192,84285,1,0,0:0:0:0:
256,192,84285,1,0,0:0:0:0:
