osu file format v14

[General]
AudioFilename: audio.mp3
AudioLeadIn: 0
PreviewTime: -1
Countdown: 1
SampleSet: Normal
StackLeniency: 0.7
Mode: 0
LetterboxInBreaks: 0
WidescreenStoryboard: 0

[Editor]
DistanceSpacing: 1.1
BeatDivisor: 8
GridSize: 4
TimelineZoom: 1

[Metadata]
Title:Kizuna AI - Fa Q loop
TitleUnicode:Kizuna AI - Fa Q loop
Artist:Anime MAX
ArtistUnicode:Anime MAX
Creator:kenny518646
Version:Normal
Source:Anime MAX
Tags:
BeatmapID:1532271
BeatmapSetID:725717

[Difficulty]
HPDrainRate:4
CircleSize:5
OverallDifficulty:5
ApproachRate:9
SliderMultiplier:1.4
SliderTickRate:1

[Events]
//Background and Video events
Video,0,"Kizuna Ai FA Q Loop.mp4"
0,0,"maxresdefault.jpg",0,0
//Break Periods
//Storyboard Layer 0 (Background)
//Storyboard Layer 1 (Fail)
//Storyboard Layer 2 (Pass)
//Storyboard Layer 3 (Foreground)
//Storyboard Sound Samples

[TimingPoints]
484,352.941176470588,4,1,0,100,1,0

[HitObjects]
256,68,484,5,0,0:0:0:0:
344,120,836,1,0,0:0:0:0:
376,220,1189,1,0,0:0:0:0:
300,296,1542,1,0,0:0:0:0:
204,300,1895,1,0,0:0:0:0:
136,236,2248,1,0,0:0:0:0:
124,136,2601,1,0,0:0:0:0:
224,72,2954,5,0,0:0:0:0:
224,156,3307,1,0,0:0:0:0:
312,76,3660,1,0,0:0:0:0:
316,152,4013,1,0,0:0:0:0:
388,236,4322,1,0,0:0:0:0:
388,236,4366,1,0,0:0:0:0:
312,304,4719,1,0,0:0:0:0:
216,308,5072,1,0,0:0:0:0:
228,228,5425,2,0,L|284:196,1,52.5
336,128,5778,5,0,0:0:0:0:
216,120,6131,1,0,0:0:0:0:
136,192,6483,2,0,L|152:268,1,70
168,332,6836,2,0,L|260:304,1,87.5
336,228,7189,1,0,0:0:0:0:
276,128,7542,2,0,L|160:196,1,122.5
264,288,8028,2,0,L|320:252,1,52.5
368,296,8248,1,0,0:0:0:0:
376,220,8601,1,0,0:0:0:0:
372,112,8733,6,0,L|288:136,1,87.5
216,164,9042,1,0,0:0:0:0:
264,260,9307,2,0,L|124:280,1,140
204,336,9748,1,0,0:0:0:0:
336,328,10057,2,0,L|332:268,1,52.5
408,240,10322,1,0,0:0:0:0:
364,180,10498,1,0,0:0:0:0:
340,160,10586,1,0,0:0:0:0:
312,136,10675,1,0,0:0:0:0:
288,120,10763,1,0,0:0:0:0:
264,100,10851,2,0,L|184:112,1,70
104,160,11204,2,0,L|236:184,1,122.5
256,256,11557,5,0,0:0:0:0:
340,216,11954,1,0,0:0:0:0:
356,120,12307,1,0,0:0:0:0:
300,88,12528,1,0,0:0:0:0:
240,88,12660,2,0,L|264:160,1,70
288,220,12969,2,0,L|132:208,6,140
284,284,15131,5,0,0:0:0:0:
240,328,15395,1,0,0:0:0:0:
340,336,15528,1,0,0:0:0:0:
360,252,15748,1,0,0:0:0:0:
400,204,15881,1,0,0:0:0:0:
280,228,16101,1,0,0:0:0:0:
196,152,16454,1,0,0:0:0:0:
224,144,16586,1,0,0:0:0:0:
136,208,16939,1,0,0:0:0:0:
220,88,17292,6,0,L|176:164,1,87.5
192,232,17645,2,0,L|244:136,1,105
328,116,17998,2,0,L|296:176,1,52.5
316,240,18219,2,0,L|348:184,1,52.5
416,136,18395,2,0,L|380:208,1,70
376,260,18616,1,0,0:0:0:0:
352,316,18704,6,0,L|256:316,1,87.5
120,244,19057,2,0,L|232:256,1,105
272,184,19454,1,0,0:0:0:0:
196,132,19631,1,0,0:0:0:0:
296,96,19807,1,0,0:0:0:0:
360,168,20028,1,0,0:0:0:0:
400,196,20160,2,0,L|256:232,4,140
424,264,21748,1,0,0:0:0:0:
336,280,21925,1,0,0:0:0:0:
292,284,22013,1,0,0:0:0:0:
256,284,22101,1,0,0:0:0:0:
224,284,22189,1,0,0:0:0:0:
192,288,22278,2,0,L|112:176,1,122.5
168,152,22675,1,0,0:0:0:0:
260,104,22983,5,0,0:0:0:0:
376,160,23381,1,0,0:0:0:0:
460,304,23689,1,0,0:0:0:0:
368,272,23954,1,0,0:0:0:0:
344,260,24086,1,0,0:0:0:0:
288,232,24307,1,0,0:0:0:0:
248,196,24439,2,0,L|128:136,1,122.5
96,196,24792,2,0,L|216:256,1,122.5
184,308,25145,5,0,0:0:0:0:
280,280,25542,1,0,0:0:0:0:
348,196,25895,1,0,0:0:0:0:
288,128,26204,1,0,0:0:0:0:
208,80,26557,1,0,0:0:0:0:
152,128,26822,1,0,0:0:0:0:
180,152,26954,1,0,0:0:0:0:
212,180,27131,1,0,0:0:0:0:
248,212,27307,1,0,0:0:0:0:
360,204,27528,1,0,0:0:0:0:
324,136,27836,1,0,0:0:0:0:
392,84,28013,6,0,L|352:196,1,105
304,216,28366,2,0,L|212:144,1,105
112,132,28719,2,0,L|200:196,1,105
264,304,29072,2,0,L|168:244,1,105
208,200,29425,1,0,0:0:0:0:
136,280,29689,1,0,0:0:0:0:
180,320,29822,1,0,0:0:0:0:
248,248,30042,1,0,0:0:0:0:
264,332,30175,2,0,L|356:240,2,122.5
256,260,30881,5,0,0:0:0:0:
208,192,31101,1,0,0:0:0:0:
176,172,31189,1,0,0:0:0:0:
120,144,31410,1,0,0:0:0:0:
148,88,31631,2,0,L|216:180,1,105
276,176,31939,2,0,L|212:96,1,87.5
308,88,32292,1,0,0:0:0:0:
372,144,32645,1,0,0:0:0:0:
420,208,32998,2,0,L|360:208,1,52.5
352,208,33175,1,0,0:0:0:0:
312,212,33351,1,0,0:0:0:0:
284,188,33439,1,0,0:0:0:0:
288,144,33528,1,0,0:0:0:0:
304,112,33616,1,0,0:0:0:0:
348,104,33704,2,0,L|228:104,1,105
164,104,34101,2,0,L|232:196,1,105
188,256,34454,5,0,0:0:0:0:
264,296,34807,1,0,0:0:0:0:
368,244,35160,1,0,0:0:0:0:
324,192,35381,1,0,0:0:0:0:
292,168,35513,1,0,0:0:0:0:
256,136,35733,1,0,0:0:0:0:
188,108,35866,2,0,L|160:180,1,70
132,236,36219,2,0,L|240:220,1,105
320,256,36572,2,0,L|212:284,1,105
132,292,36925,2,0,L|244:224,1,122.5
256,216,37322,5,0,0:0:0:0:
320,176,37675,1,0,0:0:0:0:
188,160,38028,1,0,0:0:0:0:
248,116,38248,1,0,0:0:0:0:
280,104,38381,1,0,0:0:0:0:
264,164,38601,1,0,0:0:0:0:
264,180,38689,1,0,0:0:0:0:
288,252,38954,1,0,0:0:0:0:
208,276,39307,1,0,0:0:0:0:
148,208,39439,2,0,L|288:212,4,140
152,140,41072,5,0,0:0:0:0:
200,112,41204,1,0,0:0:0:0:
256,92,41425,1,0,0:0:0:0:
284,88,41557,2,0,L|344:164,1,87.5
304,192,41954,1,0,0:0:0:0:
264,232,42307,2,0,L|340:300,1,87.5
300,344,42616,2,0,L|224:280,1,87.5
128,236,43013,2,0,L|216:180,1,105
244,164,43366,1,0,0:0:0:0:
212,100,43719,6,0,L|112:144,1,105
72,64,44116,2,0,L|184:96,1,105
240,40,44469,2,0,L|216:80,1,35
240,104,44645,1,0,0:0:0:0:
284,96,44822,1,0,0:0:0:0:
320,128,44866,1,0,0:0:0:0:
324,156,44954,1,0,0:0:0:0:
296,192,45042,1,0,0:0:0:0:
256,200,45131,2,0,P|184:188|188:160,1,122.5
232,152,45528,1,0,0:0:0:0:
184,264,45836,5,0,0:0:0:0:
256,232,46189,1,0,0:0:0:0:
360,216,46586,1,0,0:0:0:0:
332,164,46807,1,0,0:0:0:0:
316,136,46939,1,0,0:0:0:0:
284,92,47160,1,0,0:0:0:0:
248,72,47292,2,0,L|156:88,1,87.5
136,96,47645,1,0,0:0:0:0:
108,208,47998,5,0,0:0:0:0:
200,224,48351,2,0,L|312:232,1,105
304,231,48704,1,0,0:0:0:0:
376,156,49101,1,0,0:0:0:0:
296,92,49454,1,0,0:0:0:0:
264,80,49631,1,0,0:0:0:0:
224,72,49807,1,0,0:0:0:0:
168,68,50028,1,0,0:0:0:0:
144,68,50160,1,0,0:0:0:0:
96,136,50381,5,0,0:0:0:0:
176,144,50733,1,0,0:0:0:0:
184,220,50866,2,0,L|328:164,2,140
184,224,51616,1,0,0:0:0:0:
280,244,51925,1,0,0:0:0:0:
332,156,52322,5,0,0:0:0:0:
304,128,52498,1,0,0:0:0:0:
284,104,52631,1,0,0:0:0:0:
252,68,52851,1,0,0:0:0:0:
192,96,52983,2,0,L|340:96,1,140
272,172,53689,5,0,0:0:0:0:
216,156,53954,1,0,0:0:0:0:
184,168,54086,1,0,0:0:0:0:
144,192,54307,1,0,0:0:0:0:
176,256,54439,2,0,L|256:252,1,70
356,192,54792,2,0,L|264:196,1,87.5
168,140,55145,2,0,L|264:136,1,87.5
360,80,55498,2,0,L|256:80,1,105
232,80,55851,1,0,0:0:0:0:
192,84,56028,5,0,0:0:0:0:
152,84,56204,1,0,0:0:0:0:
128,84,56292,1,0,0:0:0:0:
124,112,56381,1,0,0:0:0:0:
144,144,56469,1,0,0:0:0:0:
176,160,56557,1,0,0:0:0:0:
268,208,56954,1,0,0:0:0:0:
368,120,57307,5,0,0:0:0:0:
120,136,57660,1,0,0:0:0:0:
384,160,58013,1,0,0:0:0:0:
256,216,58233,1,0,0:0:0:0:
176,192,58366,1,0,0:0:0:0:
108,128,58586,1,0,0:0:0:0:
116,104,58719,2,0,L|252:96,2,122.5
112,36,59425,1,0,0:0:0:0:
228,64,59778,1,0,0:0:0:0:
336,124,60131,6,0,L|228:140,1,105
144,200,60483,2,0,L|248:200,1,105
276,256,60881,1,0,0:0:0:0:
180,300,61101,1,0,0:0:0:0:
232,320,61233,1,0,0:0:0:0:
348,300,61454,1,0,0:0:0:0:
392,268,61586,1,0,0:0:0:0:
384,176,61807,2,0,L|316:156,1,70
264,104,62160,2,0,L|284:104,1,17.5
280,100,62292,2,0,B|320:104|320:104|216:100,1,140
200,100,62689,1,0,0:0:0:0:
280,160,62998,6,0,L|232:176,3,35
192,200,63395,2,0,L|152:212,3,35
160,264,63748,1,0,0:0:0:0:
228,304,63925,1,0,0:0:0:0:
264,296,64057,1,0,0:0:0:0:
316,260,64278,1,0,0:0:0:0:
324,200,64410,2,0,P|332:156|296:136,1,87.5
244,144,64807,2,0,P|228:180|268:224,1,105
280,176,65160,5,0,0:0:0:0:
360,172,65381,1,0,0:0:0:0:
388,136,65513,1,0,0:0:0:0:
324,112,65733,1,0,0:0:0:0:
344,156,65866,2,0,L|272:120,1,70
184,152,66219,2,0,L|256:168,1,70
344,232,66572,2,0,L|244:216,1,87.5
156,244,66969,2,0,L|252:264,1,87.5
228,308,67278,2,0,L|304:316,1,70
336,312,67631,1,0,0:0:0:0:
364,276,67719,1,0,0:0:0:0:
344,232,67851,1,0,0:0:0:0:
332,224,67895,1,0,0:0:0:0:
296,196,68028,2,0,L|220:180,1,70
168,200,68381,2,0,L|264:152,1,105
