osu file format v14

[General]
AudioFilename: audio.mp3
AudioLeadIn: 0
PreviewTime: 122268
Countdown: 0
SampleSet: None
StackLeniency: 0.7
Mode: 1
LetterboxInBreaks: 0
WidescreenStoryboard: 0

[Editor]
DistanceSpacing: 0.1
BeatDivisor: 6
GridSize: 32
TimelineZoom: 3.1

[Metadata]
Title:Mind-Spun
TitleUnicode:Mind-Spun
Artist:Animals As Leaders
ArtistUnicode:Animals As Leaders
Creator:Oui
Version:Mind-Spun
Source:
Tags:progressive metal djent the joy of motion prosthetic records sumerian records
BeatmapID:2129178
BeatmapSetID:1017284

[Difficulty]
HPDrainRate:4
CircleSize:2
OverallDifficulty:6.5
ApproachRate:10
SliderMultiplier:2.4
SliderTickRate:1

[Events]
//Background and Video events
0,0,"tos1.jpg",0,0
//Break Periods
//Storyboard Layer 0 (Background)
//Storyboard Layer 1 (Fail)
//Storyboard Layer 2 (Pass)
//Storyboard Layer 3 (Foreground)
//Storyboard Layer 4 (Overlay)
//Storyboard Sound Samples

[TimingPoints]
209,413.793103448276,7,2,0,100,1,0
23174,413.793103448276,4,2,0,100,1,0
28967,413.793103448276,4,2,0,100,1,0
34760,413.793103448276,4,2,0,100,1,0
40553,413.793103448276,4,2,0,100,1,0
46346,413.793103448276,6,2,0,100,1,0
48621,413.793103448276,7,2,0,100,1,0
51310,413.793103448276,5,2,0,100,1,0
55654,413.793103448276,6,2,0,100,1,0
57929,413.793103448276,7,2,0,100,1,0
60618,413.793103448276,5,2,0,100,1,0
64962,413.793103448276,7,2,0,100,1,0
76548,413.793103448276,6,2,0,100,1,0
78823,413.793103448276,7,2,0,100,1,0
81512,413.793103448276,6,2,0,100,1,0
83787,413.793103448276,5,2,0,100,1,0
85855,413.793103448276,7,2,0,100,1,0
120613,413.793103448276,4,2,0,100,1,0
122268,-100,4,2,0,100,0,1
125578,413.793103448276,3,2,0,100,1,1
126819,413.793103448276,4,2,0,100,1,1
130129,413.793103448276,3,2,0,100,1,1
131370,413.793103448276,4,2,0,100,1,1
134680,413.793103448276,3,2,0,100,1,1
135921,413.793103448276,4,2,0,100,1,0
141714,413.793103448276,4,2,0,100,1,0
147507,413.793103448276,4,2,0,100,1,0
226955,413.793103448276,7,2,0,100,1,0
238541,413.793103448276,4,2,0,100,1,0
244334,413.793103448276,4,2,0,100,1,0
250127,413.793103448276,4,2,0,100,1,0
255920,413.793103448276,4,2,0,100,1,0
261713,413.793103448276,4,2,0,100,1,0
267506,413.793103448276,4,2,0,100,1,0

[HitObjects]
256,192,209,5,8,0:0:0:0:
256,192,3105,1,0,0:0:0:0:
256,192,6002,1,8,0:0:0:0:
256,192,8898,1,0,0:0:0:0:
256,192,11795,1,8,0:0:0:0:
256,192,14691,1,0,0:0:0:0:
256,192,17588,1,8,0:0:0:0:
256,192,20484,1,0,0:0:0:0:
256,192,23174,1,12,0:0:0:0:
256,192,23277,1,0,0:0:0:0:
256,192,23449,1,12,0:0:0:0:
256,192,23794,1,0,0:0:0:0:
256,192,24001,1,8,0:0:0:0:
256,192,24105,1,0,0:0:0:0:
256,192,24311,1,0,0:0:0:0:
256,192,24622,1,12,0:0:0:0:
256,192,24932,1,12,0:0:0:0:
256,192,25242,1,8,0:0:0:0:
256,192,25346,1,0,0:0:0:0:
256,192,25553,1,0,0:0:0:0:
256,192,25760,1,8,0:0:0:0:
256,192,26070,1,0,0:0:0:0:
256,192,26174,1,0,0:0:0:0:
256,192,26346,1,12,0:0:0:0:
256,192,26691,1,0,0:0:0:0:
256,192,26898,1,0,0:0:0:0:
256,192,27001,1,0,0:0:0:0:
256,192,27208,1,4,0:0:0:0:
256,192,27518,1,0,0:0:0:0:
256,192,27829,1,12,0:0:0:0:
256,192,28139,1,12,0:0:0:0:
256,192,28242,1,0,0:0:0:0:
256,192,28449,1,0,0:0:0:0:
256,192,28656,1,8,0:0:0:0:
256,192,28967,1,12,0:0:0:0:
256,192,29070,1,0,0:0:0:0:
256,192,29242,1,12,0:0:0:0:
256,192,29587,1,0,0:0:0:0:
256,192,29794,1,8,0:0:0:0:
256,192,29898,1,0,0:0:0:0:
256,192,30104,1,0,0:0:0:0:
256,192,30415,1,12,0:0:0:0:
256,192,30725,1,12,0:0:0:0:
256,192,31035,1,8,0:0:0:0:
256,192,31139,1,0,0:0:0:0:
256,192,31346,1,0,0:0:0:0:
256,192,31553,1,8,0:0:0:0:
256,192,31863,1,0,0:0:0:0:
256,192,31967,1,0,0:0:0:0:
256,192,32139,1,12,0:0:0:0:
256,192,32484,1,0,0:0:0:0:
256,192,32691,1,0,0:0:0:0:
256,192,32794,1,0,0:0:0:0:
256,192,33001,1,4,0:0:0:0:
256,192,33311,1,0,0:0:0:0:
256,192,33622,1,12,0:0:0:0:
256,192,33932,1,12,0:0:0:0:
256,192,34035,1,0,0:0:0:0:
256,192,34242,1,0,0:0:0:0:
256,192,34449,1,8,0:0:0:0:
256,192,34760,1,12,0:0:0:0:
256,192,34863,1,0,0:0:0:0:
256,192,35035,1,12,0:0:0:0:
256,192,35380,1,0,0:0:0:0:
256,192,35587,1,8,0:0:0:0:
256,192,35691,1,0,0:0:0:0:
256,192,35897,1,0,0:0:0:0:
256,192,36208,1,12,0:0:0:0:
256,192,36518,1,12,0:0:0:0:
256,192,36828,1,8,0:0:0:0:
256,192,36932,1,0,0:0:0:0:
256,192,37139,1,0,0:0:0:0:
256,192,37346,1,8,0:0:0:0:
256,192,37656,1,0,0:0:0:0:
256,192,37760,1,0,0:0:0:0:
256,192,37932,1,12,0:0:0:0:
256,192,38277,1,0,0:0:0:0:
256,192,38484,1,0,0:0:0:0:
256,192,38587,1,0,0:0:0:0:
256,192,38794,1,4,0:0:0:0:
256,192,39104,1,0,0:0:0:0:
256,192,39415,1,12,0:0:0:0:
256,192,39725,1,12,0:0:0:0:
256,192,39828,1,0,0:0:0:0:
256,192,40035,1,0,0:0:0:0:
256,192,40242,1,8,0:0:0:0:
256,192,40553,1,12,0:0:0:0:
256,192,40656,1,0,0:0:0:0:
256,192,40828,1,12,0:0:0:0:
256,192,41173,1,0,0:0:0:0:
256,192,41380,1,8,0:0:0:0:
256,192,41484,1,0,0:0:0:0:
256,192,41690,1,0,0:0:0:0:
256,192,42001,1,12,0:0:0:0:
256,192,42311,1,12,0:0:0:0:
256,192,42621,1,8,0:0:0:0:
256,192,42725,1,0,0:0:0:0:
256,192,42932,1,0,0:0:0:0:
256,192,43139,1,8,0:0:0:0:
256,192,43449,1,0,0:0:0:0:
256,192,43553,1,0,0:0:0:0:
256,192,43725,1,12,0:0:0:0:
256,192,44070,1,0,0:0:0:0:
256,192,44277,1,0,0:0:0:0:
256,192,44380,1,0,0:0:0:0:
256,192,44587,1,4,0:0:0:0:
256,192,44897,1,0,0:0:0:0:
256,192,45208,1,12,0:0:0:0:
256,192,45518,1,12,0:0:0:0:
256,192,45621,1,0,0:0:0:0:
256,192,45828,1,0,0:0:0:0:
256,192,46035,1,8,0:0:0:0:
256,192,46346,1,8,0:0:0:0:
256,192,46449,1,0,0:0:0:0:
256,192,46552,1,0,0:0:0:0:
256,192,46656,1,0,0:0:0:0:
256,192,46759,1,0,0:0:0:0:
256,192,46863,1,0,0:0:0:0:
256,192,46966,1,0,0:0:0:0:
256,192,47070,1,0,0:0:0:0:
256,192,47173,1,8,0:0:0:0:
256,192,47277,1,0,0:0:0:0:
256,192,47380,1,0,0:0:0:0:
256,192,47483,1,8,0:0:0:0:
256,192,47587,1,0,0:0:0:0:
256,192,47690,1,0,0:0:0:0:
256,192,47794,1,0,0:0:0:0:
256,192,47897,1,0,0:0:0:0:
256,192,48001,1,0,0:0:0:0:
256,192,48104,1,0,0:0:0:0:
256,192,48208,1,8,0:0:0:0:
256,192,48311,1,0,0:0:0:0:
256,192,48414,1,0,0:0:0:0:
256,192,48518,1,0,0:0:0:0:
256,192,48621,1,8,0:0:0:0:
256,192,48724,1,0,0:0:0:0:
256,192,48827,1,0,0:0:0:0:
256,192,48931,1,0,0:0:0:0:
256,192,49034,1,0,0:0:0:0:
256,192,49138,1,0,0:0:0:0:
256,192,49241,1,0,0:0:0:0:
256,192,49345,1,0,0:0:0:0:
256,192,49448,1,8,0:0:0:0:
256,192,49552,1,0,0:0:0:0:
256,192,49655,1,0,0:0:0:0:
256,192,49758,1,8,0:0:0:0:
256,192,49862,1,0,0:0:0:0:
256,192,49965,1,0,0:0:0:0:
256,192,50069,1,0,0:0:0:0:
256,192,50172,1,0,0:0:0:0:
256,192,50276,1,0,0:0:0:0:
256,192,50379,1,0,0:0:0:0:
256,192,50483,1,8,0:0:0:0:
256,192,50586,1,0,0:0:0:0:
256,192,50689,1,0,0:0:0:0:
256,192,50793,1,0,0:0:0:0:
256,192,50896,1,8,0:0:0:0:
256,192,51000,1,8,0:0:0:0:
256,192,51103,1,0,0:0:0:0:
256,192,51207,1,8,0:0:0:0:
256,192,51310,1,8,0:0:0:0:
256,192,51413,1,0,0:0:0:0:
256,192,51516,1,0,0:0:0:0:
256,192,51620,1,0,0:0:0:0:
256,192,51723,1,0,0:0:0:0:
256,192,51827,1,0,0:0:0:0:
256,192,51930,1,0,0:0:0:0:
256,192,52034,1,0,0:0:0:0:
256,192,52137,1,8,0:0:0:0:
256,192,52241,1,0,0:0:0:0:
256,192,52344,1,0,0:0:0:0:
256,192,52447,1,8,0:0:0:0:
256,192,52551,1,0,0:0:0:0:
256,192,52654,1,0,0:0:0:0:
256,192,52758,1,0,0:0:0:0:
256,192,52861,1,0,0:0:0:0:
256,192,52965,1,0,0:0:0:0:
256,192,53068,1,0,0:0:0:0:
256,192,53172,1,8,0:0:0:0:
256,192,53275,1,0,0:0:0:0:
256,192,53378,1,0,0:0:0:0:
256,192,53482,1,0,0:0:0:0:
256,192,53585,1,8,0:0:0:0:
256,192,53689,1,8,0:0:0:0:
256,192,53792,1,0,0:0:0:0:
256,192,53896,1,8,0:0:0:0:
256,192,53999,1,8,0:0:0:0:
256,192,54103,1,0,0:0:0:0:
256,192,54206,1,8,0:0:0:0:
256,192,54310,1,8,0:0:0:0:
256,192,54413,1,0,0:0:0:0:
256,192,54516,1,0,0:0:0:0:
256,192,54620,1,0,0:0:0:0:
256,192,54723,1,0,0:0:0:0:
256,192,54827,1,8,0:0:0:0:
256,192,54930,1,0,0:0:0:0:
256,192,55034,1,8,0:0:0:0:
256,192,55137,1,8,0:0:0:0:
256,192,55241,1,0,0:0:0:0:
256,192,55344,1,0,0:0:0:0:
256,192,55447,1,8,0:0:0:0:
256,192,55551,1,8,0:0:0:0:
256,192,55654,1,8,0:0:0:0:
256,192,55757,1,0,0:0:0:0:
256,192,55860,1,0,0:0:0:0:
256,192,55964,1,0,0:0:0:0:
256,192,56067,1,0,0:0:0:0:
256,192,56171,1,0,0:0:0:0:
256,192,56274,1,0,0:0:0:0:
256,192,56378,1,0,0:0:0:0:
256,192,56481,1,8,0:0:0:0:
256,192,56585,1,0,0:0:0:0:
256,192,56688,1,0,0:0:0:0:
256,192,56791,1,8,0:0:0:0:
256,192,56895,1,0,0:0:0:0:
256,192,56998,1,0,0:0:0:0:
256,192,57102,1,0,0:0:0:0:
256,192,57205,1,0,0:0:0:0:
256,192,57309,1,0,0:0:0:0:
256,192,57412,1,0,0:0:0:0:
256,192,57516,1,8,0:0:0:0:
256,192,57619,1,0,0:0:0:0:
256,192,57722,1,0,0:0:0:0:
256,192,57826,1,0,0:0:0:0:
256,192,57929,1,8,0:0:0:0:
256,192,58032,1,0,0:0:0:0:
256,192,58135,1,0,0:0:0:0:
256,192,58239,1,0,0:0:0:0:
256,192,58342,1,0,0:0:0:0:
256,192,58446,1,0,0:0:0:0:
256,192,58549,1,0,0:0:0:0:
256,192,58653,1,0,0:0:0:0:
256,192,58756,1,8,0:0:0:0:
256,192,58860,1,0,0:0:0:0:
256,192,58963,1,0,0:0:0:0:
256,192,59066,1,8,0:0:0:0:
256,192,59170,1,0,0:0:0:0:
256,192,59273,1,0,0:0:0:0:
256,192,59377,1,0,0:0:0:0:
256,192,59480,1,0,0:0:0:0:
256,192,59584,1,0,0:0:0:0:
256,192,59687,1,0,0:0:0:0:
256,192,59791,1,8,0:0:0:0:
256,192,59894,1,0,0:0:0:0:
256,192,59997,1,0,0:0:0:0:
256,192,60101,1,0,0:0:0:0:
256,192,60204,1,8,0:0:0:0:
256,192,60308,1,8,0:0:0:0:
256,192,60411,1,0,0:0:0:0:
256,192,60515,1,8,0:0:0:0:
256,192,60618,1,8,0:0:0:0:
256,192,60721,1,0,0:0:0:0:
256,192,60824,1,0,0:0:0:0:
256,192,60928,1,0,0:0:0:0:
256,192,61031,1,0,0:0:0:0:
256,192,61135,1,0,0:0:0:0:
256,192,61238,1,0,0:0:0:0:
256,192,61342,1,0,0:0:0:0:
256,192,61445,1,8,0:0:0:0:
256,192,61549,1,0,0:0:0:0:
256,192,61652,1,0,0:0:0:0:
256,192,61755,1,8,0:0:0:0:
256,192,61859,1,0,0:0:0:0:
256,192,61962,1,0,0:0:0:0:
256,192,62066,1,0,0:0:0:0:
256,192,62169,1,0,0:0:0:0:
256,192,62273,1,0,0:0:0:0:
256,192,62376,1,0,0:0:0:0:
256,192,62480,1,8,0:0:0:0:
256,192,62583,1,0,0:0:0:0:
256,192,62686,1,0,0:0:0:0:
256,192,62790,1,0,0:0:0:0:
256,192,62893,1,8,0:0:0:0:
256,192,62997,1,8,0:0:0:0:
256,192,63100,1,0,0:0:0:0:
256,192,63204,1,8,0:0:0:0:
256,192,63307,1,8,0:0:0:0:
256,192,63411,1,0,0:0:0:0:
256,192,63514,1,8,0:0:0:0:
256,192,63618,1,8,0:0:0:0:
256,192,63721,1,0,0:0:0:0:
256,192,63824,1,0,0:0:0:0:
256,192,63928,1,0,0:0:0:0:
256,192,64031,1,0,0:0:0:0:
256,192,64135,1,8,0:0:0:0:
256,192,64238,1,0,0:0:0:0:
256,192,64342,1,8,0:0:0:0:
256,192,64445,1,8,0:0:0:0:
256,192,64549,1,0,0:0:0:0:
256,192,64652,1,0,0:0:0:0:
256,192,64755,1,8,0:0:0:0:
256,192,64859,1,8,0:0:0:0:
256,192,64962,1,8,0:0:0:0:
256,192,65168,1,8,0:0:0:0:
256,192,65272,1,0,0:0:0:0:
256,192,65375,1,8,0:0:0:0:
256,192,65479,1,0,0:0:0:0:
256,192,65582,1,0,0:0:0:0:
256,192,65686,1,0,0:0:0:0:
256,192,65789,1,8,0:0:0:0:
256,192,65996,1,8,0:0:0:0:
256,192,66099,1,0,0:0:0:0:
256,192,66203,1,8,0:0:0:0:
256,192,66410,1,0,0:0:0:0:
256,192,66513,1,8,0:0:0:0:
256,192,66617,1,8,0:0:0:0:
256,192,66824,1,8,0:0:0:0:
256,192,66927,1,8,0:0:0:0:
256,192,67030,1,0,0:0:0:0:
256,192,67237,1,0,0:0:0:0:
256,192,67444,1,8,0:0:0:0:
256,192,67548,1,0,0:0:0:0:
256,192,67651,1,8,0:0:0:0:
256,192,67858,1,0,0:0:0:0:
256,192,68065,1,0,0:0:0:0:
256,192,68168,1,8,0:0:0:0:
256,192,68272,1,8,0:0:0:0:
256,192,68375,1,8,0:0:0:0:
256,192,68479,1,0,0:0:0:0:
256,192,68686,1,0,0:0:0:0:
256,192,68893,1,8,0:0:0:0:
256,192,68996,1,8,0:0:0:0:
256,192,69099,1,0,0:0:0:0:
256,192,69306,1,0,0:0:0:0:
256,192,69513,1,8,0:0:0:0:
256,192,69617,1,0,0:0:0:0:
256,192,69720,1,8,0:0:0:0:
256,192,69824,1,8,0:0:0:0:
256,192,69927,1,0,0:0:0:0:
256,192,70134,1,0,0:0:0:0:
256,192,70341,1,8,0:0:0:0:
256,192,70444,1,8,0:0:0:0:
256,192,70548,1,0,0:0:0:0:
256,192,70755,1,0,0:0:0:0:
256,192,70962,1,0,0:0:0:0:
256,192,71065,1,8,0:0:0:0:
256,192,71168,1,8,0:0:0:0:
256,192,71375,1,0,0:0:0:0:
256,192,71582,1,8,0:0:0:0:
256,192,71686,1,8,0:0:0:0:
256,192,71789,1,0,0:0:0:0:
256,192,71996,1,8,0:0:0:0:
256,192,72203,1,0,0:0:0:0:
256,192,72410,1,0,0:0:0:0:
256,192,72513,1,8,0:0:0:0:
256,192,72617,1,8,0:0:0:0:
256,192,72720,1,0,0:0:0:0:
256,192,72824,1,8,0:0:0:0:
256,192,73030,1,0,0:0:0:0:
256,192,73237,1,8,0:0:0:0:
256,192,73341,1,8,0:0:0:0:
256,192,73444,1,0,0:0:0:0:
256,192,73651,1,0,0:0:0:0:
256,192,73755,1,0,0:0:0:0:
256,192,73858,1,8,0:0:0:0:
256,192,73962,1,8,0:0:0:0:
256,192,74065,1,0,0:0:0:0:
256,192,74272,1,8,0:0:0:0:
256,192,74479,1,0,0:0:0:0:
256,192,74686,1,8,0:0:0:0:
256,192,74789,1,8,0:0:0:0:
256,192,74893,1,0,0:0:0:0:
256,192,75099,1,0,0:0:0:0:
256,192,75306,1,0,0:0:0:0:
256,192,75410,1,8,0:0:0:0:
256,192,75513,1,8,0:0:0:0:
256,192,75617,1,0,0:0:0:0:
256,192,75720,1,8,0:0:0:0:
256,192,75927,1,0,0:0:0:0:
256,192,76134,1,8,0:0:0:0:
256,192,76237,1,8,0:0:0:0:
256,192,76341,1,0,0:0:0:0:
256,192,76548,1,8,0:0:0:0:
256,192,76651,1,0,0:0:0:0:
256,192,76754,1,0,0:0:0:0:
256,192,76858,1,0,0:0:0:0:
256,192,76961,1,0,0:0:0:0:
256,192,77065,1,0,0:0:0:0:
256,192,77168,1,0,0:0:0:0:
256,192,77272,1,0,0:0:0:0:
256,192,77375,1,8,0:0:0:0:
256,192,77479,1,0,0:0:0:0:
256,192,77582,1,0,0:0:0:0:
256,192,77685,1,8,0:0:0:0:
256,192,77789,1,0,0:0:0:0:
256,192,77892,1,0,0:0:0:0:
256,192,77996,1,0,0:0:0:0:
256,192,78099,1,0,0:0:0:0:
256,192,78203,1,0,0:0:0:0:
256,192,78306,1,0,0:0:0:0:
256,192,78410,1,8,0:0:0:0:
256,192,78513,1,0,0:0:0:0:
256,192,78616,1,0,0:0:0:0:
256,192,78720,1,0,0:0:0:0:
256,192,78823,1,8,0:0:0:0:
256,192,78926,1,0,0:0:0:0:
256,192,79029,1,0,0:0:0:0:
256,192,79133,1,0,0:0:0:0:
256,192,79236,1,0,0:0:0:0:
256,192,79340,1,0,0:0:0:0:
256,192,79443,1,0,0:0:0:0:
256,192,79547,1,0,0:0:0:0:
256,192,79650,1,8,0:0:0:0:
256,192,79754,1,0,0:0:0:0:
256,192,79857,1,0,0:0:0:0:
256,192,79960,1,8,0:0:0:0:
256,192,80064,1,0,0:0:0:0:
256,192,80167,1,0,0:0:0:0:
256,192,80271,1,0,0:0:0:0:
256,192,80374,1,0,0:0:0:0:
256,192,80478,1,0,0:0:0:0:
256,192,80581,1,0,0:0:0:0:
256,192,80685,1,8,0:0:0:0:
256,192,80788,1,0,0:0:0:0:
256,192,80891,1,0,0:0:0:0:
256,192,80995,1,0,0:0:0:0:
256,192,81098,1,8,0:0:0:0:
256,192,81202,1,8,0:0:0:0:
256,192,81305,1,0,0:0:0:0:
256,192,81409,1,8,0:0:0:0:
256,192,81512,1,8,0:0:0:0:
256,192,81615,1,0,0:0:0:0:
256,192,81718,1,0,0:0:0:0:
256,192,81822,1,0,0:0:0:0:
256,192,81925,1,0,0:0:0:0:
256,192,82029,1,0,0:0:0:0:
256,192,82132,1,0,0:0:0:0:
256,192,82236,1,0,0:0:0:0:
256,192,82339,1,8,0:0:0:0:
256,192,82443,1,0,0:0:0:0:
256,192,82546,1,0,0:0:0:0:
256,192,82649,1,8,0:0:0:0:
256,192,82753,1,0,0:0:0:0:
256,192,82856,1,0,0:0:0:0:
256,192,82960,1,0,0:0:0:0:
256,192,83063,1,0,0:0:0:0:
256,192,83167,1,0,0:0:0:0:
256,192,83270,1,0,0:0:0:0:
256,192,83374,1,8,0:0:0:0:
256,192,83477,1,0,0:0:0:0:
256,192,83580,1,0,0:0:0:0:
256,192,83684,1,0,0:0:0:0:
256,192,83787,1,8,0:0:0:0:
256,192,83891,1,8,0:0:0:0:
256,192,83994,1,0,0:0:0:0:
256,192,84098,1,8,0:0:0:0:
256,192,84201,1,8,0:0:0:0:
256,192,84305,1,0,0:0:0:0:
256,192,84408,1,8,0:0:0:0:
256,192,84512,1,8,0:0:0:0:
256,192,84615,1,0,0:0:0:0:
256,192,84718,1,0,0:0:0:0:
256,192,84822,1,0,0:0:0:0:
256,192,84925,1,0,0:0:0:0:
256,192,85029,1,8,0:0:0:0:
256,192,85132,1,0,0:0:0:0:
256,192,85236,1,8,0:0:0:0:
256,192,85339,1,8,0:0:0:0:
256,192,85443,1,0,0:0:0:0:
256,192,85546,1,0,0:0:0:0:
256,192,85649,1,8,0:0:0:0:
256,192,85753,1,8,0:0:0:0:
256,192,85856,1,8,0:0:0:0:
256,192,86061,1,8,0:0:0:0:
256,192,86165,1,0,0:0:0:0:
256,192,86268,1,8,0:0:0:0:
256,192,86372,1,0,0:0:0:0:
256,192,86475,1,0,0:0:0:0:
256,192,86579,1,0,0:0:0:0:
256,192,86682,1,8,0:0:0:0:
256,192,86889,1,8,0:0:0:0:
256,192,86992,1,0,0:0:0:0:
256,192,87096,1,8,0:0:0:0:
256,192,87303,1,0,0:0:0:0:
256,192,87406,1,8,0:0:0:0:
256,192,87510,1,8,0:0:0:0:
256,192,87717,1,8,0:0:0:0:
256,192,87820,1,8,0:0:0:0:
256,192,87923,1,0,0:0:0:0:
256,192,88130,1,0,0:0:0:0:
256,192,88337,1,8,0:0:0:0:
256,192,88441,1,0,0:0:0:0:
256,192,88544,1,8,0:0:0:0:
256,192,88751,1,0,0:0:0:0:
256,192,88958,1,0,0:0:0:0:
256,192,89061,1,8,0:0:0:0:
256,192,89165,1,8,0:0:0:0:
256,192,89268,1,8,0:0:0:0:
256,192,89372,1,0,0:0:0:0:
256,192,89579,1,0,0:0:0:0:
256,192,89786,1,8,0:0:0:0:
256,192,89889,1,8,0:0:0:0:
256,192,89992,1,0,0:0:0:0:
256,192,90199,1,0,0:0:0:0:
256,192,90406,1,8,0:0:0:0:
256,192,90510,1,0,0:0:0:0:
256,192,90613,1,8,0:0:0:0:
256,192,90717,1,8,0:0:0:0:
256,192,90820,1,0,0:0:0:0:
256,192,91027,1,0,0:0:0:0:
256,192,91234,1,8,0:0:0:0:
256,192,91337,1,8,0:0:0:0:
256,192,91441,1,0,0:0:0:0:
256,192,91648,1,0,0:0:0:0:
256,192,91855,1,0,0:0:0:0:
256,192,91958,1,8,0:0:0:0:
256,192,92061,1,8,0:0:0:0:
256,192,92268,1,0,0:0:0:0:
256,192,92475,1,8,0:0:0:0:
256,192,92579,1,8,0:0:0:0:
256,192,92682,1,0,0:0:0:0:
256,192,92889,1,8,0:0:0:0:
256,192,93096,1,0,0:0:0:0:
256,192,93303,1,0,0:0:0:0:
256,192,93406,1,8,0:0:0:0:
256,192,93510,1,8,0:0:0:0:
256,192,93613,1,0,0:0:0:0:
256,192,93717,1,8,0:0:0:0:
256,192,93923,1,0,0:0:0:0:
256,192,94130,1,8,0:0:0:0:
256,192,94234,1,8,0:0:0:0:
256,192,94337,1,0,0:0:0:0:
256,192,94544,1,0,0:0:0:0:
256,192,94648,1,0,0:0:0:0:
256,192,94751,1,8,0:0:0:0:
256,192,94855,1,8,0:0:0:0:
256,192,94958,1,0,0:0:0:0:
256,192,95165,1,8,0:0:0:0:
256,192,95372,1,0,0:0:0:0:
256,192,95579,1,8,0:0:0:0:
256,192,95682,1,8,0:0:0:0:
256,192,95786,1,0,0:0:0:0:
256,192,95992,1,0,0:0:0:0:
256,192,96199,1,0,0:0:0:0:
256,192,96303,1,8,0:0:0:0:
256,192,96406,1,8,0:0:0:0:
256,192,96510,1,0,0:0:0:0:
256,192,96613,1,8,0:0:0:0:
256,192,96820,1,0,0:0:0:0:
256,192,97027,1,8,0:0:0:0:
256,192,97130,1,8,0:0:0:0:
256,192,97234,1,0,0:0:0:0:
256,192,97441,1,4,0:0:0:0:
256,192,97648,1,0,0:0:0:0:
256,192,97855,1,0,0:0:0:0:
256,192,98061,1,8,0:0:0:0:
256,192,98165,1,0,0:0:0:0:
256,192,98268,1,8,0:0:0:0:
256,192,98475,1,0,0:0:0:0:
256,192,98682,1,8,0:0:0:0:
256,192,98786,1,0,0:0:0:0:
256,192,98889,1,0,0:0:0:0:
256,192,99096,1,0,0:0:0:0:
256,192,99303,1,0,0:0:0:0:
256,192,99510,1,8,0:0:0:0:
256,192,99613,1,0,0:0:0:0:
256,192,99717,1,8,0:0:0:0:
256,192,99923,1,0,0:0:0:0:
256,192,100130,1,8,0:0:0:0:
256,192,100234,1,0,0:0:0:0:
256,192,100337,1,0,0:0:0:0:
256,192,100544,1,0,0:0:0:0:
256,192,100751,1,0,0:0:0:0:
256,192,100958,1,8,0:0:0:0:
256,192,101061,1,0,0:0:0:0:
256,192,101165,1,8,0:0:0:0:
256,192,101372,1,0,0:0:0:0:
256,192,101475,1,8,0:0:0:0:
256,192,101579,1,0,0:0:0:0:
256,192,101682,1,0,0:0:0:0:
256,192,101786,1,0,0:0:0:0:
256,192,101992,1,0,0:0:0:0:
256,192,102199,1,0,0:0:0:0:
256,192,102406,1,8,0:0:0:0:
256,192,102510,1,0,0:0:0:0:
256,192,102613,1,8,0:0:0:0:
256,192,102820,1,0,0:0:0:0:
256,192,103027,1,8,0:0:0:0:
256,192,103130,1,8,0:0:0:0:
256,192,103234,1,4,0:0:0:0:
256,192,103441,1,0,0:0:0:0:
256,192,103648,1,0,0:0:0:0:
256,192,103855,1,8,0:0:0:0:
256,192,103958,1,0,0:0:0:0:
256,192,104061,1,8,0:0:0:0:
256,192,104268,1,0,0:0:0:0:
256,192,104475,1,8,0:0:0:0:
256,192,104579,1,0,0:0:0:0:
256,192,104682,1,0,0:0:0:0:
256,192,104889,1,0,0:0:0:0:
256,192,105096,1,0,0:0:0:0:
256,192,105303,1,8,0:0:0:0:
256,192,105406,1,0,0:0:0:0:
256,192,105510,1,8,0:0:0:0:
256,192,105717,1,0,0:0:0:0:
256,192,105923,1,8,0:0:0:0:
256,192,106027,1,0,0:0:0:0:
256,192,106130,1,0,0:0:0:0:
256,192,106337,1,0,0:0:0:0:
256,192,106544,1,0,0:0:0:0:
256,192,106751,1,8,0:0:0:0:
256,192,106855,1,0,0:0:0:0:
256,192,106958,1,8,0:0:0:0:
256,192,107165,1,0,0:0:0:0:
256,192,107268,1,8,0:0:0:0:
256,192,107372,1,0,0:0:0:0:
256,192,107475,1,0,0:0:0:0:
256,192,107579,1,0,0:0:0:0:
256,192,107786,1,0,0:0:0:0:
256,192,107992,1,0,0:0:0:0:
256,192,108199,1,8,0:0:0:0:
256,192,108303,1,0,0:0:0:0:
256,192,108406,1,8,0:0:0:0:
256,192,108613,1,0,0:0:0:0:
256,192,108820,1,8,0:0:0:0:
256,192,108923,1,8,0:0:0:0:
256,192,109027,1,4,0:0:0:0:
256,192,109441,1,8,0:0:0:0:
256,192,109648,1,8,0:0:0:0:
256,192,109751,1,0,0:0:0:0:
256,192,109855,1,8,0:0:0:0:
256,192,110268,1,8,0:0:0:0:
256,192,110372,1,0,0:0:0:0:
256,192,110475,1,0,0:0:0:0:
256,192,110682,1,8,0:0:0:0:
256,192,111096,1,8,0:0:0:0:
256,192,111199,1,0,0:0:0:0:
256,192,111303,1,0,0:0:0:0:
256,192,111510,1,8,0:0:0:0:
256,192,111717,1,0,0:0:0:0:
256,192,111820,1,8,0:0:0:0:
256,192,111923,1,4,0:0:0:0:
256,192,112337,1,8,0:0:0:0:
256,192,112544,1,8,0:0:0:0:
256,192,112648,1,0,0:0:0:0:
256,192,112751,1,0,0:0:0:0:
256,192,113061,1,8,0:0:0:0:
256,192,113165,1,0,0:0:0:0:
256,192,113268,1,0,0:0:0:0:
256,192,113579,1,8,0:0:0:0:
256,192,113992,1,8,0:0:0:0:
256,192,114096,1,0,0:0:0:0:
256,192,114199,1,0,0:0:0:0:
256,192,114406,1,8,0:0:0:0:
256,192,114613,1,0,0:0:0:0:
256,192,114717,1,8,0:0:0:0:
256,192,114820,1,4,0:0:0:0:
256,192,115234,1,8,0:0:0:0:
256,192,115441,1,0,0:0:0:0:
256,192,115544,1,8,0:0:0:0:
256,192,115648,1,0,0:0:0:0:
256,192,116061,1,8,0:0:0:0:
256,192,116165,1,0,0:0:0:0:
256,192,116268,1,0,0:0:0:0:
256,192,116475,1,8,0:0:0:0:
256,192,116889,1,0,0:0:0:0:
256,192,116992,1,8,0:0:0:0:
256,192,117096,1,0,0:0:0:0:
256,192,117303,1,8,0:0:0:0:
256,192,117510,1,0,0:0:0:0:
256,192,117613,1,8,0:0:0:0:
256,192,117717,1,4,0:0:0:0:
256,192,118130,1,8,0:0:0:0:
256,192,118337,1,8,0:0:0:0:
256,192,118441,1,8,0:0:0:0:
256,192,118544,1,0,0:0:0:0:
256,192,118855,1,8,0:0:0:0:
256,192,118958,1,0,0:0:0:0:
256,192,119061,1,12,0:0:0:0:
256,192,119372,1,8,0:0:0:0:
256,192,119786,1,8,0:0:0:0:
256,192,119889,1,0,0:0:0:0:
256,192,119992,1,0,0:0:0:0:
256,192,120199,1,8,0:0:0:0:
256,192,120406,1,0,0:0:0:0:
256,192,120510,1,8,0:0:0:0:
256,192,120613,1,0,0:0:0:0:
256,192,120716,1,0,0:0:0:0:
256,192,120819,1,8,0:0:0:0:
256,192,120923,1,8,0:0:0:0:
256,192,121026,1,0,0:0:0:0:
256,192,121130,1,0,0:0:0:0:
256,192,121233,1,0,0:0:0:0:
256,192,121302,1,0,0:0:0:0:
256,192,121371,1,0,0:0:0:0:
256,192,121440,1,8,0:0:0:0:
256,192,121544,1,0,0:0:0:0:
256,192,121647,1,8,0:0:0:0:
256,192,121750,1,0,0:0:0:0:
256,192,121854,1,0,0:0:0:0:
256,192,121957,1,12,0:0:0:0:
256,192,122268,1,4,0:0:0:0:
256,192,122475,1,8,0:0:0:0:
256,192,122578,1,0,0:0:0:0:
256,192,122681,1,8,0:0:0:0:
256,192,122785,1,0,0:0:0:0:
256,192,122888,1,0,0:0:0:0:
256,192,123095,1,8,0:0:0:0:
256,192,123199,1,0,0:0:0:0:
256,192,123406,1,8,0:0:0:0:
256,192,123509,1,8,0:0:0:0:
256,192,123613,1,8,0:0:0:0:
256,192,123716,1,0,0:0:0:0:
256,192,123923,1,8,0:0:0:0:
256,192,124026,1,0,0:0:0:0:
256,192,124233,1,8,0:0:0:0:
256,192,124337,1,0,0:0:0:0:
256,192,124440,1,0,0:0:0:0:
256,192,124544,1,0,0:0:0:0:
256,192,124647,1,0,0:0:0:0:
256,192,124750,1,8,0:0:0:0:
256,192,124854,1,0,0:0:0:0:
256,192,125061,1,8,0:0:0:0:
256,192,125164,1,0,0:0:0:0:
256,192,125268,1,0,0:0:0:0:
256,192,125371,1,8,0:0:0:0:
256,192,125475,1,8,0:0:0:0:
256,192,125578,1,0,0:0:0:0:
256,192,125681,1,0,0:0:0:0:
256,192,125784,1,0,0:0:0:0:
256,192,125888,1,8,0:0:0:0:
256,192,126095,1,8,0:0:0:0:
256,192,126198,1,0,0:0:0:0:
256,192,126302,1,0,0:0:0:0:
256,192,126353,1,0,0:0:0:0:
256,192,126405,1,8,0:0:0:0:
256,192,126509,1,0,0:0:0:0:
256,192,126819,1,4,0:0:0:0:
256,192,127026,1,8,0:0:0:0:
256,192,127129,1,0,0:0:0:0:
256,192,127232,1,8,0:0:0:0:
256,192,127336,1,0,0:0:0:0:
256,192,127439,1,0,0:0:0:0:
256,192,127646,1,8,0:0:0:0:
256,192,127750,1,0,0:0:0:0:
256,192,127957,1,8,0:0:0:0:
256,192,128060,1,8,0:0:0:0:
256,192,128164,1,8,0:0:0:0:
256,192,128267,1,0,0:0:0:0:
256,192,128370,1,0,0:0:0:0:
256,192,128474,1,8,0:0:0:0:
256,192,128577,1,0,0:0:0:0:
256,192,128784,1,8,0:0:0:0:
256,192,128888,1,0,0:0:0:0:
256,192,128991,1,0,0:0:0:0:
256,192,129095,1,0,0:0:0:0:
256,192,129198,1,0,0:0:0:0:
256,192,129301,1,8,0:0:0:0:
256,192,129405,1,0,0:0:0:0:
256,192,129612,1,8,0:0:0:0:
256,192,129715,1,0,0:0:0:0:
256,192,129819,1,0,0:0:0:0:
256,192,129922,1,8,0:0:0:0:
256,192,130026,1,8,0:0:0:0:
256,192,130129,1,0,0:0:0:0:
256,192,130232,1,0,0:0:0:0:
256,192,130335,1,0,0:0:0:0:
256,192,130439,1,8,0:0:0:0:
256,192,130646,1,8,0:0:0:0:
256,192,130749,1,0,0:0:0:0:
256,192,130853,1,0,0:0:0:0:
256,192,130904,1,0,0:0:0:0:
256,192,130956,1,8,0:0:0:0:
256,192,131060,1,0,0:0:0:0:
256,192,131266,1,0,0:0:0:0:
256,192,131370,1,4,0:0:0:0:
256,192,131577,1,8,0:0:0:0:
256,192,131680,1,0,0:0:0:0:
256,192,131783,1,8,0:0:0:0:
256,192,131887,1,0,0:0:0:0:
256,192,131990,1,0,0:0:0:0:
256,192,132197,1,8,0:0:0:0:
256,192,132301,1,0,0:0:0:0:
256,192,132508,1,8,0:0:0:0:
256,192,132611,1,8,0:0:0:0:
256,192,132715,1,8,0:0:0:0:
256,192,132818,1,0,0:0:0:0:
256,192,133025,1,8,0:0:0:0:
256,192,133128,1,0,0:0:0:0:
256,192,133335,1,8,0:0:0:0:
256,192,133439,1,0,0:0:0:0:
256,192,133542,1,0,0:0:0:0:
256,192,133646,1,0,0:0:0:0:
256,192,133749,1,0,0:0:0:0:
256,192,133852,1,8,0:0:0:0:
256,192,133956,1,0,0:0:0:0:
256,192,134163,1,8,0:0:0:0:
256,192,134266,1,0,0:0:0:0:
256,192,134370,1,0,0:0:0:0:
256,192,134473,1,8,0:0:0:0:
256,192,134577,1,8,0:0:0:0:
256,192,134680,1,0,0:0:0:0:
256,192,134783,1,0,0:0:0:0:
256,192,134886,1,0,0:0:0:0:
256,192,134990,1,8,0:0:0:0:
224,192,135093,1,8,0:0:0:0:
256,192,135197,1,8,0:0:0:0:
256,192,135300,1,0,0:0:0:0:
256,192,135404,1,0,0:0:0:0:
256,192,135455,1,0,0:0:0:0:
256,192,135507,1,8,0:0:0:0:
256,192,135611,1,0,0:0:0:0:
256,192,135714,1,0,0:0:0:0:
256,192,135817,1,0,0:0:0:0:
256,192,135921,1,12,0:0:0:0:
256,192,136024,1,0,0:0:0:0:
256,192,136196,1,12,0:0:0:0:
256,192,136541,1,0,0:0:0:0:
256,192,136748,1,8,0:0:0:0:
256,192,136852,1,0,0:0:0:0:
256,192,137058,1,0,0:0:0:0:
256,192,137369,1,12,0:0:0:0:
256,192,137679,1,12,0:0:0:0:
256,192,137989,1,8,0:0:0:0:
256,192,138093,1,0,0:0:0:0:
256,192,138300,1,0,0:0:0:0:
256,192,138507,1,8,0:0:0:0:
256,192,138817,1,0,0:0:0:0:
256,192,138921,1,0,0:0:0:0:
256,192,139093,1,12,0:0:0:0:
256,192,139438,1,0,0:0:0:0:
256,192,139645,1,0,0:0:0:0:
256,192,139748,1,0,0:0:0:0:
256,192,139955,1,4,0:0:0:0:
256,192,140265,1,0,0:0:0:0:
256,192,140576,1,12,0:0:0:0:
256,192,140886,1,12,0:0:0:0:
256,192,140989,1,0,0:0:0:0:
256,192,141196,1,0,0:0:0:0:
256,192,141403,1,8,0:0:0:0:
256,192,141714,1,12,0:0:0:0:
256,192,141817,1,0,0:0:0:0:
256,192,141989,1,12,0:0:0:0:
256,192,142334,1,0,0:0:0:0:
256,192,142541,1,8,0:0:0:0:
256,192,142645,1,0,0:0:0:0:
256,192,142851,1,0,0:0:0:0:
256,192,143162,1,12,0:0:0:0:
256,192,143472,1,12,0:0:0:0:
256,192,143782,1,8,0:0:0:0:
256,192,143886,1,0,0:0:0:0:
256,192,144093,1,0,0:0:0:0:
256,192,144300,1,8,0:0:0:0:
256,192,144610,1,0,0:0:0:0:
256,192,144714,1,0,0:0:0:0:
256,192,144886,1,12,0:0:0:0:
256,192,145231,1,0,0:0:0:0:
256,192,145438,1,0,0:0:0:0:
256,192,145541,1,0,0:0:0:0:
256,192,145748,1,4,0:0:0:0:
256,192,146058,1,0,0:0:0:0:
256,192,146369,1,12,0:0:0:0:
256,192,146679,1,12,0:0:0:0:
256,192,146782,1,0,0:0:0:0:
256,192,146989,1,0,0:0:0:0:
256,192,147196,1,8,0:0:0:0:
256,192,147507,1,8,0:0:0:0:
256,192,147713,1,0,0:0:0:0:
256,192,147817,1,0,0:0:0:0:
256,192,147920,1,8,0:0:0:0:
256,192,148127,1,0,0:0:0:0:
256,192,148231,1,8,0:0:0:0:
256,192,148334,1,0,0:0:0:0:
256,192,148541,1,8,0:0:0:0:
256,192,148748,1,0,0:0:0:0:
256,192,148851,1,8,0:0:0:0:
256,192,148955,1,8,0:0:0:0:
256,192,149058,1,0,0:0:0:0:
256,192,149265,1,8,0:0:0:0:
256,192,149472,1,0,0:0:0:0:
256,192,149575,1,8,0:0:0:0:
256,192,149679,1,0,0:0:0:0:
256,192,149886,1,8,0:0:0:0:
256,192,149989,1,0,0:0:0:0:
256,192,150093,1,0,0:0:0:0:
256,192,150196,1,8,0:0:0:0:
256,192,150403,1,0,0:0:0:0:
256,192,150507,1,8,0:0:0:0:
256,192,150610,1,8,0:0:0:0:
256,192,150713,1,0,0:0:0:0:
256,192,150817,1,0,0:0:0:0:
256,192,150920,1,0,0:0:0:0:
256,192,151024,1,8,0:0:0:0:
256,192,151127,1,0,0:0:0:0:
256,192,151231,1,0,0:0:0:0:
256,192,151334,1,8,0:0:0:0:
256,192,151438,1,0,0:0:0:0:
256,192,151541,1,0,0:0:0:0:
256,192,151644,1,8,0:0:0:0:
256,192,151748,1,8,0:0:0:0:
256,192,151851,1,0,0:0:0:0:
256,192,151955,1,0,0:0:0:0:
256,192,152058,1,8,0:0:0:0:
256,192,152162,1,0,0:0:0:0:
256,192,152265,1,8,0:0:0:0:
256,192,152369,1,8,0:0:0:0:
256,192,152472,1,8,0:0:0:0:
256,192,152575,1,0,0:0:0:0:
256,192,152679,1,0,0:0:0:0:
256,192,152782,1,8,0:0:0:0:
256,192,152886,1,8,0:0:0:0:
256,192,152989,1,0,0:0:0:0:
256,192,153093,1,0,0:0:0:0:
256,192,153196,1,8,0:0:0:0:
256,192,153300,1,8,0:0:0:0:
256,192,153403,1,0,0:0:0:0:
256,192,153507,1,8,0:0:0:0:
256,192,153610,1,0,0:0:0:0:
256,192,153713,1,0,0:0:0:0:
256,192,153817,1,0,0:0:0:0:
256,192,153920,1,8,0:0:0:0:
256,192,153972,1,8,0:0:0:0:
256,192,154127,1,0,0:0:0:0:
256,192,154231,1,8,0:0:0:0:
256,192,154334,1,0,0:0:0:0:
256,192,154541,1,0,0:0:0:0:
256,192,154610,1,0,0:0:0:0:
256,192,154679,1,0,0:0:0:0:
256,192,154748,1,0,0:0:0:0:
256,192,154817,1,8,0:0:0:0:
256,192,155058,1,8,0:0:0:0:
256,192,155162,1,8,0:0:0:0:
256,192,155265,1,0,0:0:0:0:
256,192,155369,1,0,0:0:0:0:
256,192,155472,1,0,0:0:0:0:
256,192,155575,1,8,0:0:0:0:
256,192,155679,1,0,0:0:0:0:
256,192,155782,1,0,0:0:0:0:
256,192,155886,1,0,0:0:0:0:
256,192,155989,1,8,0:0:0:0:
256,192,156093,1,0,0:0:0:0:
256,192,156196,1,0,0:0:0:0:
256,192,156300,1,8,0:0:0:0:
256,192,156403,1,0,0:0:0:0:
256,192,156507,1,0,0:0:0:0:
256,192,156610,1,8,0:0:0:0:
256,192,156713,1,8,0:0:0:0:
256,192,156817,1,0,0:0:0:0:
256,192,156920,1,0,0:0:0:0:
256,192,157024,1,8,0:0:0:0:
256,192,157127,1,0,0:0:0:0:
256,192,157231,1,0,0:0:0:0:
256,192,157334,1,8,0:0:0:0:
256,192,157438,1,8,0:0:0:0:
256,192,157644,1,0,0:0:0:0:
256,192,157748,1,0,0:0:0:0:
256,192,157851,1,8,0:0:0:0:
256,192,158058,1,0,0:0:0:0:
256,192,158162,1,8,0:0:0:0:
256,192,158265,1,0,0:0:0:0:
256,192,158472,1,8,0:0:0:0:
256,192,158679,1,0,0:0:0:0:
256,192,158782,1,8,0:0:0:0:
256,192,158886,1,8,0:0:0:0:
256,192,158989,1,0,0:0:0:0:
256,192,159196,1,8,0:0:0:0:
256,192,159403,1,0,0:0:0:0:
256,192,159506,1,8,0:0:0:0:
256,192,159610,1,0,0:0:0:0:
256,192,159817,1,8,0:0:0:0:
256,192,159920,1,0,0:0:0:0:
256,192,160024,1,0,0:0:0:0:
256,192,160127,1,8,0:0:0:0:
256,192,160334,1,0,0:0:0:0:
256,192,160438,1,8,0:0:0:0:
256,192,160541,1,8,0:0:0:0:
256,192,160644,1,0,0:0:0:0:
256,192,160748,1,0,0:0:0:0:
256,192,160851,1,0,0:0:0:0:
256,192,160955,1,8,0:0:0:0:
256,192,161058,1,0,0:0:0:0:
256,192,161162,1,0,0:0:0:0:
256,192,161265,1,8,0:0:0:0:
256,192,161369,1,0,0:0:0:0:
256,192,161472,1,0,0:0:0:0:
256,192,161575,1,8,0:0:0:0:
256,192,161679,1,8,0:0:0:0:
256,192,161782,1,0,0:0:0:0:
256,192,161886,1,0,0:0:0:0:
256,192,161989,1,8,0:0:0:0:
256,192,162093,1,0,0:0:0:0:
256,192,162196,1,8,0:0:0:0:
256,192,162300,1,8,0:0:0:0:
256,192,162403,1,8,0:0:0:0:
256,192,162506,1,0,0:0:0:0:
256,192,162610,1,0,0:0:0:0:
256,192,162713,1,8,0:0:0:0:
256,192,162817,1,8,0:0:0:0:
256,192,162920,1,0,0:0:0:0:
256,192,163024,1,0,0:0:0:0:
256,192,163127,1,8,0:0:0:0:
256,192,163231,1,8,0:0:0:0:
256,192,163334,1,0,0:0:0:0:
256,192,163438,1,8,0:0:0:0:
256,192,163541,1,0,0:0:0:0:
256,192,163644,1,0,0:0:0:0:
256,192,163748,1,8,0:0:0:0:
256,192,163851,1,8,0:0:0:0:
256,192,163955,1,0,0:0:0:0:
256,192,164058,1,0,0:0:0:0:
256,192,164162,1,8,0:0:0:0:
256,192,164265,1,0,0:0:0:0:
256,192,164369,1,0,0:0:0:0:
256,192,164472,1,8,0:0:0:0:
256,192,164575,1,0,0:0:0:0:
256,192,164679,1,0,0:0:0:0:
256,192,164782,1,8,0:0:0:0:
256,192,164886,1,0,0:0:0:0:
256,192,164989,1,0,0:0:0:0:
256,192,165093,1,8,0:0:0:0:
256,192,165196,1,0,0:0:0:0:
256,192,165300,1,0,0:0:0:0:
256,192,165403,1,8,0:0:0:0:
256,192,165507,1,8,0:0:0:0:
256,192,165610,1,0,0:0:0:0:
256,192,165713,1,0,0:0:0:0:
256,192,165817,1,8,0:0:0:0:
256,192,165920,1,8,0:0:0:0:
256,192,166024,1,0,0:0:0:0:
256,192,166127,1,0,0:0:0:0:
256,192,166231,1,8,0:0:0:0:
256,192,166334,1,0,0:0:0:0:
256,192,166438,1,0,0:0:0:0:
256,192,166541,1,8,0:0:0:0:
256,192,166644,1,8,0:0:0:0:
256,192,166748,1,0,0:0:0:0:
256,192,166851,1,0,0:0:0:0:
256,192,166955,1,8,0:0:0:0:
256,192,167058,1,0,0:0:0:0:
256,192,167162,1,0,0:0:0:0:
256,192,167265,1,8,0:0:0:0:
256,192,167369,1,4,0:0:0:0:
256,192,167575,1,12,0:0:0:0:
256,192,167782,1,4,0:0:0:0:
256,192,167989,1,12,0:0:0:0:
256,192,168196,1,8,0:0:0:0:
256,192,169024,1,8,0:0:0:0:
256,192,169851,1,8,0:0:0:0:
256,192,170679,1,8,0:0:0:0:
256,192,170886,1,12,0:0:0:0:
256,192,171093,1,4,0:0:0:0:
256,192,171300,1,12,0:0:0:0:
256,192,171507,1,8,0:0:0:0:
256,192,172334,1,4,0:0:0:0:
256,192,172541,1,8,0:0:0:0:
256,192,172748,1,0,0:0:0:0:
256,192,172955,1,8,0:0:0:0:
256,192,173162,1,12,0:0:0:0:
256,192,173782,1,8,0:0:0:0:
256,192,173886,1,8,0:0:0:0:
256,192,173989,1,4,0:0:0:0:
256,192,174196,1,12,0:0:0:0:
256,192,174403,1,4,0:0:0:0:
256,192,174610,1,12,0:0:0:0:
256,192,174817,1,8,0:0:0:0:
256,192,175644,1,8,0:0:0:0:
256,192,176472,1,8,0:0:0:0:
256,192,177300,1,8,0:0:0:0:
256,192,177507,1,12,0:0:0:0:
256,192,177713,1,4,0:0:0:0:
256,192,177920,1,12,0:0:0:0:
256,192,178127,1,8,0:0:0:0:
256,192,178748,1,0,0:0:0:0:
256,192,178851,1,0,0:0:0:0:
256,192,178955,1,12,0:0:0:0:
256,192,179162,1,8,0:0:0:0:
256,192,179369,1,0,0:0:0:0:
256,192,179575,1,8,0:0:0:0:
256,192,179782,1,0,0:0:0:0:
256,192,179989,1,0,0:0:0:0:
256,192,180196,1,4,0:0:0:0:
256,192,180610,1,0,0:0:0:0:
256,192,180817,1,8,0:0:0:0:
256,192,181231,1,0,0:0:0:0:
256,192,181300,1,0,0:0:0:0:
256,192,181369,1,0,0:0:0:0:
256,192,181438,1,8,0:0:0:0:
256,192,181644,1,0,0:0:0:0:
256,192,181851,1,0,0:0:0:0:
256,192,182058,1,12,0:0:0:0:
256,192,182369,1,0,0:0:0:0:
256,192,182679,1,4,0:0:0:0:
256,192,187024,1,8,0:0:0:0:
256,192,187075,1,8,0:0:0:0:
256,192,187127,1,8,0:0:0:0:
256,192,187179,1,8,0:0:0:0:
256,192,187231,1,0,0:0:0:0:
256,192,187438,1,8,0:0:0:0:
256,192,187644,1,0,0:0:0:0:
256,192,187851,1,0,0:0:0:0:
256,192,188058,1,8,0:0:0:0:
256,192,188472,1,0,0:0:0:0:
256,192,188679,1,8,0:0:0:0:
256,192,188886,1,0,0:0:0:0:
256,192,189093,1,8,0:0:0:0:
256,192,189300,1,0,0:0:0:0:
256,192,189507,1,0,0:0:0:0:
256,192,189713,1,8,0:0:0:0:
256,192,189920,1,0,0:0:0:0:
256,192,190127,1,0,0:0:0:0:
256,192,190334,1,8,0:0:0:0:
256,192,190541,1,0,0:0:0:0:
256,192,190748,1,12,0:0:0:0:
256,192,190955,1,4,0:0:0:0:
256,192,191162,1,4,0:0:0:0:
256,192,191369,1,8,0:0:0:0:
256,192,191575,1,0,0:0:0:0:
256,192,191782,1,0,0:0:0:0:
256,192,191989,1,8,0:0:0:0:
256,192,192196,1,0,0:0:0:0:
256,192,192403,1,8,0:0:0:0:
256,192,192610,1,0,0:0:0:0:
256,192,192817,1,0,0:0:0:0:
256,192,193024,1,8,0:0:0:0:
256,192,193231,1,0,0:0:0:0:
256,192,193438,1,0,0:0:0:0:
256,192,193644,1,8,0:0:0:0:
256,192,193851,1,0,0:0:0:0:
256,192,194058,1,0,0:0:0:0:
256,192,194265,1,8,0:0:0:0:
256,192,194472,1,0,0:0:0:0:
256,192,194679,1,12,0:0:0:0:
256,192,195093,1,0,0:0:0:0:
256,192,195300,1,8,0:0:0:0:
256,192,195507,1,0,0:0:0:0:
256,192,195713,1,8,0:0:0:0:
256,192,195920,1,0,0:0:0:0:
256,192,196127,1,0,0:0:0:0:
256,192,196334,1,8,0:0:0:0:
256,192,196541,1,8,0:0:0:0:
256,192,196748,1,0,0:0:0:0:
256,192,196955,1,8,0:0:0:0:
256,192,197162,1,0,0:0:0:0:
256,192,197369,1,12,0:0:0:0:
256,192,197575,1,4,0:0:0:0:
256,192,197782,1,12,0:0:0:0:
256,192,199024,1,8,0:0:0:0:
256,192,199231,1,0,0:0:0:0:
256,192,199438,1,0,0:0:0:0:
256,192,199644,1,8,0:0:0:0:
256,192,199851,1,0,0:0:0:0:
256,192,200058,1,8,0:0:0:0:
256,192,200472,1,0,0:0:0:0:
256,192,200679,1,0,0:0:0:0:
256,192,200886,1,8,0:0:0:0:
256,192,201093,1,0,0:0:0:0:
256,192,201300,1,12,0:0:0:0:
256,192,201713,1,0,0:0:0:0:
256,192,201920,1,0,0:0:0:0:
256,192,202127,1,0,0:0:0:0:
256,192,202334,1,8,0:0:0:0:
256,192,202541,1,0,0:0:0:0:
256,192,202748,1,0,0:0:0:0:
256,192,202955,1,8,0:0:0:0:
256,192,203162,1,0,0:0:0:0:
256,192,203369,1,0,0:0:0:0:
256,192,203575,1,8,0:0:0:0:
256,192,203782,1,0,0:0:0:0:
256,192,203989,1,12,0:0:0:0:
256,192,204196,1,4,0:0:0:0:
256,192,204403,1,4,0:0:0:0:
256,192,204610,1,12,0:0:0:0:
256,192,205024,1,0,0:0:0:0:
256,192,205231,1,8,0:0:0:0:
256,192,205438,1,0,0:0:0:0:
256,192,205644,1,8,0:0:0:0:
256,192,205851,1,0,0:0:0:0:
256,192,206058,1,0,0:0:0:0:
256,192,206265,1,8,0:0:0:0:
256,192,207093,1,0,0:0:0:0:
256,192,207300,1,8,0:0:0:0:
256,192,207507,1,0,0:0:0:0:
256,192,207713,1,0,0:0:0:0:
256,192,207920,1,12,0:0:0:0:
256,192,208334,1,0,0:0:0:0:
256,192,208541,1,8,0:0:0:0:
256,192,208748,1,0,0:0:0:0:
256,192,208955,1,8,0:0:0:0:
256,192,209162,1,8,0:0:0:0:
256,192,209369,1,0,0:0:0:0:
256,192,209575,1,8,0:0:0:0:
256,192,209782,1,0,0:0:0:0:
256,192,210196,1,8,0:0:0:0:
256,192,210403,1,0,0:0:0:0:
256,192,210610,1,12,0:0:0:0:
256,192,210817,1,4,0:0:0:0:
256,192,211024,1,12,0:0:0:0:
256,192,211438,1,0,0:0:0:0:
256,192,211644,1,8,0:0:0:0:
256,192,212058,1,0,0:0:0:0:
256,192,212265,1,8,0:0:0:0:
256,192,212369,1,8,0:0:0:0:
256,192,212472,1,0,0:0:0:0:
256,192,212575,1,0,0:0:0:0:
256,192,212679,1,0,0:0:0:0:
256,192,212886,1,8,0:0:0:0:
256,192,213093,1,0,0:0:0:0:
256,192,213300,1,8,0:0:0:0:
256,192,213713,1,4,0:0:0:0:
256,192,213920,1,12,0:0:0:0:
256,192,214127,1,4,0:0:0:0:
256,192,214334,1,12,0:0:0:0:
256,192,214541,1,8,0:0:0:0:
256,192,215369,1,8,0:0:0:0:
256,192,216196,1,8,0:0:0:0:
256,192,217024,1,8,0:0:0:0:
256,192,217231,1,12,0:0:0:0:
256,192,217438,1,4,0:0:0:0:
256,192,217644,1,12,0:0:0:0:
256,192,217851,1,8,0:0:0:0:
256,192,218679,1,8,0:0:0:0:
256,192,218886,1,0,0:0:0:0:
256,192,219300,1,0,0:0:0:0:
256,192,219507,1,8,0:0:0:0:
256,192,220334,1,0,0:0:0:0:
256,192,220541,1,8,0:0:0:0:
256,192,220748,1,0,0:0:0:0:
256,192,220955,1,0,0:0:0:0:
256,192,221162,1,8,0:0:0:0:
256,192,221989,1,8,0:0:0:0:
256,192,222817,1,8,0:0:0:0:
256,192,223644,1,8,0:0:0:0:
256,192,223851,1,12,0:0:0:0:
256,192,224058,1,4,0:0:0:0:
256,192,224265,1,12,0:0:0:0:
256,192,224472,1,8,0:0:0:0:
256,192,225093,1,0,0:0:0:0:
256,192,225300,1,4,0:0:0:0:
256,192,225713,1,0,0:0:0:0:
256,192,225920,1,12,0:0:0:0:
256,192,226334,1,0,0:0:0:0:
256,192,226403,1,0,0:0:0:0:
256,192,226472,1,0,0:0:0:0:
256,192,226541,1,8,0:0:0:0:
256,192,226748,1,0,0:0:0:0:
256,192,226955,1,4,0:0:0:0:
256,192,227161,12,0,236058,0:0:0:0:
256,192,236472,5,8,0:0:0:0:
256,192,236541,1,8,0:0:0:0:
256,192,236610,1,0,0:0:0:0:
256,192,236679,1,0,0:0:0:0:
256,192,236748,1,0,0:0:0:0:
256,192,236817,1,8,0:0:0:0:
256,192,236886,1,8,0:0:0:0:
256,192,236955,1,0,0:0:0:0:
256,192,237023,1,0,0:0:0:0:
256,192,237092,1,0,0:0:0:0:
256,192,237161,1,0,0:0:0:0:
256,192,237230,1,0,0:0:0:0:
256,192,237299,1,8,0:0:0:0:
256,192,237368,1,0,0:0:0:0:
256,192,237437,1,0,0:0:0:0:
256,192,237506,1,8,0:0:0:0:
256,192,237575,1,0,0:0:0:0:
256,192,237644,1,0,0:0:0:0:
256,192,237713,1,0,0:0:0:0:
256,192,237782,1,0,0:0:0:0:
256,192,237851,1,0,0:0:0:0:
256,192,237920,1,0,0:0:0:0:
256,192,237989,1,0,0:0:0:0:
256,192,238058,1,0,0:0:0:0:
256,192,238127,1,8,0:0:0:0:
256,192,238196,1,0,0:0:0:0:
256,192,238265,1,0,0:0:0:0:
256,192,238334,1,0,0:0:0:0:
256,192,238403,1,0,0:0:0:0:
256,192,238472,1,0,0:0:0:0:
256,192,238541,1,12,0:0:0:0:
256,192,238644,1,0,0:0:0:0:
256,192,238816,1,12,0:0:0:0:
256,192,239161,1,0,0:0:0:0:
256,192,239368,1,8,0:0:0:0:
256,192,239472,1,0,0:0:0:0:
256,192,239678,1,0,0:0:0:0:
256,192,239989,1,12,0:0:0:0:
256,192,240299,1,12,0:0:0:0:
256,192,240609,1,8,0:0:0:0:
256,192,240713,1,0,0:0:0:0:
256,192,240920,1,0,0:0:0:0:
256,192,241127,1,8,0:0:0:0:
256,192,241437,1,0,0:0:0:0:
256,192,241541,1,0,0:0:0:0:
256,192,241713,1,12,0:0:0:0:
256,192,242058,1,0,0:0:0:0:
256,192,242265,1,0,0:0:0:0:
256,192,242368,1,0,0:0:0:0:
256,192,242575,1,4,0:0:0:0:
256,192,242885,1,0,0:0:0:0:
256,192,243196,1,12,0:0:0:0:
256,192,243506,1,12,0:0:0:0:
256,192,243609,1,0,0:0:0:0:
256,192,243816,1,0,0:0:0:0:
256,192,244023,1,8,0:0:0:0:
256,192,244334,1,12,0:0:0:0:
256,192,244437,1,0,0:0:0:0:
256,192,244609,1,12,0:0:0:0:
256,192,244954,1,0,0:0:0:0:
256,192,245161,1,8,0:0:0:0:
256,192,245265,1,0,0:0:0:0:
256,192,245471,1,0,0:0:0:0:
256,192,245782,1,12,0:0:0:0:
256,192,246092,1,12,0:0:0:0:
256,192,246402,1,8,0:0:0:0:
256,192,246506,1,0,0:0:0:0:
256,192,246713,1,0,0:0:0:0:
256,192,246920,1,8,0:0:0:0:
256,192,247230,1,0,0:0:0:0:
256,192,247334,1,0,0:0:0:0:
256,192,247506,1,12,0:0:0:0:
256,192,247851,1,0,0:0:0:0:
256,192,248058,1,0,0:0:0:0:
256,192,248161,1,0,0:0:0:0:
256,192,248368,1,4,0:0:0:0:
256,192,248678,1,0,0:0:0:0:
256,192,248989,1,12,0:0:0:0:
256,192,249299,1,12,0:0:0:0:
256,192,249402,1,0,0:0:0:0:
256,192,249609,1,0,0:0:0:0:
256,192,249816,1,8,0:0:0:0:
256,192,250127,1,12,0:0:0:0:
256,192,250230,1,0,0:0:0:0:
256,192,250402,1,12,0:0:0:0:
256,192,250747,1,0,0:0:0:0:
256,192,250954,1,8,0:0:0:0:
256,192,251058,1,0,0:0:0:0:
256,192,251264,1,0,0:0:0:0:
256,192,251575,1,12,0:0:0:0:
256,192,251885,1,12,0:0:0:0:
256,192,252195,1,8,0:0:0:0:
256,192,252299,1,0,0:0:0:0:
256,192,252506,1,0,0:0:0:0:
256,192,252713,1,8,0:0:0:0:
256,192,253023,1,0,0:0:0:0:
256,192,253127,1,0,0:0:0:0:
256,192,253299,1,12,0:0:0:0:
256,192,253644,1,0,0:0:0:0:
256,192,253851,1,0,0:0:0:0:
256,192,253954,1,0,0:0:0:0:
256,192,254161,1,4,0:0:0:0:
256,192,254471,1,0,0:0:0:0:
256,192,254782,1,12,0:0:0:0:
256,192,255092,1,12,0:0:0:0:
256,192,255195,1,0,0:0:0:0:
256,192,255402,1,0,0:0:0:0:
256,192,255609,1,8,0:0:0:0:
256,192,255920,1,12,0:0:0:0:
256,192,256023,1,0,0:0:0:0:
256,192,256195,1,12,0:0:0:0:
256,192,256540,1,0,0:0:0:0:
256,192,256747,1,8,0:0:0:0:
256,192,256851,1,0,0:0:0:0:
256,192,257057,1,0,0:0:0:0:
256,192,257368,1,12,0:0:0:0:
256,192,257678,1,12,0:0:0:0:
256,192,257988,1,8,0:0:0:0:
256,192,258092,1,0,0:0:0:0:
256,192,258299,1,0,0:0:0:0:
256,192,258506,1,8,0:0:0:0:
256,192,258816,1,0,0:0:0:0:
256,192,258920,1,0,0:0:0:0:
256,192,259092,1,12,0:0:0:0:
256,192,259437,1,0,0:0:0:0:
256,192,259644,1,0,0:0:0:0:
256,192,259747,1,0,0:0:0:0:
256,192,259954,1,4,0:0:0:0:
256,192,260264,1,0,0:0:0:0:
256,192,260575,1,12,0:0:0:0:
256,192,260885,1,12,0:0:0:0:
256,192,260988,1,0,0:0:0:0:
256,192,261195,1,0,0:0:0:0:
256,192,261402,1,8,0:0:0:0:
256,192,261713,1,12,0:0:0:0:
256,192,261919,12,0,267506,0:0:0:0:
