osu file format v14

[General]
AudioFilename: Angus And Julia Stone (Matt Neux Remix) - Big Jet Plane (Matt Neux Edit).mp3
AudioLeadIn: 0
PreviewTime: 117297
Countdown: 0
SampleSet: Soft
StackLeniency: 0.7
Mode: 2
LetterboxInBreaks: 0
EpilepsyWarning: 1
WidescreenStoryboard: 1

[Editor]
Bookmarks: 11261,17951,37441,39611,46512,50191,58671,66883,86571,108137,114602,115465,116621,123376,125542,141572,156298,164702,222903,227150,228137,234639,252279,256071,263929,272745,292085,299925,139249,152853,175631
DistanceSpacing: 1.1
BeatDivisor: 4
GridSize: 8
TimelineZoom: 1.5

[Metadata]
Title:Big Jet Plane (Matt Neux Remix)
TitleUnicode:Big Jet Plane (Matt Neux Remix)
Artist:Angus And Julia Stone
ArtistUnicode:Angus And Julia Stone
Creator:WildOne94
Version:Elevation
Source:
Tags:JBHyperion techno trance deep house Electronic(English)
BeatmapID:761644
BeatmapSetID:344833

[Difficulty]
HPDrainRate:6
CircleSize:3.5
OverallDifficulty:8.5
ApproachRate:8.5
SliderMultiplier:2.2
SliderTickRate:2

[Events]
//Background and Video events
0,0,"maxresdefault (1) resize.jpg",0,0
//Break Periods
//Storyboard Layer 0 (Background)
//Storyboard Layer 1 (Fail)
//Storyboard Layer 2 (Pass)
//Storyboard Layer 3 (Foreground)
//Storyboard Sound Samples

[TimingPoints]
46,458.015267175573,4,2,1,60,1,0
58671,-100,4,2,1,20,0,0
59587,-100,4,2,1,35,0,0
87984,-100,4,2,1,45,0,0
113633,-100,4,2,1,55,0,0
115465,-100,4,2,1,65,0,0
117297,-100,4,2,1,25,0,1
117755,-100,4,2,1,60,0,1
131954,-100,4,2,1,25,0,1
132412,-100,4,2,1,60,0,1
142946,-100,4,2,0,20,0,1
143404,-100,4,2,1,60,0,1
146610,-100,4,2,1,15,0,0
147068,-100,4,2,1,35,0,0
157603,-100,4,2,1,45,0,0
159435,-100,4,2,1,55,0,0
161267,-100,4,2,1,25,0,1
161725,-100,4,2,1,60,0,1
175923,-100,4,2,1,25,0,1
176381,-100,4,2,1,60,0,1
190580,-100,4,2,1,25,0,1
191038,-100,4,2,1,60,0,1
205236,-100,4,2,1,25,0,0
205465,-100,4,2,1,40,0,0
216229,-100,4,2,1,55,0,0
218061,-100,4,2,1,65,0,0
219893,-100,4,2,1,20,0,0
220351,-100,4,2,1,30,0,0
223557,-100,4,2,1,35,0,0
230885,-100,4,2,1,45,0,0
234549,-100,4,2,1,25,0,0
235007,-100,4,2,1,45,0,0
241878,-100,4,2,1,30,0,0
242336,-100,4,2,1,65,0,0
245542,-100,4,2,1,70,0,0
247374,-100,4,2,1,75,0,0
248748,-100,4,2,1,80,0,0
249206,-100,4,2,1,30,0,1
249664,-100,4,2,1,70,0,1
263862,-100,4,2,1,30,0,1
264091,-100,4,2,1,70,0,1
278519,-100,4,2,1,25,0,0
278748,-100,4,2,1,40,0,0
293175,-100,4,2,1,30,0,0
293633,-100,4,2,1,40,0,0
307832,-100,4,2,1,10,0,0
311038,-100,4,2,0,5,0,0

[Colours]
Combo1 : 11,18,115
Combo2 : 14,209,231
Combo3 : 103,103,252
Combo4 : 41,61,235
Combo5 : 194,185,249

[HitObjects]
256,184,46,5,2,0:0:0:0:
376,184,275,1,0,0:0:0:0:
152,200,504,2,0,L|56:120,1,110,8|0,0:0|0:0,0:0:0:0:
192,128,962,1,2,0:0:0:0:
312,120,1191,1,0,0:0:0:0:
192,128,1420,1,8,0:0:0:0:
72,128,1649,1,0,0:0:0:0:
296,128,1878,6,0,L|296:248,1,110,2|0,0:0|0:0,0:0:0:0:
176,232,2336,2,0,L|288:160,1,110,8|0,0:0|0:0,0:0:0:0:
392,168,2794,1,2,0:0:0:0:
268,172,3023,1,0,0:0:0:0:
24,248,3252,1,8,0:0:0:0:
144,248,3481,1,0,0:0:0:0:
320,248,3710,5,2,0:0:0:0:
440,248,3939,1,0,0:0:0:0:
256,256,4168,1,8,0:0:0:0:
136,256,4397,1,0,0:0:0:0:
336,248,4626,2,0,L|446:248,2,110,2|0|8,0:0|0:0|0:0,0:0:0:0:
216,248,5313,1,0,0:0:0:0:
448,240,5542,6,0,L|448:120,1,110,2|0,0:0|0:0,0:0:0:0:
224,104,6000,2,0,L|120:176,1,110,8|0,0:0|0:0,0:0:0:0:
256,168,6458,1,2,0:0:0:0:
133,166,6687,1,0,0:0:0:0:
256,168,6916,1,8,0:0:0:0:
376,168,7145,1,0,0:0:0:0:
48,160,7374,6,0,L|48:40,1,110,2|0,0:0|0:0,0:0:0:0:
168,72,7832,2,0,L|40:24,1,110,8|0,0:0|0:0,0:0:0:0:
184,64,8290,1,2,0:0:0:0:
304,72,8519,1,0,0:0:0:0:
184,64,8748,1,8,0:0:0:0:
304,72,8977,1,0,0:0:0:0:
88,128,9206,5,2,0:0:0:0:
208,128,9435,1,0,0:0:0:0:
328,136,9664,2,0,L|224:96,1,110,8|0,0:0|0:0,0:0:0:0:
104,104,10122,1,2,0:0:0:0:
328,136,10351,2,0,L|448:136,2,110,0|8|0,0:0|0:0|0:0,0:0:0:0:
144,136,11038,5,2,0:0:0:0:
24,136,11267,1,0,0:0:0:0:
144,136,11496,1,8,0:0:0:0:
24,136,11725,1,0,0:0:0:0:
256,136,11954,2,0,L|352:72,1,110,2|0,0:0|0:0,0:0:0:0:
256,64,12412,1,8,0:0:0:0:
376,64,12641,1,0,0:0:0:0:
80,64,12870,5,2,0:0:0:0:
80,184,13099,1,0,0:0:0:0:
304,232,13328,1,8,0:0:0:0:
304,112,13557,1,0,0:0:0:0:
80,64,13786,1,2,0:0:0:0:
200,64,14015,1,0,0:0:0:0:
400,232,14244,2,0,L|512:152,1,110,8|0,0:0|0:0,0:0:0:0:
168,96,14702,6,0,L|56:136,1,110,2|0,0:0|0:0,0:0:0:0:
200,136,15160,1,8,0:0:0:0:
72,136,15389,1,0,0:0:0:0:
264,200,15618,2,0,L|400:200,2,110,2|0|8,0:0|0:0|0:0,0:0:0:0:
136,200,16305,1,0,0:0:0:0:
352,200,16534,6,0,L|464:136,1,110,2|0,0:0|0:0,0:0:0:0:
256,168,16992,2,0,L|152:80,1,110,8|0,0:0|0:0,0:0:0:0:
376,192,17450,2,0,L|376:72,1,110,2|0,0:0|0:0,0:0:0:0:
256,80,17908,1,8,0:0:0:0:
136,80,18137,1,0,0:0:0:0:
392,240,18366,6,0,P|442:210|360:112,1,220,2|8,0:0|0:0,0:0:0:0:
256,112,19053,1,0,0:0:0:0:
24,112,19282,2,0,L|120:176,1,110,2|0,0:0|0:0,0:0:0:0:
224,112,19740,1,8,0:0:0:0:
104,112,19969,1,0,0:0:0:0:
400,112,20198,6,0,L|504:32,1,110,2|0,0:0|0:0,0:0:0:0:
248,112,20656,2,0,L|136:16,1,110,8|0,0:0|0:0,0:0:0:0:
352,40,21114,2,0,P|424:80|336:184,1,220,2|8,0:0|0:0,0:0:0:0:
496,192,21801,1,0,0:0:0:0:
200,192,22030,5,2,0:0:0:0:
80,192,22259,1,0,0:0:0:0:
200,192,22488,1,8,0:0:0:0:
320,192,22717,1,0,0:0:0:0:
80,200,22946,2,0,L|192:272,1,110,2|0,0:0|0:0,0:0:0:0:
296,256,23404,2,0,L|392:328,1,110,8|0,0:0|0:0,0:0:0:0:
144,304,23862,6,0,L|32:304,2,110,2|0|8,0:0|0:0|0:0,0:0:0:0:
256,304,24549,1,0,0:0:0:0:
472,304,24778,2,0,L|362:304,2,110,2|0|8,0:0|0:0|0:0,0:0:0:0:
352,304,25465,1,0,0:0:0:0:
120,304,25694,6,0,L|32:216,1,110,2|0,0:0|0:0,0:0:0:0:
248,304,26152,2,0,L|336:216,1,110,8|0,0:0|0:0,0:0:0:0:
208,216,26610,1,2,0:0:0:0:
328,216,26839,1,0,0:0:0:0:
208,216,27068,1,8,0:0:0:0:
88,216,27297,1,0,0:0:0:0:
472,216,27526,5,2,0:0:0:0:
472,96,27755,1,0,0:0:0:0:
256,80,27984,1,8,0:0:0:0:
256,208,28213,1,0,0:0:0:0:
440,208,28442,1,2,0:0:0:0:
440,88,28671,1,0,0:0:0:0:
120,72,28900,2,0,L|24:152,1,110,8|0,0:0|0:0,0:0:0:0:
416,248,29358,6,0,P|496:192|408:136,1,220,2|8,0:0|0:0,0:0:0:0:
312,128,30046,1,0,0:0:0:0:
64,128,30275,2,0,L|184:128,2,110,2|0|8,0:0|0:0|0:0,0:0:0:0:
174,128,30962,1,0,0:0:0:0:
480,160,31191,6,0,L|480:48,1,110,2|0,0:0|0:0,0:0:0:0:
256,144,31649,2,0,L|344:64,1,110,8|0,0:0|0:0,0:0:0:0:
112,96,32107,1,2,0:0:0:0:
112,216,32336,1,0,0:0:0:0:
320,96,32565,1,8,0:0:0:0:
440,96,32794,1,0,0:0:0:0:
136,208,33023,6,0,L|24:304,1,110,2|0,0:0|0:0,0:0:0:0:
264,248,33481,2,0,L|347:319,1,110,8|0,0:0|0:0,0:0:0:0:
160,192,33939,2,0,L|48:288,1,110,2|0,0:0|0:0,0:0:0:0:
320,192,34397,2,0,L|440:272,1,110,8|0,0:0|0:0,0:0:0:0:
80,280,34855,5,2,0:0:0:0:
80,160,35084,1,0,0:0:0:0:
296,160,35313,1,8,0:0:0:0:
416,160,35542,1,0,0:0:0:0:
232,272,35771,2,0,L|96:272,2,110,2|0|8,0:0|0:0|0:0,0:0:0:0:
352,272,36458,1,0,0:0:0:0:
48,264,36687,6,0,L|168:208,1,110,2|0,0:0|0:0,0:0:0:0:
368,216,37145,2,0,L|264:168,1,110,8|0,0:0|0:0,0:0:0:0:
80,248,37603,2,0,L|184:192,1,110,2|0,0:0|0:0,0:0:0:0:
368,192,38061,2,0,L|480:128,1,110,8|0,0:0|0:0,0:0:0:0:
112,176,38519,5,2,0:0:0:0:
0,248,38748,1,0,0:0:0:0:
112,176,38977,1,8,0:0:0:0:
224,240,39206,1,0,0:0:0:0:
440,240,39435,2,0,L|312:240,2,110,2|0|8,0:0|0:0|0:0,0:0:0:0:
360,240,40122,1,0,0:0:0:0:
64,272,40351,6,0,L|168:200,1,110,2|0,0:0|0:0,0:0:0:0:
272,200,40809,1,8,0:0:0:0:
154,209,41038,1,0,0:0:0:0:
368,208,41267,1,2,0:0:0:0:
488,208,41496,1,0,0:0:0:0:
120,280,41725,2,0,L|32:200,1,110,8|0,0:0|0:0,0:0:0:0:
464,288,42183,5,2,0:0:0:0:
464,168,42412,1,0,0:0:0:0:
256,288,42641,1,8,0:0:0:0:
256,168,42870,1,0,0:0:0:0:
424,144,43099,1,2,0:0:0:0:
424,264,43328,1,0,0:0:0:0:
40,312,43557,2,0,L|128:224,1,110,8|0,0:0|0:0,0:0:0:0:
480,304,44015,5,2,0:0:0:0:
360,304,44244,1,0,0:0:0:0:
160,168,44473,2,0,P|56:224|64:328,1,220,8|2,0:0|0:0,0:0:0:0:
176,312,45160,1,0,0:0:0:0:
296,312,45389,2,0,L|192:224,1,110,8|0,0:0|0:0,0:0:0:0:
432,232,45847,5,2,0:0:0:0:
304,232,46076,1,0,0:0:0:0:
432,232,46305,1,8,0:0:0:0:
304,232,46534,1,0,0:0:0:0:
80,240,46763,2,0,L|192:128,1,110,2|0,0:0|0:0,0:0:0:0:
384,160,47221,2,0,P|432:160|368:160,1,110,8|0,0:0|0:0,0:0:0:0:
80,240,47679,6,0,L|80:112,1,110,2|0,0:0|0:0,0:0:0:0:
264,192,48137,2,0,L|360:88,1,110,8|0,0:0|0:0,0:0:0:0:
72,240,48595,2,0,L|72:112,1,110,2|0,0:0|0:0,0:0:0:0:
312,128,49053,1,8,0:0:0:0:
440,128,49282,1,0,0:0:0:0:
144,136,49511,6,0,L|24:136,2,110,2|0|8,0:0|0:0|0:0,0:0:0:0:
352,128,50198,1,0,0:0:0:0:
144,136,50427,2,0,L|264:136,2,110,2|0|8,0:0|0:0|0:0,0:0:0:0:
32,144,51114,1,0,0:0:0:0:
376,136,51343,6,0,L|472:64,1,110,2|0,0:0|0:0,0:0:0:0:
256,144,51801,2,0,L|144:224,1,110,8|0,0:0|0:0,0:0:0:0:
360,144,52259,2,0,L|472:232,1,110,2|0,0:0|0:0,0:0:0:0:
80,136,52717,2,0,P|24:192|120:240,1,220,8|2,0:0|0:0,0:0:0:0:
240,232,53404,6,0,L|360:232,2,110,0|8|0,0:0|0:0|0:0,0:0:0:0:
120,232,54091,1,2,0:0:0:0:
240,232,54320,1,0,0:0:0:0:
360,232,54549,1,8,0:0:0:0:
64,240,55007,6,0,L|152:152,1,110,2|0,0:0|0:0,0:0:0:0:
448,240,55465,2,0,L|360:152,1,110,8|0,0:0|0:0,0:0:0:0:
184,160,55923,2,0,L|72:160,2,110,2|0|8,0:0|0:0|0:0,0:0:0:0:
400,152,56610,1,0,0:0:0:0:
88,152,56839,5,2,0:0:0:0:
88,280,57068,1,0,0:0:0:0:
408,152,57297,1,8,0:0:0:0:
408,280,57526,1,0,0:0:0:0:
112,152,57755,1,2,0:0:0:0:
112,280,57984,1,0,0:0:0:0:
464,144,58213,1,8,0:0:0:0:
464,272,58442,1,8,0:0:0:0:
160,272,58671,6,0,P|80:264|216:112,1,440,4|2,0:0|0:0,0:0:0:0:
376,96,60046,1,0,0:0:0:0:
168,88,60504,5,2,0:0:0:0:
376,88,60962,2,0,L|486:88,2,110,0|0|2,0:0|0:0|0:0,0:0:0:0:
256,88,61878,1,0,0:0:0:0:
144,96,62336,6,0,L|32:96,2,110,2|0|0,0:0|0:0|0:0,0:0:0:0:
256,96,63023,1,0,0:0:0:0:
376,96,63252,2,0,L|280:176,1,110,2|0,0:0|0:0,0:0:0:0:
168,168,63710,2,0,L|64:72,1,110
200,88,64168,6,0,L|328:88,2,110,2|0|0,0:0|0:0|0:0,0:0:0:0:
80,88,64855,1,0,0:0:0:0:
200,88,65084,1,2,0:0:0:0:
80,88,65313,1,0,0:0:0:0:
200,88,65542,1,0,0:0:0:0:
320,88,65771,1,0,0:0:0:0:
120,184,66000,6,0,P|80:144|128:72,1,110,2|0,0:0|0:0,0:0:0:0:
208,96,66458,1,0,0:0:0:0:
328,96,66687,1,0,0:0:0:0:
208,104,66916,1,2,0:0:0:0:
448,96,67374,2,0,L|352:184,1,110
256,176,67832,6,0,L|104:176,2,110,2|0|0,0:0|0:0|0:0,0:0:0:0:
376,176,68519,1,0,0:0:0:0:
176,144,68748,2,0,P|88:216|144:256,1,220,2|0,0:0|0:0,0:0:0:0:
384,296,69664,6,0,L|488:192,1,110,2|0,0:0|0:0,0:0:0:0:
344,208,70122,2,0,L|248:104,1,110
392,120,70580,2,0,L|512:120,2,110,2|0|0,0:0|0:0|0:0,0:0:0:0:
256,120,71267,1,0,0:0:0:0:
48,120,71496,5,2,0:0:0:0:
168,120,71725,1,0,0:0:0:0:
288,120,71954,1,0,0:0:0:0:
168,120,72183,1,0,0:0:0:0:
48,120,72412,1,2,0:0:0:0:
168,120,72641,1,0,0:0:0:0:
288,120,72870,2,0,L|400:64,1,110
136,280,73328,6,0,L|32:224,2,110,2|0|0,0:0|0:0|0:0,0:0:0:0:
256,264,74015,1,0,0:0:0:0:
440,232,74244,2,0,P|392:328|248:336,1,220,2|0,0:0|0:0,0:0:0:0:
360,216,75160,6,0,P|256:184|208:48,1,220,2|0,0:0|0:0,0:0:0:0:
336,88,75847,1,0,0:0:0:0:
152,88,76076,2,0,P|56:112|72:248,1,220,2|0,0:0|0:0,0:0:0:0:
336,264,76992,5,2,0:0:0:0:
456,264,77221,1,0,0:0:0:0:
336,264,77450,2,0,L|192:264,2,110,0|0|2,0:0|0:0|0:0,0:0:0:0:
216,264,78137,1,0,0:0:0:0:
96,264,78366,1,0,0:0:0:0:
96,144,78595,1,0,0:0:0:0:
216,144,78824,6,0,L|360:144,2,110,2|0|0,0:0|0:0|0:0,0:0:0:0:
96,136,79511,1,0,0:0:0:0:
216,136,79740,1,2,0:0:0:0:
96,136,79969,1,0,0:0:0:0:
216,136,80198,2,0,L|336:232,1,110
88,224,80656,6,0,P|32:176|112:64,1,220,2|0,0:0|0:0,0:0:0:0:
208,64,81343,1,0,0:0:0:0:
416,64,81572,2,0,P|488:80|432:176,1,220,2|0,0:0|0:0,0:0:0:0:
320,200,82488,6,0,P|208:168|192:64,1,220,2|0,0:0|0:0,0:0:0:0:
312,80,83175,1,0,0:0:0:0:
96,80,83404,2,0,P|24:120|112:168,1,220,2|0,0:0|0:0,0:0:0:0:
224,264,84320,6,0,L|352:168,1,110,2|0,0:0|0:0,0:0:0:0:
192,200,84778,2,0,L|104:120,1,110
232,152,85236,2,0,L|320:64,1,110,2|0,0:0|0:0,0:0:0:0:
192,80,85694,1,0,0:0:0:0:
72,80,85923,1,0,0:0:0:0:
296,80,86152,5,2,0:0:0:0:
296,200,86381,1,0,0:0:0:0:
176,208,86610,1,0,0:0:0:0:
176,88,86839,1,0,0:0:0:0:
296,88,87068,1,2,0:0:0:0:
296,208,87297,1,0,0:0:0:0:
176,208,87526,1,0,0:0:0:0:
56,200,87755,1,0,0:0:0:0:
360,216,87984,6,0,P|400:160|304:56,1,220,2|8,0:0|0:0,0:0:0:0:
440,56,88671,1,0,0:0:0:0:
192,72,88900,2,0,P|240:168|384:216,1,220,2|8,0:0|0:0,0:0:0:0:
96,224,89816,6,0,L|200:144,1,110,2|0,0:0|0:0,0:0:0:0:
304,152,90275,1,8,0:0:0:0:
183,156,90504,1,0,0:0:0:0:
400,152,90733,2,0,P|480:120|408:24,1,220,2|8,0:0|0:0,0:0:0:0:
200,40,91649,6,0,L|72:40,2,110,2|0|8,0:0|0:0|0:0,0:0:0:0:
80,40,92336,1,0,0:0:0:0:
200,40,92565,2,0,L|320:40,2,110,2|0|8,0:0|0:0|0:0,0:0:0:0:
80,40,93252,1,0,0:0:0:0:
280,56,93481,6,0,L|184:120,1,110,2|0,0:0|0:0,0:0:0:0:
312,104,93939,2,0,L|408:184,1,110,8|0,0:0|0:0,0:0:0:0:
280,192,94397,2,0,L|152:192,3,110,2|0|8|0,0:0|0:0|0:0|0:0,0:0:0:0:
392,192,95313,6,0,P|344:288|216:296,1,220,2|8,0:0|0:0,0:0:0:0:
360,312,96000,1,0,0:0:0:0:
160,312,96229,2,0,P|64:264|72:128,1,220,2|8,0:0|0:0,0:0:0:0:
296,152,97145,5,2,0:0:0:0:
176,152,97374,1,0,0:0:0:0:
296,152,97603,2,0,L|424:152,1,110,8|0,0:0|0:0,0:0:0:0:
192,200,98061,2,0,P|96:152|104:16,1,220,2|8,0:0|0:0,0:0:0:0:
416,160,98977,6,0,L|504:88,1,110,2|0,0:0|0:0,0:0:0:0:
384,80,99435,1,8,0:0:0:0:
264,80,99664,1,0,0:0:0:0:
144,80,99893,2,0,L|232:8,1,110,2|0,0:0|0:0,0:0:0:0:
352,16,100351,1,8,0:0:0:0:
472,16,100580,1,0,0:0:0:0:
120,80,100809,5,2,0:0:0:0:
120,200,101038,1,0,0:0:0:0:
320,200,101267,1,8,0:0:0:0:
320,80,101496,1,0,0:0:0:0:
200,80,101725,1,2,0:0:0:0:
200,200,101954,1,0,0:0:0:0:
368,200,102183,2,0,L|488:96,1,110,8|0,0:0|0:0,0:0:0:0:
256,192,102641,6,0,P|168:168|208:64,1,220,2|8,0:0|0:0,0:0:0:0:
80,64,103328,1,0,0:0:0:0:
296,72,103557,2,0,L|72:208,1,220,2|8,0:0|0:0,0:0:0:0:
448,200,104473,6,0,L|320:200,2,110,2|0|8,0:0|0:0|0:0,0:0:0:0:
328,184,105160,1,0,0:0:0:0:
136,168,105389,2,0,P|40:208|72:320,1,220,2|8,0:0|0:0,0:0:0:0:
416,224,106305,5,2,0:0:0:0:
296,224,106534,1,0,0:0:0:0:
416,224,106763,1,8,0:0:0:0:
296,224,106992,1,0,0:0:0:0:
416,224,107221,2,0,L|512:160,1,110,2|0,0:0|0:0,0:0:0:0:
376,184,107679,2,0,L|480:120,1,110,8|0,0:0|0:0,0:0:0:0:
248,96,108137,5,2,0:0:0:0:
128,96,108366,1,0,0:0:0:0:
248,96,108595,1,8,0:0:0:0:
368,96,108824,1,0,0:0:0:0:
144,96,109053,1,2,0:0:0:0:
144,216,109282,1,0,0:0:0:0:
376,96,109511,1,8,0:0:0:0:
376,216,109740,1,0,0:0:0:0:
192,224,109969,6,0,P|96:200|96:80,1,220,2|8,0:0|0:0,0:0:0:0:
208,96,110656,1,0,0:0:0:0:
432,152,110885,2,0,L|264:0,1,220,2|8,0:0|0:0,0:0:0:0:
432,24,111801,5,2,0:0:0:0:
432,152,112030,1,0,0:0:0:0:
312,144,112259,2,0,L|424:48,1,110,8|0,0:0|0:0,0:0:0:0:
192,64,112717,2,0,P|96:72|160:168,1,220,2|8,0:0|0:0,0:0:0:0:
256,192,113633,5,2,0:0:0:0:
376,192,113862,1,0,0:0:0:0:
256,192,114091,1,8,0:0:0:0:
136,192,114320,1,0,0:0:0:0:
336,208,114549,2,0,L|416:128,1,110,2|0,0:0|0:0,0:0:0:0:
216,216,115007,2,0,L|136:136,1,110,8|0,0:0|0:0,0:0:0:0:
376,120,115465,5,2,0:0:0:0:
496,120,115694,1,0,0:0:0:0:
312,120,115923,1,10,0:0:0:0:
432,120,116152,1,0,0:0:0:0:
136,120,116381,1,2,0:0:0:0:
16,120,116610,1,0,0:0:0:0:
232,120,116839,1,10,0:0:0:0:
32,128,117068,1,8,0:0:0:0:
360,280,117297,5,6,0:0:0:0:
480,280,117526,1,0,0:0:0:0:
160,240,117755,2,0,L|24:152,1,110,8|0,0:0|0:0,0:0:0:0:
360,240,118213,2,0,L|452:180,1,110,2|0,0:0|0:0,0:0:0:0:
328,168,118671,1,8,0:0:0:0:
208,168,118900,1,0,0:0:0:0:
400,160,119129,5,2,0:0:0:0:
272,152,119358,2,0,L|179:209,1,110,0|8,0:0|0:0,0:0:0:0:
56,208,119816,1,0,0:0:0:0:
352,120,120046,1,2,0:0:0:0:
472,120,120275,1,0,0:0:0:0:
168,320,120504,2,0,L|48:264,1,110,8|0,0:0|0:0,0:0:0:0:
376,80,120962,6,0,L|504:80,2,110,2|0|8,0:0|0:0|0:0,0:0:0:0:
256,80,121649,1,0,0:0:0:0:
24,133,121878,2,0,L|112:64,1,110,2|0,0:0|0:0,0:0:0:0:
224,104,122336,2,0,L|128:184,1,110,8|0,0:0|0:0,0:0:0:0:
480,72,122794,5,2,0:0:0:0:
360,72,123023,1,0,0:0:0:0:
240,72,123252,1,8,0:0:0:0:
360,72,123481,1,0,0:0:0:0:
168,72,123710,1,2,0:0:0:0:
288,72,123939,1,0,0:0:0:0:
168,72,124168,1,8,0:0:0:0:
48,72,124397,1,0,0:0:0:0:
440,200,124626,6,0,P|480:164|488:110,1,110,2|0,0:0|0:0,0:0:0:0:
288,200,125084,2,0,L|168:128,1,110,8|0,0:0|0:0,0:0:0:0:
312,128,125542,2,0,L|432:128,2,110,2|0|8,0:0|0:0|0:0,0:0:0:0:
432,128,126229,1,0,0:0:0:0:
136,144,126458,5,2,0:0:0:0:
16,152,126687,2,0,L|152:216,1,110,0|8,0:0|0:0,0:0:0:0:
280,184,127145,1,0,0:0:0:0:
40,192,127374,1,2,0:0:0:0:
160,192,127603,1,0,0:0:0:0:
336,184,127832,2,0,L|440:128,1,110,8|0,0:0|0:0,0:0:0:0:
112,72,128290,6,0,L|-8:160,1,110,2|0,0:0|0:0,0:0:0:0:
256,152,128748,2,0,L|368:256,1,110,8|0,0:0|0:0,0:0:0:0:
80,152,129206,2,0,L|192:224,1,110,2|0,0:0|0:0,0:0:0:0:
40,216,129664,1,8,0:0:0:0:
160,208,129893,1,0,0:0:0:0:
472,312,130122,5,2,0:0:0:0:
472,184,130351,1,0,0:0:0:0:
160,176,130580,1,8,0:0:0:0:
160,304,130809,1,0,0:0:0:0:
512,296,131038,1,2,0:0:0:0:
384,296,131267,1,0,0:0:0:0:
256,296,131496,1,8,0:0:0:0:
384,296,131725,1,0,0:0:0:0:
80,296,131954,6,0,L|-8:208,1,110,6|0,0:0|0:0,0:0:0:0:
432,296,132412,2,0,L|520:208,1,110,8|0,0:0|0:0,0:0:0:0:
176,272,132870,2,0,L|88:184,1,110,2|0,0:0|0:0,0:0:0:0:
328,208,133328,1,8,0:0:0:0:
448,208,133557,1,0,0:0:0:0:
256,192,133786,6,0,L|136:264,1,110,2|0,0:0|0:0,0:0:0:0:
280,232,134244,1,8,0:0:0:0:
160,232,134473,1,0,0:0:0:0:
464,224,134702,1,2,0:0:0:0:
352,224,134931,1,0,0:0:0:0:
0,224,135160,1,8,0:0:0:0:
112,224,135389,1,0,0:0:0:0:
402,248,135618,6,0,L|514:248,2,110,2|0|8,0:0|0:0|0:0,0:0:0:0:
280,248,136305,1,0,0:0:0:0:
56,256,136534,2,0,L|168:256,2,110,2|0|8,0:0|0:0|0:0,0:0:0:0:
176,256,137221,1,0,0:0:0:0:
488,256,137450,1,2,0:0:0:0:
368,256,137679,1,0,0:0:0:0:
248,256,137908,5,8,0:0:0:0:
368,256,138137,1,0,0:0:0:0:
72,248,138366,1,2,0:0:0:0:
72,128,138595,1,0,0:0:0:0:
272,240,138824,2,0,L|176:176,1,110,8|0,0:0|0:0,0:0:0:0:
504,240,139282,5,2,0:0:0:0:
384,240,139511,1,0,0:0:0:0:
264,240,139740,2,0,L|392:240,1,110,8|2,0:0|0:0,0:0:0:0:
256,240,140198,1,0,0:0:0:0:
136,240,140427,1,0,0:0:0:0:
256,240,140656,1,8,0:0:0:0:
376,240,140885,1,0,0:0:0:0:
72,144,141114,6,0,L|32:256,1,110,2|0,0:0|0:0,0:0:0:0:
280,176,141572,2,0,L|344:280,1,110,8|0,0:0|0:0,0:0:0:0:
112,184,142030,2,0,L|16:272,1,110,10|0,0:0|0:0,0:0:0:0:
392,200,142488,2,0,L|504:224,1,110,10|0,0:0|0:0,0:0:0:0:
152,200,142946,5,6,0:0:0:0:
32,200,143175,1,0,0:0:0:0:
152,200,143404,1,8,0:0:0:0:
32,200,143633,1,0,0:0:0:0:
360,200,143862,1,2,0:0:0:0:
480,200,144091,1,0,0:0:0:0:
360,200,144320,1,8,0:0:0:0:
480,200,144549,1,0,0:0:0:0:
112,208,144778,6,0,L|16:136,1,110,2|0,0:0|0:0,0:0:0:0:
216,208,145236,2,0,L|96:112,1,110,8|0,0:0|0:0,0:0:0:0:
248,136,145694,1,2,0:0:0:0:
130,139,145923,1,0,0:0:0:0:
488,144,146152,2,0,L|392:48,1,110,8|0,0:0|0:0,0:0:0:0:
120,216,146610,6,0,P|32:208|80:96,2,220,6|0|2,0:0|0:0|0:0,0:0:0:0:
240,208,147755,1,0,0:0:0:0:
360,208,147984,1,0,0:0:0:0:
240,208,148213,1,0,0:0:0:0:
448,200,148442,6,0,L|328:200,2,110,2|0|0,0:0|0:0|0:0,0:0:0:0:
328,200,149129,1,0,0:0:0:0:
208,200,149358,2,0,L|96:200,2,110,2|0|0,0:0|0:0|0:0,0:0:0:0:
328,200,150046,1,0,0:0:0:0:
98,200,150275,6,0,L|208:200,1,110,2|0,0:0|0:0,0:0:0:0:
328,200,150733,1,0,0:0:0:0:
208,200,150962,1,0,0:0:0:0:
32,192,151191,2,0,P|63:290|165:291,1,220,2|0,0:0|0:0,0:0:0:0:
288,288,151878,1,0,0:0:0:0:
80,208,152107,6,0,L|16:112,1,110,2|0,0:0|0:0,0:0:0:0:
136,120,152565,1,0,0:0:0:0:
256,120,152794,1,0,0:0:0:0:
376,120,153023,1,2,0:0:0:0:
256,120,153252,2,0,L|168:40,1,110
296,48,153710,1,2,0:0:0:0:
48,208,153939,5,2,0:0:0:0:
48,328,154168,1,0,0:0:0:0:
168,328,154397,1,0,0:0:0:0:
48,328,154626,1,0,0:0:0:0:
272,328,154855,1,2,0:0:0:0:
392,328,155084,1,0,0:0:0:0:
272,328,155313,1,0,0:0:0:0:
152,328,155542,1,0,0:0:0:0:
376,328,155771,6,0,L|496:328,2,110,2|0|0,0:0|0:0|0:0,0:0:0:0:
256,328,156458,1,0,0:0:0:0:
136,328,156687,2,0,L|256:328,2,110,2|0|0,0:0|0:0|0:0,0:0:0:0:
16,328,157374,1,0,0:0:0:0:
256,208,157603,5,2,0:0:0:0:
136,208,157832,1,0,0:0:0:0:
256,208,158061,1,8,0:0:0:0:
376,208,158290,1,0,0:0:0:0:
256,208,158519,2,0,L|144:168,1,110,2|0,0:0|0:0,0:0:0:0:
352,208,158977,2,0,L|480:160,1,110,8|0,0:0|0:0,0:0:0:0:
120,208,159435,6,0,L|24:128,1,110,2|0,0:0|0:0,0:0:0:0:
344,208,159893,2,0,L|440:128,1,110,8|0,0:0|0:0,0:0:0:0:
136,80,160351,1,2,0:0:0:0:
16,176,160580,1,0,0:0:0:0:
128,280,160809,1,10,0:0:0:0:
464,280,161038,1,10,0:0:0:0:
120,320,161267,6,0,L|16:216,1,110,6|0,0:0|0:0,0:0:0:0:
392,320,161725,2,0,L|496:216,1,110,8|0,0:0|0:0,0:0:0:0:
272,224,162183,1,2,0:0:0:0:
152,224,162412,1,0,0:0:0:0:
32,224,162641,1,8,0:0:0:0:
32,224,162870,1,0,0:0:0:0:
368,224,163099,6,0,L|480:224,2,110,2|0|8,0:0|0:0|0:0,0:0:0:0:
256,224,163786,1,0,0:0:0:0:
136,224,164015,1,2,0:0:0:0:
256,224,164244,1,0,0:0:0:0:
376,224,164473,1,8,0:0:0:0:
376,224,164702,1,0,0:0:0:0:
64,216,164931,6,0,L|168:160,1,110,2|0,0:0|0:0,0:0:0:0:
456,200,165389,2,0,L|336:136,1,110,8|0,0:0|0:0,0:0:0:0:
192,200,165847,1,2,0:0:0:0:
72,200,166076,2,0,L|136:200,1,55
192,200,166305,1,8,0:0:0:0:
320,200,166534,1,0,0:0:0:0:
16,192,166763,6,0,L|152:192,2,110,2|0|8,0:0|0:0|0:0,0:0:0:0:
136,200,167450,1,0,0:0:0:0:
256,200,167679,1,2,0:0:0:0:
80,200,167908,1,0,0:0:0:0:
376,200,168137,2,0,L|488:144,1,110,8|0,0:0|0:0,0:0:0:0:
160,200,168595,6,0,L|24:200,2,110,2|0|8,0:0|0:0|0:0,0:0:0:0:
288,208,169282,1,0,0:0:0:0:
160,200,169511,2,0,L|264:136,1,110,2|0,0:0|0:0,0:0:0:0:
384,144,169969,1,8,0:0:0:0:
253,142,170198,1,0,0:0:0:0:
456,152,170427,6,0,L|456:24,1,110,2|0,0:0|0:0,0:0:0:0:
256,88,170885,2,0,L|256:232,1,110,8|0,0:0|0:0,0:0:0:0:
376,200,171343,2,0,L|488:128,1,110,2|0,0:0|0:0,0:0:0:0:
344,136,171801,1,8,0:0:0:0:
468,140,172030,1,0,0:0:0:0:
48,232,172259,5,2,0:0:0:0:
48,112,172488,1,0,0:0:0:0:
256,80,172717,1,8,0:0:0:0:
256,200,172946,1,0,0:0:0:0:
48,200,173175,1,2,0:0:0:0:
48,80,173404,1,0,0:0:0:0:
376,232,173633,2,0,L|472:168,1,110,8|0,0:0|0:0,0:0:0:0:
144,160,174091,5,2,0:0:0:0:
24,160,174320,1,0,0:0:0:0:
208,160,174549,1,8,0:0:0:0:
88,160,174778,1,0,0:0:0:0:
392,144,175007,2,0,L|512:192,1,110,2|0,0:0|0:0,0:0:0:0:
304,152,175465,2,0,L|424:192,1,110,8|0,0:0|0:0,0:0:0:0:
72,336,175923,6,0,P|32:304|96:280,1,110,6|0,0:0|0:0,0:0:0:0:
352,208,176381,1,8,0:0:0:0:
472,208,176610,1,0,0:0:0:0:
256,208,176839,2,0,L|136:208,2,110,2|0|8,0:0|0:0|0:0,0:0:0:0:
376,208,177526,1,0,0:0:0:0:
64,216,177755,6,0,L|64:96,1,110,2|0,0:0|0:0,0:0:0:0:
256,128,178213,1,8,0:0:0:0:
376,128,178442,1,0,0:0:0:0:
144,208,178671,2,0,P|56:168|48:32,1,220,2|8,0:0|0:0,0:0:0:0:
160,48,179358,1,0,0:0:0:0:
464,48,179587,5,2,0:0:0:0:
344,48,179816,1,0,0:0:0:0:
464,48,180046,1,8,0:0:0:0:
344,48,180275,1,0,0:0:0:0:
152,48,180504,1,2,0:0:0:0:
32,48,180733,2,0,L|136:112,1,110,0|8,0:0|0:0,0:0:0:0:
16,104,181191,1,0,0:0:0:0:
368,104,181420,6,0,L|472:168,1,110,2|0,0:0|0:0,0:0:0:0:
344,192,181878,2,0,L|232:264,1,110,8|0,0:0|0:0,0:0:0:0:
376,272,182336,1,2,0:0:0:0:
256,272,182565,1,0,0:0:0:0:
376,272,182794,1,8,0:0:0:0:
496,272,183023,1,0,0:0:0:0:
160,88,183252,6,0,L|64:152,1,110,2|0,0:0|0:0,0:0:0:0:
256,96,183710,2,0,L|352:160,1,110,8|0,0:0|0:0,0:0:0:0:
152,128,184168,2,0,L|56:192,1,110,2|0,0:0|0:0,0:0:0:0:
256,192,184626,1,8,0:0:0:0:
376,192,184855,1,0,0:0:0:0:
48,200,185084,5,2,0:0:0:0:
168,200,185313,1,0,0:0:0:0:
376,200,185542,1,8,0:0:0:0:
376,80,185771,1,0,0:0:0:0:
72,160,186000,2,0,L|176:64,1,110,2|0,0:0|0:0,0:0:0:0:
496,160,186458,2,0,L|392:64,1,110,8|0,0:0|0:0,0:0:0:0:
120,192,186916,5,2,0:0:0:0:
16,192,187145,1,0,0:0:0:0:
80,192,187259,1,0,0:0:0:0:
144,192,187374,1,8,0:0:0:0:
256,192,187603,1,0,0:0:0:0:
192,192,187717,1,0,0:0:0:0:
256,192,187832,2,0,L|368:136,1,110,2|0,0:0|0:0,0:0:0:0:
472,144,188290,1,8,0:0:0:0:
472,144,188519,1,0,0:0:0:0:
96,128,188748,5,2,0:0:0:0:
96,256,188977,1,0,0:0:0:0:
416,264,189206,1,8,0:0:0:0:
416,136,189435,1,0,0:0:0:0:
112,248,189664,2,0,P|48:208|96:96,1,220,2|8,0:0|0:0,0:0:0:0:
256,192,190580,5,6,0:0:0:0:
136,192,190809,1,0,0:0:0:0:
256,192,191038,1,8,0:0:0:0:
376,192,191267,1,0,0:0:0:0:
256,192,191496,1,2,0:0:0:0:
136,192,191725,1,0,0:0:0:0:
440,192,191954,1,8,0:0:0:0:
440,192,192183,1,0,0:0:0:0:
136,128,192412,6,0,L|24:208,1,110,2|0,0:0|0:0,0:0:0:0:
344,144,192870,1,8,0:0:0:0:
464,144,193099,1,0,0:0:0:0:
72,168,193328,1,2,0:0:0:0:
424,168,193786,1,8,0:0:0:0:
48,184,194244,5,2,0:0:0:0:
48,304,194473,1,0,0:0:0:0:
424,168,194702,1,8,0:0:0:0:
304,168,194931,1,0,0:0:0:0:
96,184,195160,2,0,L|200:264,1,110,2|0,0:0|0:0,0:0:0:0:
384,264,195618,2,0,L|480:192,1,110,8|0,0:0|0:0,0:0:0:0:
136,200,196076,5,2,0:0:0:0:
16,200,196305,1,0,0:0:0:0:
136,200,196534,1,8,0:0:0:0:
16,200,196763,1,0,0:0:0:0:
312,192,196992,1,2,0:0:0:0:
192,192,197221,1,0,0:0:0:0:
312,192,197450,1,8,0:0:0:0:
432,192,197679,1,0,0:0:0:0:
24,64,197908,6,0,L|24:200,1,110,2|0,0:0|0:0,0:0:0:0:
136,168,198366,1,8,0:0:0:0:
256,168,198595,1,0,0:0:0:0:
56,168,198824,1,2,0:0:0:0:
176,168,199053,1,0,0:0:0:0:
384,168,199282,2,0,L|504:256,1,110,8|0,0:0|0:0,0:0:0:0:
128,80,199740,6,0,P|80:80|104:232,1,220,2|8,0:0|0:0,0:0:0:0:
176,216,200427,1,0,0:0:0:0:
472,200,200656,1,2,0:0:0:0:
192,224,201114,1,8,0:0:0:0:
72,224,201343,1,0,0:0:0:0:
408,216,201572,6,0,L|312:144,1,110,2|0,0:0|0:0,0:0:0:0:
112,192,202030,2,0,L|10:120,1,110,8|0,0:0|0:0,0:0:0:0:
256,176,202488,2,0,L|352:104,1,110,2|0,0:0|0:0,0:0:0:0:
256,112,202946,1,8,0:0:0:0:
376,120,203175,1,0,0:0:0:0:
40,128,203404,5,2,0:0:0:0:
40,248,203633,1,0,0:0:0:0:
336,248,203862,1,8,0:0:0:0:
456,248,204091,1,0,0:0:0:0:
336,248,204320,1,2,0:0:0:0:
456,248,204549,1,0,0:0:0:0:
136,136,204778,1,8,0:0:0:0:
16,136,205007,1,0,0:0:0:0:
376,136,205236,6,0,L|496:136,2,110,6|0|8,0:0|0:0|0:0,0:0:0:0:
256,136,205923,1,0,0:0:0:0:
136,144,206152,1,2,0:0:0:0:
424,200,206610,2,0,P|488:200|424:200,1,110,8|0,0:0|0:0,0:0:0:0:
152,200,207068,5,2,0:0:0:0:
32,200,207297,1,0,0:0:0:0:
224,200,207526,1,8,0:0:0:0:
104,200,207755,1,0,0:0:0:0:
328,168,207984,2,0,L|448:232,1,110,2|0,0:0|0:0,0:0:0:0:
240,168,208442,2,0,L|144:232,1,110,8|0,0:0|0:0,0:0:0:0:
480,72,208900,5,2,0:0:0:0:
360,64,209129,1,0,0:0:0:0:
240,64,209358,1,8,0:0:0:0:
360,64,209587,1,0,0:0:0:0:
32,72,209816,1,2,0:0:0:0:
152,64,210045,1,0,0:0:0:0:
272,64,210274,1,8,0:0:0:0:
152,64,210503,1,0,0:0:0:0:
448,192,210733,5,2,0:0:0:0:
328,192,210962,1,0,0:0:0:0:
8,192,211191,1,8,0:0:0:0:
128,192,211420,1,0,0:0:0:0:
440,192,211649,2,0,P|472:144|432:136,1,110,2|0,0:0|0:0,0:0:0:0:
256,104,212107,2,0,P|176:120|136:184,1,110,8|0,0:0|0:0,0:0:0:0:
472,136,212565,5,2,0:0:0:0:
352,136,212794,1,0,0:0:0:0:
472,136,213023,2,0,L|352:136,1,110,8|0,0:0|0:0,0:0:0:0:
120,136,213481,2,0,L|8:216,1,110,2|0,0:0|0:0,0:0:0:0:
432,192,213939,2,0,P|488:192|424:192,1,110,8|0,0:0|0:0,0:0:0:0:
136,184,214397,5,2,0:0:0:0:
256,184,214626,1,0,0:0:0:0:
376,184,214855,1,8,0:0:0:0:
256,184,215084,1,0,0:0:0:0:
136,184,215313,2,0,L|136:328,1,110,2|0,0:0|0:0,0:0:0:0:
336,256,215771,2,0,L|456:176,1,110,8|0,0:0|0:0,0:0:0:0:
136,256,216229,6,0,L|24:256,2,110,2|0|8,0:0|0:0|0:0,0:0:0:0:
256,264,216916,1,0,0:0:0:0:
40,256,217145,1,2,0:0:0:0:
160,256,217374,2,0,L|280:256,2,110,0|8|0,0:0|0:0|0:0,0:0:0:0:
464,256,218061,5,2,0:0:0:0:
256,256,218290,1,0,0:0:0:0:
192,256,218404,1,0,0:0:0:0:
256,256,218519,1,8,0:0:0:0:
464,264,218748,1,0,0:0:0:0:
96,264,218977,1,2,0:0:0:0:
216,264,219206,1,0,0:0:0:0:
336,264,219435,1,8,0:0:0:0:
128,264,219664,1,0,0:0:0:0:
432,272,219893,6,0,P|472:216|248:136,1,440,6|2,0:0|0:0,0:0:0:0:
488,128,221267,1,0,0:0:0:0:
368,128,221496,1,0,0:0:0:0:
176,208,221725,6,0,P|104:168|296:72,1,440,2|2,0:0|0:0,0:0:0:0:
424,176,223099,1,0,0:0:0:0:
104,184,223557,5,2,0:0:0:0:
344,184,224015,1,8,0:0:0:0:
168,184,224473,1,2,0:0:0:0:
368,232,224931,2,0,L|272:168,1,110,8|0,0:0|0:0,0:0:0:0:
152,176,225389,6,0,L|256:104,1,110,2|0,0:0|0:0,0:0:0:0:
448,104,225847,2,0,L|448:256,1,110,8|0,0:0|0:0,0:0:0:0:
272,168,226305,2,0,L|152:240,1,110,2|0,0:0|0:0,0:0:0:0:
304,256,226763,1,8,0:0:0:0:
424,256,226992,1,0,0:0:0:0:
112,224,227221,6,0,P|40:248|136:296,1,220,2|0,0:0|0:0,0:0:0:0:
232,320,227908,1,0,0:0:0:0:
424,312,228137,2,0,P|480:280|384:208,1,220,2|0,0:0|0:0,0:0:0:0:
152,200,229053,5,2,0:0:0:0:
272,200,229282,1,0,0:0:0:0:
392,200,229511,1,0,0:0:0:0:
272,200,229740,1,0,0:0:0:0:
104,208,229969,2,0,P|48:160|160:88,1,220,2|0,0:0|0:0,0:0:0:0:
8,72,230656,1,0,0:0:0:0:
400,104,230885,5,2,0:0:0:0:
280,104,231114,1,0,0:0:0:0:
400,104,231343,1,8,0:0:0:0:
280,104,231572,1,0,0:0:0:0:
160,104,231801,2,0,L|40:104,1,110,2|0,0:0|0:0,0:0:0:0:
168,104,232259,1,8,0:0:0:0:
288,104,232488,1,0,0:0:0:0:
48,280,232717,5,2,0:0:0:0:
168,280,232946,1,0,0:0:0:0:
288,280,233175,1,8,0:0:0:0:
168,280,233404,1,0,0:0:0:0:
360,280,233633,2,0,L|480:280,2,110,2|0|8,0:0|0:0|0:0,0:0:0:0:
480,280,234320,1,0,0:0:0:0:
88,296,234549,6,0,P|48:256|128:120,1,220,6|8,0:0|0:0,0:0:0:0:
232,128,235236,1,0,0:0:0:0:
352,128,235465,2,0,P|424:144|408:296,1,220,2|8,0:0|0:0,0:0:0:0:
320,280,236152,1,0,0:0:0:0:
136,296,236381,5,2,0:0:0:0:
256,296,236610,1,0,0:0:0:0:
376,296,236839,1,8,0:0:0:0:
256,296,237068,1,0,0:0:0:0:
376,296,237297,2,0,L|264:208,1,110,2|0,0:0|0:0,0:0:0:0:
408,232,237755,1,8,0:0:0:0:
289,228,237984,1,0,0:0:0:0:
72,240,238213,6,0,L|72:128,1,110,2|0,0:0|0:0,0:0:0:0:
192,136,238671,2,0,L|192:248,1,110,8|0,0:0|0:0,0:0:0:0:
448,240,239129,2,0,L|448:128,1,110,2|0,0:0|0:0,0:0:0:0:
328,136,239587,2,0,L|328:248,1,110,8|0,0:0|0:0,0:0:0:0:
64,208,240046,5,2,0:0:0:0:
184,208,240275,1,0,0:0:0:0:
64,208,240504,1,8,0:0:0:0:
184,208,240733,1,0,0:0:0:0:
400,208,240962,1,2,0:0:0:0:
280,208,241191,1,2,0:0:0:0:
160,200,241420,2,0,L|69:262,1,110,8|0,0:0|0:0,0:0:0:0:
432,288,241878,6,0,P|480:232|384:160,1,220,6|8,0:0|0:0,0:0:0:0:
264,160,242565,1,0,0:0:0:0:
387,158,242794,1,2,0:0:0:0:
120,144,243252,1,8,0:0:0:0:
448,144,243710,5,2,0:0:0:0:
328,144,243939,1,0,0:0:0:0:
208,144,244168,1,8,0:0:0:0:
328,144,244397,1,0,0:0:0:0:
120,144,244626,2,0,L|256:144,1,110,2|0,0:0|0:0,0:0:0:0:
32,144,245084,2,0,L|144:144,1,110,8|0,0:0|0:0,0:0:0:0:
448,144,245542,5,2,0:0:0:0:
328,144,245771,1,0,0:0:0:0:
448,144,246000,1,8,0:0:0:0:
328,144,246229,1,0,0:0:0:0:
144,144,246458,1,2,0:0:0:0:
264,144,246687,1,0,0:0:0:0:
144,144,246916,1,8,0:0:0:0:
24,144,247145,1,0,0:0:0:0:
288,120,247374,5,2,0:0:0:0:
168,120,247603,1,0,0:0:0:0:
48,120,247832,1,8,0:0:0:0:
168,120,248061,1,0,0:0:0:0:
368,128,248290,1,2,0:0:0:0:
488,128,248519,1,2,0:0:0:0:
104,136,248748,1,8,0:0:0:0:
408,144,248977,1,8,0:0:0:0:
104,112,249206,6,0,L|24:208,1,110,6|0,0:0|0:0,0:0:0:0:
408,112,249664,2,0,L|488:208,1,110,8|0,0:0|0:0,0:0:0:0:
256,192,250122,1,2,0:0:0:0:
128,192,250351,1,0,0:0:0:0:
256,192,250580,1,8,0:0:0:0:
384,192,250809,1,0,0:0:0:0:
80,192,251038,6,0,P|24:120|128:72,1,220,2|8,0:0|0:0,0:0:0:0:
240,80,251725,1,0,0:0:0:0:
32,40,251954,1,2,0:0:0:0:
352,56,252412,1,8,0:0:0:0:
472,56,252641,1,0,0:0:0:0:
88,176,252870,6,2,L|88:64,1,110,2|0,0:0|0:0,0:0:0:0:
432,176,253328,2,2,L|432:64,1,110,8|0,0:0|0:0,0:0:0:0:
128,184,253786,2,2,L|40:104,1,110,2|0,0:0|0:0,0:0:0:0:
400,176,254244,2,2,L|488:104,1,110,2|0,0:0|0:0,0:0:0:0:
184,104,254702,5,2,0:0:0:0:
64,104,254931,1,0,0:0:0:0:
184,104,255160,1,8,0:0:0:0:
64,104,255389,1,0,0:0:0:0:
504,104,255618,1,2,0:0:0:0:
384,104,255847,1,0,0:0:0:0:
264,104,256076,1,8,0:0:0:0:
384,104,256305,1,0,0:0:0:0:
88,112,256534,6,0,L|0:184,1,110,2|0,0:0|0:0,0:0:0:0:
384,112,256992,2,0,L|472:184,1,110,8|0,0:0|0:0,0:0:0:0:
160,208,257450,1,2,0:0:0:0:
280,208,257679,1,0,0:0:0:0:
160,208,257908,1,8,0:0:0:0:
40,208,258137,1,0,0:0:0:0:
392,64,258366,6,0,P|472:112|432:232,1,220,2|8,0:0|0:0,0:0:0:0:
328,224,259053,1,0,0:0:0:0:
152,216,259282,2,0,L|248:144,1,110,2|0,0:0|0:0,0:0:0:0:
376,136,259740,1,8,0:0:0:0:
464,232,259969,1,0,0:0:0:0:
128,200,260198,6,2,L|56:112,1,110,2|0,0:0|0:0,0:0:0:0:
424,200,260656,2,2,L|496:112,1,110,8|0,0:0|0:0,0:0:0:0:
88,200,261114,2,2,L|16:112,1,110,2|0,0:0|0:0,0:0:0:0:
424,200,261572,2,2,L|496:112,1,110,8|0,0:0|0:0,0:0:0:0:
136,112,262030,5,2,0:0:0:0:
256,112,262259,1,0,0:0:0:0:
136,112,262488,1,8,0:0:0:0:
344,112,262717,2,0,L|488:112,2,110,0|2|0,0:0|0:0|0:0,0:0:0:0:
224,112,263404,1,8,0:0:0:0:
104,112,263633,1,0,0:0:0:0:
488,128,263862,6,0,L|384:224,1,110,6|0,0:0|0:0,0:0:0:0:
168,192,264320,1,8,0:0:0:0:
48,192,264549,1,0,0:0:0:0:
168,192,264778,2,0,L|296:192,2,110,2|0|8,0:0|0:0|0:0,0:0:0:0:
48,192,265465,1,0,0:0:0:0:
400,232,265694,6,0,P|480:192|488:72,1,220,2|8,0:0|0:0,0:0:0:0:
360,72,266381,1,0,0:0:0:0:
232,72,266610,1,2,0:0:0:0:
496,72,267068,1,8,0:0:0:0:
128,128,267526,6,2,L|32:56,1,110
376,96,267984,2,2,L|472:168,1,110,8|2,0:0|0:0,0:0:0:0:
264,168,268442,2,2,L|184:246,1,110
408,208,268900,2,2,L|512:288,1,110,8|2,0:0|0:0,0:0:0:0:
200,304,269358,5,2,0:0:0:0:
88,248,269587,1,0,0:0:0:0:
40,136,269816,1,8,0:0:0:0:
136,64,270046,1,0,0:0:0:0:
344,40,270275,2,0,L|464:40,3,110,2|0|8|0,0:0|0:0|0:0|0:0,0:0:0:0:
120,112,271191,6,0,P|40:160|88:264,1,220,2|8,0:0|0:0,0:0:0:0:
200,264,271878,1,0,0:0:0:0:
384,264,272107,2,0,L|488:216,1,110,2|0,0:0|0:0,0:0:0:0:
336,264,272565,2,0,L|448:208,1,110,8|0,0:0|0:0,0:0:0:0:
144,272,273023,6,0,P|80:272|168:272,1,110,2|0,0:0|0:0,0:0:0:0:
336,256,273481,1,8,0:0:0:0:
216,256,273710,1,0,0:0:0:0:
384,256,273939,1,2,0:0:0:0:
144,256,274397,1,8,0:0:0:0:
24,256,274626,1,0,0:0:0:0:
320,264,274855,5,2,0:0:0:0:
200,264,275084,1,0,0:0:0:0:
320,264,275313,1,8,0:0:0:0:
440,264,275542,1,0,0:0:0:0:
256,264,275771,1,2,0:0:0:0:
136,264,276000,1,0,0:0:0:0:
16,264,276229,1,8,0:0:0:0:
136,264,276458,1,0,0:0:0:0:
440,272,276687,5,2,0:0:0:0:
440,144,276916,1,0,0:0:0:0:
96,144,277145,1,8,0:0:0:0:
96,272,277374,1,0,0:0:0:0:
408,272,277603,2,0,L|496:192,1,110,2|0,0:0|0:0,0:0:0:0:
104,272,278061,2,0,L|16:192,1,110,8|0,0:0|0:0,0:0:0:0:
424,200,278519,5,6,0:0:0:0:
424,80,278748,1,0,0:0:0:0:
304,80,278977,1,8,0:0:0:0:
304,200,279206,1,0,0:0:0:0:
184,200,279435,2,0,L|32:200,2,110,2|0|8,0:0|0:0|0:0,0:0:0:0:
304,200,280122,1,0,0:0:0:0:
120,216,280351,6,0,P|48:184|80:64,1,220,2|8,0:0|0:0,0:0:0:0:
200,56,281038,1,0,0:0:0:0:
320,56,281267,1,2,0:0:0:0:
120,56,281496,2,0,L|8:128,1,110,0|8,0:0|0:0,0:0:0:0:
152,120,281954,1,0,0:0:0:0:
448,120,282183,5,2,0:0:0:0:
328,120,282412,1,0,0:0:0:0:
208,120,282641,1,8,0:0:0:0:
328,120,282870,1,0,0:0:0:0:
136,120,283099,1,2,0:0:0:0:
256,120,283328,1,0,0:0:0:0:
376,120,283557,1,8,0:0:0:0:
256,120,283786,1,0,0:0:0:0:
48,128,284015,6,0,L|168:232,1,110,2|0,0:0|0:0,0:0:0:0:
256,200,284473,1,8,0:0:0:0:
131,200,284702,1,0,0:0:0:0:
352,192,284931,2,0,L|456:120,1,110,2|0,0:0|0:0,0:0:0:0:
320,128,285389,1,8,0:0:0:0:
442,129,285618,1,0,0:0:0:0:
136,128,285847,6,0,L|8:128,2,110,2|0|8,0:0|0:0|0:0,0:0:0:0:
256,128,286534,1,0,0:0:0:0:
376,128,286763,2,0,L|504:128,2,110,2|0|8,0:0|0:0|0:0,0:0:0:0:
256,128,287450,1,0,0:0:0:0:
464,112,287679,6,0,P|480:184|352:232,1,220,2|8,0:0|0:0,0:0:0:0:
256,248,288366,1,0,0:0:0:0:
376,248,288595,1,2,0:0:0:0:
152,248,288824,2,0,L|296:248,1,110,0|8,0:0|0:0,0:0:0:0:
80,248,289282,1,0,0:0:0:0:
472,224,289511,5,2,0:0:0:0:
352,224,289740,1,0,0:0:0:0:
232,224,289969,1,8,0:0:0:0:
232,104,290198,1,0,0:0:0:0:
424,120,290427,2,0,L|336:48,1,110,2|0,0:0|0:0,0:0:0:0:
152,120,290885,2,0,L|64:40,1,110,8|0,0:0|0:0,0:0:0:0:
496,304,291343,5,2,0:0:0:0:
496,184,291572,1,0,0:0:0:0:
296,192,291801,1,8,0:0:0:0:
296,312,292030,1,0,0:0:0:0:
416,312,292259,1,2,0:0:0:0:
224,304,292488,2,0,L|336:216,1,110,0|8,0:0|0:0,0:0:0:0:
432,224,292946,1,0,0:0:0:0:
128,184,293175,6,0,P|40:216|104:312,1,220,6|0,0:0|0:0,0:0:0:0:
360,264,294091,1,2,0:0:0:0:
88,224,294549,1,0,0:0:0:0:
208,224,294778,1,0,0:0:0:0:
328,224,295007,6,0,P|376:200|304:96,1,220,2|0,0:0|0:0,0:0:0:0:
192,96,295694,1,0,0:0:0:0:
308,94,295923,1,2,0:0:0:0:
64,96,296381,1,0,0:0:0:0:
376,96,296839,6,0,P|432:104|352:176,1,220,2|0,0:0|0:0,0:0:0:0:
256,192,297526,1,0,0:0:0:0:
136,192,297755,1,2,0:0:0:0:
256,192,297984,1,0,0:0:0:0:
376,192,298213,2,0,L|480:128,1,110
352,112,298671,5,2,0:0:0:0:
232,112,298900,1,0,0:0:0:0:
112,112,299129,1,0,0:0:0:0:
112,232,299358,1,0,0:0:0:0:
232,232,299587,1,2,0:0:0:0:
352,232,299816,1,0,0:0:0:0:
232,232,300046,1,0,0:0:0:0:
232,112,300275,1,0,0:0:0:0:
456,136,300504,6,0,L|352:56,1,110,2|0,0:0|0:0,0:0:0:0:
248,96,300962,2,0,P|136:112|96:248,2,220,0|2|0,0:0|0:0|0:0,0:0:0:0:
368,104,302107,1,0,0:0:0:0:
248,104,302336,6,0,P|176:136|256:200,1,220,2|0,0:0|0:0,0:0:0:0:
376,200,303023,1,0,0:0:0:0:
254,200,303252,1,2,0:0:0:0:
136,208,303481,2,0,L|48:136,1,110
168,144,303939,1,0,0:0:0:0:
368,160,304168,6,0,L|480:160,2,110,2|0|0,0:0|0:0|0:0,0:0:0:0:
256,160,304855,1,0,0:0:0:0:
136,160,305084,1,2,0:0:0:0:
376,160,305542,1,0,0:0:0:0:
136,160,306000,6,0,P|48:184|72:296,1,220,2|0,0:0|0:0,0:0:0:0:
184,296,306687,1,0,0:0:0:0:
384,296,307374,1,2,0:0:0:0:
256,296,307603,1,0,0:0:0:0:
256,192,307832,12,0,311038,0:0:0:0:
