osu file format v14

[General]
AudioFilename: audio.mp3
AudioLeadIn: 0
PreviewTime: -1
Countdown: 0
SampleSet: Soft
StackLeniency: 0.7
Mode: 0
LetterboxInBreaks: 0
WidescreenStoryboard: 0

[Editor]
DistanceSpacing: 2.6
BeatDivisor: 8
GridSize: 8
TimelineZoom: 1

[Metadata]
Title:Walking
TitleUnicode:Гуляю
Artist:Anguish, Exiled, Elfass
ArtistUnicode:Anguish, Exiled, Elfass
Creator:desuqe
Version:Champions Above Champions
Source:
Tags:
BeatmapID:4218283
BeatmapSetID:2024829

[Difficulty]
HPDrainRate:4
CircleSize:4
OverallDifficulty:9
ApproachRate:9.8
SliderMultiplier:1.6
SliderTickRate:1

[Events]
//Background and Video events
0,0,"wallpapersden.com_happiest-anime-girl-hd-ai-art_1952x1120.jpg",0,0
//Break Periods
//Storyboard Layer 0 (Background)
//Storyboard Layer 1 (Fail)
//Storyboard Layer 2 (Pass)
//Storyboard Layer 3 (Foreground)
//Storyboard Layer 4 (Overlay)
//Storyboard Sound Samples

[TimingPoints]
9,600,4,1,0,100,1,0
15,-100,4,2,0,92,0,0
38383,-33.3333333333333,4,2,0,92,0,0
38983,-100,4,1,0,92,0,0
64809,-200,4,1,0,100,0,0
74409,-100,4,2,0,100,0,0
79209,-100,4,2,0,100,0,0
84009,-133.333333333333,4,2,0,100,0,0
84309,-20,4,2,0,100,0,0
85209,-14.2857142857143,4,2,0,100,0,0

[HitObjects]
71,92,28809,5,0,0:0:0:0:
405,264,29109,1,0,0:0:0:0:
161,37,29409,1,0,0:0:0:0:
217,353,29709,1,0,0:0:0:0:
336,46,30009,5,0,0:0:0:0:
52,316,30159,1,0,0:0:0:0:
421,146,30309,1,0,0:0:0:0:
36,160,30459,1,0,0:0:0:0:
405,339,30609,1,0,0:0:0:0:
117,52,30759,1,0,0:0:0:0:
286,359,30909,1,0,0:0:0:0:
259,32,31059,1,0,0:0:0:0:
89,321,31209,5,0,0:0:0:0:
142,293,31284,1,0,0:0:0:0:
202,294,31359,1,0,0:0:0:0:
261,303,31434,1,0,0:0:0:0:
315,277,31509,1,0,0:0:0:0:
334,220,31584,1,0,0:0:0:0:
342,153,31659,1,0,0:0:0:0:
307,97,31734,1,0,0:0:0:0:
247,70,31809,1,0,0:0:0:0:
184,77,31884,1,0,0:0:0:0:
129,102,31959,1,0,0:0:0:0:
100,161,32034,1,0,0:0:0:0:
109,226,32109,1,0,0:0:0:0:
159,268,32184,1,0,0:0:0:0:
225,246,32259,1,0,0:0:0:0:
246,179,32334,1,0,0:0:0:0:
277,116,32409,1,0,0:0:0:0:
341,87,32484,1,0,0:0:0:0:
410,96,32559,1,0,0:0:0:0:
468,134,32634,1,0,0:0:0:0:
481,210,32709,1,0,0:0:0:0:
459,284,32784,1,0,0:0:0:0:
425,350,32859,1,0,0:0:0:0:
352,377,32934,1,0,0:0:0:0:
272,381,33009,2,0,B|202:384|214:357|167:370,1,100
89,53,33609,5,0,0:0:0:0:
400,345,33759,1,0,0:0:0:0:
40,147,33909,1,0,0:0:0:0:
460,124,34059,1,0,0:0:0:0:
45,358,34209,5,0,0:0:0:0:
250,20,34359,1,0,0:0:0:0:
347,365,34509,1,0,0:0:0:0:
68,43,34659,1,0,0:0:0:0:
461,198,34809,1,0,0:0:0:0:
54,268,34959,1,0,0:0:0:0:
427,73,35109,1,0,0:0:0:0:
240,377,35259,1,0,0:0:0:0:
88,45,35409,1,0,0:0:0:0:
413,307,35559,1,0,0:0:0:0:
33,347,35709,1,0,0:0:0:0:
316,35,35859,1,0,0:0:0:0:
329,346,36009,5,0,0:0:0:0:
232,53,36159,1,0,0:0:0:0:
175,338,36309,1,0,0:0:0:0:
98,50,36459,1,0,0:0:0:0:
403,156,36609,5,0,0:0:0:0:
52,163,36759,1,0,0:0:0:0:
405,274,36909,1,0,0:0:0:0:
52,319,37059,1,0,0:0:0:0:
394,52,37209,5,0,0:0:0:0:
43,239,37359,1,0,0:0:0:0:
450,337,37509,1,0,0:0:0:0:
40,113,37659,1,0,0:0:0:0:
458,168,37809,1,0,0:0:0:0:
62,361,37959,1,0,0:0:0:0:
260,36,38109,1,0,0:0:0:0:
351,355,38259,1,0,0:0:0:0:
126,175,38409,6,0,L|138:247,1,60.0000022888184
227,341,38559,2,0,L|221:276,1,60.0000022888184
291,156,38709,2,0,L|306:228,1,60.0000022888184
48,266,38859,1,0,0:0:0:0:
276,42,39009,1,0,0:0:0:0:
444,271,39159,1,0,0:0:0:0:
113,339,39309,1,0,0:0:0:0:
345,74,39459,1,0,0:0:0:0:
372,348,39609,1,0,0:0:0:0:
10,217,39759,1,0,0:0:0:0:
499,142,39909,1,0,0:0:0:0:
101,358,40059,1,0,0:0:0:0:
461,56,40209,1,0,0:0:0:0:
53,268,40359,1,0,0:0:0:0:
304,27,40509,5,0,0:0:0:0:
43,152,40659,1,0,0:0:0:0:
286,354,40809,1,0,0:0:0:0:
143,32,40959,1,0,0:0:0:0:
118,354,41109,1,0,0:0:0:0:
435,57,41259,1,0,0:0:0:0:
436,357,41409,1,0,0:0:0:0:
147,42,41559,1,0,0:0:0:0:
433,362,41709,1,0,0:0:0:0:
131,358,41859,1,0,0:0:0:0:
462,41,42009,1,0,0:0:0:0:
46,172,42159,1,0,0:0:0:0:
460,255,42309,1,0,0:0:0:0:
121,23,42459,1,0,0:0:0:0:
372,355,42609,1,0,0:0:0:0:
242,31,42759,1,0,0:0:0:0:
33,357,42909,1,0,0:0:0:0:
480,150,43059,1,0,0:0:0:0:
117,125,43209,6,0,L|116:195,1,60
125,350,43509,5,0,0:0:0:0:
436,55,43659,1,0,0:0:0:0:
34,167,43809,1,0,0:0:0:0:
436,337,43959,1,0,0:0:0:0:
121,25,44109,1,0,0:0:0:0:
87,357,44259,1,0,0:0:0:0:
489,204,44409,1,0,0:0:0:0:
35,81,44559,1,0,0:0:0:0:
503,34,44709,1,0,0:0:0:0:
7,367,44859,1,0,0:0:0:0:
499,299,45009,1,0,0:0:0:0:
24,227,45159,1,0,0:0:0:0:
504,117,45309,1,0,0:0:0:0:
236,362,45459,1,0,0:0:0:0:
75,78,45609,1,0,0:0:0:0:
500,190,45759,1,0,0:0:0:0:
160,364,45909,1,0,0:0:0:0:
486,113,46059,1,0,0:0:0:0:
47,143,46209,1,0,0:0:0:0:
410,359,46359,5,0,0:0:0:0:
56,102,46509,1,0,0:0:0:0:
494,166,46659,1,0,0:0:0:0:
303,366,46809,1,0,0:0:0:0:
494,199,46959,1,0,0:0:0:0:
49,148,47109,1,0,0:0:0:0:
213,352,47259,5,0,0:0:0:0:
364,35,47409,1,0,0:0:0:0:
124,361,47559,1,0,0:0:0:0:
272,17,47709,1,0,0:0:0:0:
295,360,47859,1,0,0:0:0:0:
188,20,48009,5,0,0:0:0:0:
428,343,48159,5,0,0:0:0:0:
24,141,48309,1,0,0:0:0:0:
488,123,48459,1,0,0:0:0:0:
43,40,48609,1,0,0:0:0:0:
101,344,48759,1,0,0:0:0:0:
323,11,48909,1,0,0:0:0:0:
388,351,49059,1,0,0:0:0:0:
126,25,49209,1,0,0:0:0:0:
472,100,49359,1,0,0:0:0:0:
99,331,49509,1,0,0:0:0:0:
298,25,49659,1,0,0:0:0:0:
391,319,49809,1,0,0:0:0:0:
56,37,49959,5,0,0:0:0:0:
17,365,50109,1,0,0:0:0:0:
278,381,50259,1,0,0:0:0:0:
316,31,50409,5,0,0:0:0:0:
508,116,50559,1,0,0:0:0:0:
276,151,50709,1,0,0:0:0:0:
509,254,50859,1,0,0:0:0:0:
264,323,51009,1,0,0:0:0:0:
506,383,51159,1,0,0:0:0:0:
230,27,51309,5,0,0:0:0:0:
0,90,51459,1,0,0:0:0:0:
227,153,51609,1,0,0:0:0:0:
11,239,51759,1,0,0:0:0:0:
231,288,51909,1,0,0:0:0:0:
32,360,52059,1,0,0:0:0:0:
102,16,52209,5,0,0:0:0:0:
348,342,52359,1,0,0:0:0:0:
32,39,52509,5,0,0:0:0:0:
478,337,52659,1,0,0:0:0:0:
5,167,52809,5,0,0:0:0:0:
256,192,52959,12,0,54909,0:0:0:0:
56,74,55209,6,0,B|114:140|48:162|115:249,1,160
10,282,56109,2,0,L|71:346,2,80
197,237,57009,2,0,B|229:192|172:131|234:60,1,160
389,103,58209,6,0,L|343:172,2,80
436,317,59409,1,0,0:0:0:0:
65,70,60009,6,0,B|153:32|95:132|237:83,1,160
472,21,60909,2,0,B|441:98|441:98|445:99|445:99|412:177,1,160
361,266,61809,1,0,0:0:0:0:
65,81,62409,5,0,0:0:0:0:
65,201,62709,6,0,L|118:206,2,40
65,310,63309,2,0,L|155:296,2,80
168,223,64209,1,0,0:0:0:0:
493,105,64809,6,0,P|365:211|327:110,1,320
216,185,67809,6,0,L|244:233,2,40
154,324,69009,1,0,0:0:0:0:
97,47,69609,6,0,B|37:142|76:147|94:206|27:271|27:271|53:319|105:312,1,320
41,303,74409,2,0,P|56:251|148:193,1,160
232,232,75609,2,0,P|205:288|116:332,1,160
322,240,76809,2,0,P|325:172|284:68,1,160
155,70,78009,2,0,P|127:144|149:246,1,160
40,55,79209,5,0,0:0:0:0:
488,108,79509,1,0,0:0:0:0:
27,183,79809,5,0,0:0:0:0:
481,210,80109,1,0,0:0:0:0:
136,362,80409,5,0,0:0:0:0:
280,161,80559,1,0,0:0:0:0:
41,359,80709,1,0,0:0:0:0:
242,85,80859,1,0,0:0:0:0:
268,365,81009,5,0,0:0:0:0:
143,69,81159,1,0,0:0:0:0:
360,280,81309,1,0,0:0:0:0:
26,242,81459,1,0,0:0:0:0:
371,23,81609,5,0,0:0:0:0:
357,81,81684,1,0,0:0:0:0:
365,140,81759,1,0,0:0:0:0:
394,192,81834,1,0,0:0:0:0:
440,230,81909,1,0,0:0:0:0:
475,251,81984,5,0,0:0:0:0:
471,310,82059,1,0,0:0:0:0:
438,359,82134,1,0,0:0:0:0:
385,384,82209,1,0,0:0:0:0:
326,378,82284,1,0,0:0:0:0:
278,342,82359,1,0,0:0:0:0:
256,287,82434,1,0,0:0:0:0:
265,229,82509,1,0,0:0:0:0:
282,179,82584,5,0,0:0:0:0:
300,119,82659,1,0,0:0:0:0:
295,63,82734,1,0,0:0:0:0:
247,14,82809,1,0,0:0:0:0:
179,0,82884,1,0,0:0:0:0:
116,28,82959,1,0,0:0:0:0:
115,114,83034,5,0,0:0:0:0:
34,146,83109,1,0,0:0:0:0:
11,241,83184,1,0,0:0:0:0:
61,326,83259,1,0,0:0:0:0:
156,353,83334,1,0,0:0:0:0:
243,308,83409,1,0,0:0:0:0:
452,42,84009,6,0,P|475:15|494:9,1,30.0000011444092
452,88,84309,6,0,P|456:185|277:385,1,200
322,62,84609,2,0,P|255:171|286:278,1,200
317,348,84909,2,0,P|222:367|111:306,1,200
90,25,85209,6,0,P|126:186|80:268,1,140.000001335144
369,128,85359,2,0,P|375:268|424:298,1,140.000001335144
196,278,85509,2,0,P|119:297|52:267,1,140.000001335144
237,122,85659,2,0,P|266:47|341:8,1,140.000001335144
429,33,85809,2,0,B|415:181|415:181|422:182|422:182|402:338,2,280.000002670288
55,9,86184,1,0,0:0:0:0:
55,9,86259,1,0,0:0:0:0:
55,9,86334,1,0,0:0:0:0:
55,9,86409,6,0,P|112:88|90:219,1,140.000001335144
260,371,86559,2,0,P|244:318|265:364,1,140.000001335144
467,16,86709,2,0,P|404:92|426:214,1,140.000001335144
237,364,86859,2,0,P|237:339|261:386,1,140.000001335144
299,39,87009,6,0,B|234:132|234:132|306:132|306:132|212:285,2,280.000002670288
10,322,87384,2,0,P|72:299|150:323,1,140.000001335144
500,249,87534,6,0,P|417:155|458:127,1,140.000001335144
176,8,87684,2,0,P|216:110|171:166,1,140.000001335144
420,366,87834,2,0,L|376:201,1,140.000001335144
36,73,87984,2,0,L|125:211,1,140.000001335144
486,302,88134,2,0,L|376:199,1,140.000001335144
143,17,88284,2,0,L|166:184,1,140.000001335144
275,304,88434,2,0,B|302:224|302:224|288:257|288:257|257:193,4,140.000001335144
276,316,88809,6,0,P|431:363|432:115,1,420.000004005432
471,153,89109,2,0,L|308:399,1,280.000002670288
231,0,89409,2,0,L|81:250,1,280.000002670288
155,347,89709,2,0,P|376:338|405:89,1,420.000004005432
423,149,90009,6,0,L|251:257,1,140.000001335144
0,330,90159,2,0,L|146:260,1,140.000001335144
71,42,90309,2,0,L|174:155,1,140.000001335144
395,355,90459,2,0,L|329:231,1,140.000001335144
205,347,90609,6,0,B|222:189|222:189|228:189|228:189|244:42,2,280.000002670288
210,59,90984,5,0,0:0:0:0:
210,59,91059,1,0,0:0:0:0:
210,59,91134,1,0,0:0:0:0:
210,59,91209,6,0,P|82:117|47:38,1,140.000001335144
24,340,91359,2,0,P|79:310|170:356,1,140.000001335144
369,355,91509,2,0,L|317:212,1,140.000001335144
160,17,91659,2,0,P|120:173|103:187,1,140.000001335144
429,10,91809,2,0,P|424:95|451:160,1,140.000001335144
0,310,91959,2,0,P|119:251|211:274,1,140.000001335144
475,363,92109,2,0,P|454:290|401:220,1,140.000001335144
119,9,92259,2,0,P|137:53|116:161,1,140.000001335144
355,368,92409,6,0,P|349:262|386:176,1,140.000001335144
483,3,92559,2,0,P|486:73|471:167,1,140.000001335144
283,368,92709,2,0,P|290:268|332:194,1,140.000001335144
507,7,92859,2,0,P|513:117|488:182,1,140.000001335144
266,175,93009,2,0,B|234:212|234:212|225:159|225:159|160:234|144:122|75:198|45:283|66:298,4,280.000002670288
434,44,93909,6,0,P|428:168|391:330,1,280.000002670288
138,42,94209,2,0,P|105:220|126:330,1,280.000002670288
309,359,94509,2,0,P|274:258|319:12,1,280.000002670288
10,26,94809,6,0,L|130:188,1,140.000001335144
419,277,94959,2,0,L|441:82,1,140.000001335144
185,249,95109,2,0,L|96:367,1,140.000001335144
484,335,95259,2,0,L|431:144,1,140.000001335144
224,68,95409,2,0,L|127:338,2,280.000002670288
469,29,95784,5,0,0:0:0:0:
469,29,95859,1,0,0:0:0:0:
469,29,95934,1,0,0:0:0:0:
469,29,96009,2,0,L|441:202,1,140.000001335144
222,357,96159,2,0,L|277:160,1,140.000001335144
69,22,96309,2,0,L|86:227,1,140.000001335144
490,361,96459,2,0,L|451:200,1,140.000001335144
100,330,96609,2,0,B|145:187|145:187|150:188|150:188|185:65,2,280.000002670288
360,234,97059,6,0,L|317:368,1,140.000001335144
286,36,97209,2,0,L|215:195,1,140.000001335144
488,288,97359,2,0,L|490:121,1,140.000001335144
268,259,97509,2,0,L|189:132,1,140.000001335144
45,80,97659,2,0,L|94:287,1,140.000001335144
391,302,97809,2,0,L|500:11,4,280.000002670288
16,335,98709,5,0,0:0:0:0:
55,354,99009,2,0,P|72:183|23:39,1,280.000002670288
218,61,99384,2,0,P|226:222|283:352,1,280.000002670288
284,351,99609,2,0,L|312:135,1,140.000001335144
469,18,99759,2,0,L|446:172,1,140.000001335144
238,363,99909,2,0,L|261:212,1,140.000001335144
469,18,100059,2,0,L|447:185,1,140.000001335144
205,298,100209,2,0,B|247:238|22:218|76:378|-94:292|245:116,1,420.000004005432
240,187,100584,5,0,0:0:0:0:
266,224,100659,5,0,0:0:0:0:
283,187,100734,5,0,0:0:0:0:
289,179,100809,6,0,L|378:17,1,140.000001335144
482,287,100959,2,0,L|341:406,1,140.000001335144
6,368,101109,2,0,L|54:155,1,140.000001335144
406,12,101259,2,0,L|367:203,1,140.000001335144
135,375,101409,2,0,L|98:183,1,140.000001335144
22,8,101559,2,0,L|149:103,1,140.000001335144
435,368,101709,2,0,L|346:128,1,140.000001335144
224,19,101859,2,0,L|276:260,1,140.000001335144
88,373,102009,2,0,L|135:157,1,140.000001335144
496,5,102159,2,0,L|455:204,1,140.000001335144
309,374,102309,2,0,L|154:167,1,140.000001335144
13,9,102459,2,0,L|53:165,1,140.000001335144
464,311,102609,2,0,L|303:146,1,140.000001335144
41,358,102759,2,0,L|82:176,1,140.000001335144
403,13,102909,2,0,L|376:207,1,140.000001335144
239,378,103059,2,0,P|273:236|233:39,1,280.000002670288
