osu file format v14

[General]
AudioFilename: audio.mp3
AudioLeadIn: 0
PreviewTime: 101611
Countdown: 0
SampleSet: Normal
StackLeniency: 0.7
Mode: 0
LetterboxInBreaks: 0
WidescreenStoryboard: 0

[Editor]
DistanceSpacing: 1
BeatDivisor: 4
GridSize: 4
TimelineZoom: 1.3

[Metadata]
Title:Spread Your Fire
TitleUnicode:Spread Your Fire
Artist:Angra
ArtistUnicode:Angra
Creator:DoAcre
Version:Glorious
Source:
Tags:
BeatmapID:1836522
BeatmapSetID:878087

[Difficulty]
HPDrainRate:7.5
CircleSize:4.2
OverallDifficulty:8.5
ApproachRate:9.4
SliderMultiplier:2.3
SliderTickRate:1

[Events]
//Background and Video events
0,0,"wp2180104-angels-and-demons-wallpapers.jpg",0,0
//Break Periods
//Storyboard Layer 0 (Background)
//Storyboard Layer 1 (Fail)
//Storyboard Layer 2 (Pass)
//Storyboard Layer 3 (Foreground)
//Storyboard Sound Samples

[TimingPoints]
67,355.029585798817,4,1,0,30,1,0

[HitObjects]
97,62,67,6,0,L|107:214,1,115
271,10,333,1,0,0:0:0:0:
295,9,422,1,0,0:0:0:0:
314,19,510,1,0,0:0:0:0:
329,35,599,2,0,L|325:122,1,57.5
252,18,777,2,0,L|248:105,1,57.5
367,338,954,1,0,0:0:0:0:
392,337,1043,1,0,0:0:0:0:
415,321,1132,2,0,L|422:206,1,115
75,355,1487,6,0,L|67:240,1,115
121,19,1753,1,0,0:0:0:0:
149,13,1842,1,0,0:0:0:0:
177,16,1930,1,0,0:0:0:0:
200,33,2019,2,0,L|193:113,1,57.5
106,35,2197,2,0,L|99:115,1,57.5
172,349,2374,1,0,0:0:0:0:
199,340,2463,1,0,0:0:0:0:
226,330,2552,2,0,L|377:341,1,115
471,51,2907,6,0,L|356:59,1,115
137,90,3173,1,0,0:0:0:0:
108,89,3262,1,0,0:0:0:0:
84,105,3351,1,0,0:0:0:0:
70,130,3439,2,0,L|92:222,1,57.5
156,102,3617,2,0,L|178:194,1,57.5
259,349,3794,1,0,0:0:0:0:
255,320,3883,1,0,0:0:0:0:
252,291,3972,2,0,B|135:311,1,115
387,21,4327,6,0,B|504:41,1,115
291,129,4593,1,0,0:0:0:0:
263,122,4682,1,0,0:0:0:0:
241,103,4771,1,0,0:0:0:0:
226,78,4859,2,0,L|139:97,1,57.5
318,126,5037,2,0,L|374:113,1,57.5
0,272,5214,2,0,L|123:244,1,115
332,305,5569,2,0,L|403:328,1,57.5
0,112,5747,6,0,L|24:0,1,115
164,181,6013,1,0,0:0:0:0:
191,188,6102,1,0,0:0:0:0:
218,179,6191,1,0,0:0:0:0:
237,157,6280,2,0,L|245:57,1,57.5
147,166,6457,2,0,L|155:66,1,57.5
43,27,6635,1,0,0:0:0:0:
32,55,6723,1,0,0:0:0:0:
24,82,6812,2,0,L|42:216,1,115
377,376,7167,6,0,L|392:262,1,115
356,47,7433,1,0,0:0:0:0:
339,23,7522,1,0,0:0:0:0:
314,7,7611,1,0,0:0:0:0:
285,3,7700,2,0,L|196:14,1,57.5
357,80,7877,2,0,L|268:91,1,57.5
20,175,8055,1,0,0:0:0:0:
39,195,8143,1,0,0:0:0:0:
59,214,8232,2,0,L|195:197,1,115
484,121,8587,5,0,0:0:0:0:
489,78,8675,1,0,0:0:0:0:
469,41,8764,1,0,0:0:0:0:
418,13,8853,1,0,0:0:0:0:
383,14,8942,1,0,0:0:0:0:
359,32,9031,1,0,0:0:0:0:
344,63,9119,1,0,0:0:0:0:
313,111,9208,1,0,0:0:0:0:
286,133,9297,1,0,0:0:0:0:
256,150,9385,1,0,0:0:0:0:
221,149,9474,1,0,0:0:0:0:
191,131,9563,1,0,0:0:0:0:
158,83,9652,1,0,0:0:0:0:
104,64,9740,1,0,0:0:0:0:
47,77,9830,1,0,0:0:0:0:
17,126,9919,1,0,0:0:0:0:
0,180,10007,6,0,L|7:238,2,57.5
209,290,10274,2,0,L|193:191,2,57.5
31,343,10540,1,0,0:0:0:0:
62,336,10629,1,0,0:0:0:0:
98,342,10717,1,0,0:0:0:0:
137,363,10806,1,0,0:0:0:0:
177,377,10895,1,0,0:0:0:0:
226,379,10984,1,0,0:0:0:0:
271,366,11072,1,0,0:0:0:0:
295,331,11161,1,0,0:0:0:0:
299,281,11250,1,0,0:0:0:0:
276,231,11339,1,0,0:0:0:0:
150,46,11427,6,0,L|306:26,1,115
462,0,11694,2,0,L|454:75,1,57.5
404,238,11872,2,0,L|398:181,1,57.5
349,5,12050,2,0,L|341:80,1,57.5
166,112,12226,1,0,0:0:0:0:
188,138,12315,2,0,L|190:274,1,115
99,38,12581,1,0,0:0:0:0:
77,64,12670,2,0,L|75:200,1,115
123,361,13025,5,0,0:0:0:0:
141,370,13114,2,0,L|212:360,1,57.5
360,298,13291,2,0,L|289:308,1,57.5
240,132,13469,2,0,L|248:188,1,57.5
360,30,13646,1,0,0:0:0:0:
373,40,13735,1,0,0:0:0:0:
386,51,13824,2,0,L|370:153,1,57.5
248,188,14001,2,0,L|343:193,1,57.5
490,201,14179,2,0,L|432:197,1,57.5
237,86,14356,5,0,0:0:0:0:
218,88,14445,1,0,0:0:0:0:
200,90,14534,2,0,L|133:98,1,57.5
80,224,14711,2,0,L|69:148,1,57.5
47,12,14889,2,0,L|58:88,1,57.5
97,302,15067,1,0,0:0:0:0:
114,316,15155,1,0,0:0:0:0:
134,326,15244,2,0,L|225:326,1,57.5
406,306,15422,2,0,L|315:306,1,57.5
190,187,15599,2,0,L|247:187,1,57.5
389,44,15777,5,0,0:0:0:0:
405,59,15865,1,0,0:0:0:0:
420,74,15954,2,0,L|404:175,1,57.5
256,243,16132,2,0,L|240:142,1,57.5
406,306,16309,2,0,L|390:407,1,57.5
324,143,16487,1,0,0:0:0:0:
306,128,16575,1,0,0:0:0:0:
288,114,16664,2,0,L|230:114,1,57.5
46,106,16842,1,0,0:0:0:0:
40,122,16930,1,0,0:0:0:0:
35,138,17019,1,0,0:0:0:0:
56,164,17108,5,0,0:0:0:0:
66,177,17196,1,0,0:0:0:0:
67,200,17285,1,0,0:0:0:0:
60,228,17374,1,0,0:0:0:0:
37,254,17463,1,0,0:0:0:0:
26,292,17552,1,0,0:0:0:0:
41,334,17640,1,0,0:0:0:0:
86,358,17729,1,0,0:0:0:0:
143,350,17818,1,0,0:0:0:0:
181,307,17907,1,0,0:0:0:0:
236,293,17995,1,0,0:0:0:0:
293,319,18084,1,0,0:0:0:0:
362,317,18173,1,0,0:0:0:0:
415,263,18262,1,0,0:0:0:0:
422,194,18351,1,0,0:0:0:0:
379,133,18439,1,0,0:0:0:0:
310,126,18528,5,2,0:0:0:0:
241,156,18617,1,0,0:0:0:0:
201,212,18706,1,0,0:0:0:0:
132,239,18794,1,0,0:0:0:0:
53,219,18883,1,0,0:0:0:0:
11,143,18972,1,0,0:0:0:0:
35,66,19061,1,0,0:0:0:0:
101,32,19149,1,0,0:0:0:0:
168,46,19238,1,0,0:0:0:0:
201,99,19327,1,0,0:0:0:0:
195,156,19416,1,0,0:0:0:0:
168,199,19504,1,0,0:0:0:0:
137,233,19593,1,0,0:0:0:0:
131,272,19682,1,0,0:0:0:0:
145,303,19771,1,0,0:0:0:0:
166,321,19859,6,0,L|279:299,1,115
477,261,20214,2,0,L|379:243,1,57.5
238,212,20392,2,0,L|299:205,1,57.5
471,132,20569,2,0,L|394:122,1,57.5
225,58,20747,1,0,0:0:0:0:
207,41,20836,2,0,L|65:62,1,115
0,270,21102,1,0,0:0:0:0:
18,287,21191,2,0,L|160:266,1,115
188,261,21457,5,0,0:0:0:0:
243,276,21546,1,0,0:0:0:0:
280,319,21635,1,0,0:0:0:0:
322,356,21723,1,0,0:0:0:0:
374,378,21812,1,0,0:0:0:0:
431,369,21901,1,0,0:0:0:0:
473,330,21990,2,0,L|455:193,1,115
375,25,22256,1,0,0:0:0:0:
320,7,22345,1,0,0:0:0:0:
273,39,22433,1,0,0:0:0:0:
276,96,22522,1,0,0:0:0:0:
330,116,22611,2,0,L|346:237,1,115
179,364,22877,5,0,0:0:0:0:
202,311,22966,1,0,0:0:0:0:
258,299,23055,1,0,0:0:0:0:
306,328,23143,1,0,0:0:0:0:
363,333,23232,1,0,0:0:0:0:
418,317,23321,2,0,P|448:238|437:188,1,115
226,155,23587,1,0,0:0:0:0:
225,175,23676,2,0,P|265:215|319:232,1,115
413,63,24031,1,0,0:0:0:0:
399,48,24120,2,0,P|339:36|271:64,1,115
99,99,24386,6,0,L|208:117,1,57.5
319,232,24564,2,0,L|210:250,1,57.5
88,300,24741,2,0,L|197:318,1,57.5
360,307,24919,1,0,0:0:0:0:
377,291,25007,1,0,0:0:0:0:
392,277,25096,2,0,L|501:271,1,57.5
348,323,25274,2,0,L|239:317,1,57.5
125,219,25451,5,0,0:0:0:0:
109,202,25540,1,0,0:0:0:0:
97,169,25629,1,0,0:0:0:0:
98,134,25717,1,0,0:0:0:0:
116,91,25806,1,0,0:0:0:0:
156,68,25895,1,0,0:0:0:0:
202,67,25984,1,0,0:0:0:0:
231,83,26072,1,0,0:0:0:0:
252,110,26161,1,0,0:0:0:0:
255,144,26250,1,0,0:0:0:0:
245,165,26339,1,0,0:0:0:0:
231,183,26427,1,0,0:0:0:0:
214,199,26516,1,0,0:0:0:0:
197,229,26605,1,0,0:0:0:0:
192,263,26694,1,0,0:0:0:0:
201,307,26782,1,0,0:0:0:0:
236,335,26871,5,0,0:0:0:0:
269,343,26960,1,0,0:0:0:0:
302,336,27049,1,0,0:0:0:0:
319,320,27138,1,0,0:0:0:0:
331,300,27226,1,0,0:0:0:0:
335,265,27315,1,0,0:0:0:0:
324,231,27404,1,0,0:0:0:0:
303,189,27493,1,0,0:0:0:0:
275,152,27581,1,0,0:0:0:0:
242,140,27670,1,0,0:0:0:0:
207,140,27759,1,0,0:0:0:0:
175,154,27848,1,0,0:0:0:0:
143,186,27936,1,0,0:0:0:0:
99,200,28025,1,0,0:0:0:0:
53,193,28114,1,0,0:0:0:0:
18,162,28203,1,0,0:0:0:0:
1,107,28291,5,0,0:0:0:0:
23,54,28380,1,0,0:0:0:0:
74,29,28469,1,0,0:0:0:0:
131,32,28558,1,0,0:0:0:0:
177,64,28646,1,0,0:0:0:0:
190,120,28735,1,0,0:0:0:0:
219,169,28824,1,0,0:0:0:0:
272,191,28913,1,0,0:0:0:0:
328,194,29001,1,0,0:0:0:0:
382,175,29090,1,0,0:0:0:0:
408,123,29179,1,0,0:0:0:0:
412,65,29268,1,0,0:0:0:0:
390,12,29356,1,0,0:0:0:0:
333,0,29445,1,0,0:0:0:0:
276,13,29534,1,0,0:0:0:0:
255,66,29623,1,0,0:0:0:0:
337,250,29711,6,0,L|319:143,1,57.5
216,367,29889,2,0,L|198:260,1,57.5
107,20,30155,2,0,L|97:76,1,57.5
255,193,30422,2,0,L|245:249,1,57.5
399,55,30688,1,0,0:0:0:0:
399,55,30777,1,0,0:0:0:0:
