osu file format v14

[General]
AudioFilename: Audio.ogg
AudioLeadIn: 0
PreviewTime: 175389
Countdown: 0
SampleSet: Soft
StackLeniency: 0.7
Mode: 0
LetterboxInBreaks: 0
WidescreenStoryboard: 1

[Editor]
Bookmarks: 174673
DistanceSpacing: 0.75
BeatDivisor: 5
GridSize: 32
TimelineZoom: 4.000006

[Metadata]
Title:In Excelsis / Nova Era
TitleUnicode:In Excelsis / Nova Era
Artist:Angra
ArtistUnicode:Angra
Creator:Urition
Version:Inner Paradise
Source:
Tags:2001 English Epic Male Vocals Power Progressive Prog Neoclassical Metal Melodic Symphonic Orchestra Brazilian Western Self Improvement Rebirth Angels Death Streams nm2 rsi iFinixe Keysounds Edu Falaschi Kiko Loureiro Rafael Bittencourt Felipe Andreoli Aquiles Priester Dennis Ward
BeatmapID:4354184
BeatmapSetID:2079368

[Difficulty]
HPDrainRate:5.1
CircleSize:4
OverallDifficulty:9
ApproachRate:9
SliderMultiplier:1.7
SliderTickRate:0.5

[Events]
//Background and Video events
0,0,"bg.jpg",0,0
//Break Periods
//Storyboard Layer 0 (Background)
//Storyboard Layer 1 (Fail)
//Storyboard Layer 2 (Pass)
//Storyboard Layer 3 (Foreground)
//Storyboard Layer 4 (Overlay)
//Storyboard Sound Samples

[TimingPoints]
53101,794.176042356056,4,2,100,30,1,0
54490,-100,4,2,100,5,0,0
54690,705.882352941176,6,2,100,23,1,0
56807,-250,6,2,100,37,0,0
58131,-250,6,2,100,5,0,0
58219,-250,6,2,100,37,0,0
58748,-250,6,2,100,5,0,0
58925,-250,6,2,100,42,0,0
59278,-100,6,2,100,42,0,0
60337,-250,6,2,100,60,0,0
60954,-250,6,2,100,5,0,0
61042,716.417910447761,4,2,100,60,1,0
61042,-200,6,2,100,60,0,0
62474,-200,6,2,100,65,0,0
63143,352.941176470588,6,2,1,75,1,0
63407,-100,6,2,1,5,0,0
63495,-100,6,2,1,75,0,0
64201,-100,6,2,1,75,0,0
64465,-100,6,2,1,5,0,0
64554,-100,6,2,1,75,0,0
64731,-100,6,2,2,75,0,0
64907,-100,6,2,1,75,0,0
65084,-100,6,2,3,75,0,0
65260,-133.333333333333,6,2,2,75,0,0
65966,-133.333333333333,6,2,2,5,0,0
66054,-133.333333333333,6,2,2,75,0,0
66231,-133.333333333333,6,2,2,5,0,0
66319,-133.333333333333,6,2,2,75,0,0
66583,-133.333333333333,6,2,2,5,0,0
66672,-133.333333333333,6,2,2,75,0,0
66936,-133.333333333333,6,2,2,5,0,0
67025,-133.333333333333,6,2,2,75,0,0
67378,-100,6,2,1,75,0,0
67642,-100,6,2,1,5,0,0
67731,-100,6,2,1,75,0,0
68260,-100,6,2,1,75,0,0
68437,-100,6,2,1,75,0,0
68701,-100,6,2,1,5,0,0
68790,-100,6,2,3,75,0,0
69495,-133.333333333333,6,2,4,75,0,0
70201,-133.333333333333,6,2,4,5,0,0
70290,-133.333333333333,6,2,4,75,0,0
70466,-133.333333333333,6,2,4,5,0,0
70554,-133.333333333333,6,2,3,75,0,0
70642,-133.333333333333,6,2,3,75,0,0
71613,-100,6,2,1,75,0,0
71789,-100,6,2,1,5,0,0
71878,-100,6,2,1,75,0,0
73025,-100,6,2,1,75,0,0
73201,-100,6,2,2,75,0,0
73378,-100,6,2,1,75,0,0
73554,-100,6,2,3,75,0,0
73731,-133.333333333333,6,2,2,75,0,0
74437,-133.333333333333,6,2,2,5,0,0
74525,-133.333333333333,6,2,2,75,0,0
74701,-133.333333333333,6,2,2,5,0,0
74790,-133.333333333333,6,2,2,75,0,0
74878,-133.333333333333,6,2,2,75,0,0
75848,-100,6,2,1,75,0,0
76024,-100,6,2,1,75,0,0
76113,-100,6,2,1,75,0,0
76554,-133.333333333333,6,2,2,75,0,0
76818,-133.333333333333,6,2,2,5,0,0
76907,-100,6,2,2,75,0,0
77171,-100,6,2,2,5,0,0
77260,-100,6,2,1,75,0,0
77613,-100,6,2,23,75,0,0
77966,-166.666666666667,6,2,23,75,0,0
78672,-166.666666666667,6,2,5,5,0,0
78760,-166.666666666667,6,2,5,75,0,0
78937,-166.666666666667,6,2,5,5,0,0
79025,-166.666666666667,6,2,3,75,0,0
79731,-166.666666666667,6,2,3,5,0,0
79819,-166.666666666667,6,2,3,75,0,0
79995,-166.666666666667,6,2,3,5,0,0
80096,352.941176470588,4,2,5,75,1,0
80096,-200,6,2,5,75,0,0
82203,352.941176470588,4,2,5,85,1,0
82555,-100,4,2,3,85,0,0
86438,-100,4,2,5,85,0,0
86791,-100,4,2,3,85,0,0
89967,-100,4,2,4,90,0,0
90055,-100,4,2,1,90,0,0
90144,-100,4,2,3,90,0,0
90232,-100,4,2,1,90,0,0
90320,-90.9090909090909,4,2,5,90,0,0
90408,-90.9090909090909,4,2,1,90,0,0
90497,-90.9090909090909,4,2,2,90,0,0
90585,-90.9090909090909,4,2,6,90,0,0
90673,-90.9090909090909,4,2,6,85,0,0
90850,-90.9090909090909,4,2,3,85,0,0
91026,-90.9090909090909,4,2,5,85,0,0
91202,-90.9090909090909,4,2,3,85,0,0
91379,-90.9090909090909,4,2,5,85,0,0
91555,-90.9090909090909,4,2,3,85,0,0
91732,-90.9090909090909,4,2,5,85,0,0
91908,-90.9090909090909,4,2,3,85,0,0
92085,-90.9090909090909,4,2,7,85,0,0
92261,-90.9090909090909,4,2,3,85,0,0
92438,-90.9090909090909,4,2,5,85,0,0
92614,-90.9090909090909,4,2,3,85,0,0
92791,-90.9090909090909,4,2,5,85,0,0
92967,-90.9090909090909,4,2,3,85,0,0
93144,-90.9090909090909,4,2,5,85,0,0
93320,-90.9090909090909,4,2,3,85,0,0
93497,-90.9090909090909,4,2,5,85,0,0
93673,-90.9090909090909,4,2,3,85,0,0
93850,-90.9090909090909,4,2,5,85,0,0
94026,-90.9090909090909,4,2,3,85,0,0
94202,-90.9090909090909,4,2,5,85,0,0
94379,-90.9090909090909,4,2,3,85,0,0
94555,-90.9090909090909,4,2,5,85,0,0
94732,-90.9090909090909,4,2,3,85,0,0
94908,-90.9090909090909,4,2,7,85,0,0
95085,-90.9090909090909,4,2,3,85,0,0
95261,-90.9090909090909,4,2,5,85,0,0
95438,-90.9090909090909,4,2,3,85,0,0
95614,-90.9090909090909,4,2,5,85,0,0
95791,-90.9090909090909,4,2,3,85,0,0
95967,-90.9090909090909,4,2,5,85,0,0
96144,-90.9090909090909,4,2,3,85,0,0
96320,-90.9090909090909,4,2,5,85,0,0
96497,-90.9090909090909,4,2,3,85,0,0
96673,-90.9090909090909,4,2,5,85,0,0
96850,-90.9090909090909,4,2,3,85,0,0
97026,-90.9090909090909,4,2,5,85,0,0
97202,-90.9090909090909,4,2,3,85,0,0
97379,-90.9090909090909,4,2,5,85,0,0
97555,-90.9090909090909,4,2,3,85,0,0
97732,-90.9090909090909,4,2,7,85,0,0
97908,-90.9090909090909,4,2,3,85,0,0
98085,-90.9090909090909,4,2,7,85,0,0
98261,-90.9090909090909,4,2,3,85,0,0
98438,-90.9090909090909,4,2,7,85,0,0
98614,-90.9090909090909,4,2,3,85,0,0
98791,-90.9090909090909,4,2,7,85,0,0
98967,-90.9090909090909,4,2,3,85,0,0
99144,-90.9090909090909,4,2,1,90,0,0
99232,-90.9090909090909,4,2,3,90,0,0
99320,-90.9090909090909,4,2,2,90,0,0
99408,-90.9090909090909,4,2,5,90,0,0
99497,-90.9090909090909,4,2,2,90,0,0
99673,-90.9090909090909,4,2,3,90,0,0
99761,-90.9090909090909,4,2,5,90,0,0
99850,-90.9090909090909,4,2,2,90,0,0
100026,-90.9090909090909,4,2,1,90,0,0
100114,-90.9090909090909,4,2,7,90,0,0
100202,-90.9090909090909,4,2,1,90,0,0
100379,-90.9090909090909,4,2,8,90,0,0
100467,-90.9090909090909,4,2,5,90,0,0
100555,-90.9090909090909,4,2,2,90,0,0
100644,-90.9090909090909,4,2,1,90,0,0
100732,-90.9090909090909,4,2,5,90,0,0
100820,-90.9090909090909,4,2,7,90,0,0
100908,-90.9090909090909,4,2,3,90,0,0
100997,-90.9090909090909,4,2,1,90,0,0
101085,-90.9090909090909,4,2,2,90,0,0
101261,-90.9090909090909,4,2,3,90,0,0
101350,-90.9090909090909,4,2,2,90,0,0
101438,-90.9090909090909,4,2,3,90,0,0
101526,-90.9090909090909,4,2,2,90,0,0
101614,-90.9090909090909,4,2,5,90,0,0
101702,-90.9090909090909,4,2,3,90,0,0
101791,-90.9090909090909,4,2,2,90,0,0
101879,-90.9090909090909,4,2,3,90,0,0
101967,-83.3333333333333,4,2,8,70,0,0
102144,-83.3333333333333,4,2,1,70,0,0
102232,-83.3333333333333,4,2,1,70,0,0
102320,-83.3333333333333,4,2,3,70,0,0
102497,-83.3333333333333,4,2,1,70,0,0
102673,-83.3333333333333,4,2,3,75,0,0
102850,-83.3333333333333,4,2,1,75,0,0
103026,-83.3333333333333,4,2,3,75,0,0
103202,-83.3333333333333,4,2,1,75,0,0
103379,-83.3333333333333,4,2,3,75,0,0
103555,-83.3333333333333,4,2,1,75,0,0
103732,-83.3333333333333,4,2,3,75,0,0
103908,-83.3333333333333,4,2,1,75,0,0
104085,-83.3333333333333,4,2,3,75,0,0
104261,-83.3333333333333,4,2,1,75,0,0
104438,-83.3333333333333,4,2,3,75,0,0
104614,-83.3333333333333,4,2,1,75,0,0
104791,-83.3333333333333,4,2,3,75,0,0
104879,-83.3333333333333,4,2,3,75,0,0
104967,-83.3333333333333,4,2,1,75,0,0
105055,-83.3333333333333,4,2,3,75,0,0
105144,-83.3333333333333,4,2,3,75,0,0
105232,-83.3333333333333,4,2,3,5,0,0
105320,-83.3333333333333,4,2,1,75,0,0
105408,-83.3333333333333,4,2,1,5,0,0
105497,-83.3333333333333,4,2,3,75,0,0
105673,-83.3333333333333,4,2,1,75,0,0
105850,-83.3333333333333,4,2,3,75,0,0
106026,-83.3333333333333,4,2,1,75,0,0
106202,-83.3333333333333,4,2,3,75,0,0
106379,-83.3333333333333,4,2,1,75,0,0
106555,-83.3333333333333,4,2,3,75,0,0
106732,-83.3333333333333,4,2,1,75,0,0
106908,-83.3333333333333,4,2,3,75,0,0
107085,-83.3333333333333,4,2,1,75,0,0
107261,-83.3333333333333,4,2,3,75,0,0
107438,-83.3333333333333,4,2,1,75,0,0
107614,-83.3333333333333,4,2,3,75,0,0
107702,-83.3333333333333,4,2,3,75,0,0
107791,-83.3333333333333,4,2,1,75,0,0
107879,-83.3333333333333,4,2,3,75,0,0
107967,-83.3333333333333,4,2,3,75,0,0
108144,-83.3333333333333,4,2,1,75,0,0
108320,-83.3333333333333,4,2,3,75,0,0
108497,-83.3333333333333,4,2,1,75,0,0
108673,-83.3333333333333,4,2,3,75,0,0
108850,-83.3333333333333,4,2,1,75,0,0
109026,-83.3333333333333,4,2,3,75,0,0
109202,-83.3333333333333,4,2,1,75,0,0
109379,-83.3333333333333,4,2,3,75,0,0
109555,-83.3333333333333,4,2,1,75,0,0
109732,-83.3333333333333,4,2,3,75,0,0
109908,-83.3333333333333,4,2,1,75,0,0
109997,-83.3333333333333,4,2,1,5,0,0
110085,-83.3333333333333,4,2,3,75,0,0
110261,-83.3333333333333,4,2,1,75,0,0
110350,-83.3333333333333,4,2,1,5,0,0
110438,-83.3333333333333,4,2,6,90,0,0
110614,-83.3333333333333,4,2,1,90,0,0
110791,-83.3333333333333,4,2,5,90,0,0
111232,-83.3333333333333,4,2,5,90,0,0
111320,-83.3333333333333,4,2,1,90,0,0
111408,-83.3333333333333,4,2,5,90,0,0
111497,-83.3333333333333,4,2,5,90,0,0
111850,-83.3333333333333,4,2,9,90,0,0
111938,-83.3333333333333,4,2,9,90,0,0
112026,-83.3333333333333,4,2,1,90,0,0
112114,-83.3333333333333,4,2,5,90,0,0
112202,-83.3333333333333,4,2,5,90,0,0
112644,-83.3333333333333,4,2,5,5,0,0
112732,-83.3333333333333,4,2,1,90,0,0
112820,-83.3333333333333,4,2,1,5,0,0
112908,-83.3333333333333,4,2,5,90,0,0
112997,-83.3333333333333,4,2,5,5,0,0
113085,-83.3333333333333,4,2,5,90,0,0
113173,-83.3333333333333,4,2,5,5,0,0
113261,-83.3333333333333,4,2,10,90,0,0
113438,-83.3333333333333,4,2,1,90,0,0
113614,-83.3333333333333,4,2,5,90,0,0
114055,-83.3333333333333,4,2,5,90,0,0
114144,-83.3333333333333,4,2,1,90,0,0
114232,-83.3333333333333,4,2,5,90,0,0
114320,-83.3333333333333,4,2,5,90,0,0
114673,-83.3333333333333,4,2,6,90,0,0
114761,-83.3333333333333,4,2,6,90,0,0
114850,-83.3333333333333,4,2,1,90,0,0
114938,-83.3333333333333,4,2,5,90,0,0
115026,-83.3333333333333,4,2,5,90,0,0
115114,-83.3333333333333,4,2,5,5,0,0
115202,-83.3333333333333,4,2,5,90,0,0
115291,-83.3333333333333,4,2,5,5,0,0
115379,-83.3333333333333,4,2,5,90,0,0
115467,-83.3333333333333,4,2,5,5,0,0
115555,-83.3333333333333,4,2,1,90,0,0
115644,-83.3333333333333,4,2,1,5,0,0
115732,-83.3333333333333,4,2,5,90,0,0
115820,-83.3333333333333,4,2,5,5,0,0
115908,-83.3333333333333,4,2,5,90,0,0
115997,-83.3333333333333,4,2,5,5,0,0
116085,-83.3333333333333,4,2,6,90,0,0
116261,-83.3333333333333,4,2,1,90,0,0
116438,-83.3333333333333,4,2,5,90,0,0
116879,-83.3333333333333,4,2,5,90,0,0
116967,-83.3333333333333,4,2,1,90,0,0
117055,-83.3333333333333,4,2,5,90,0,0
117144,-83.3333333333333,4,2,5,90,0,0
117497,-76.9230769230769,4,2,9,90,0,0
117761,-76.9230769230769,4,2,1,5,0,0
117850,-83.3333333333333,4,2,5,90,0,0
117938,-83.3333333333333,4,2,5,5,0,0
118026,-83.3333333333333,4,2,5,90,0,0
118114,-83.3333333333333,4,2,5,5,0,0
118202,-83.3333333333333,4,2,5,90,0,0
118291,-83.3333333333333,4,2,5,5,0,0
118379,-83.3333333333333,4,2,1,90,0,0
118467,-83.3333333333333,4,2,1,5,0,0
118555,-83.3333333333333,4,2,5,90,0,0
118644,-83.3333333333333,4,2,5,5,0,0
118732,-83.3333333333333,4,2,5,90,0,0
118820,-83.3333333333333,4,2,5,5,0,0
118908,-83.3333333333333,4,2,5,80,0,0
120320,-83.3333333333333,4,2,10,75,0,0
121026,-111.111111111111,4,2,9,70,0,0
121114,-111.111111111111,4,2,2,70,0,0
121202,-111.111111111111,4,2,1,70,0,0
121291,-111.111111111111,4,2,3,70,0,0
121379,-166.666666666667,4,2,2,60,0,0
121555,-166.666666666667,4,2,3,60,0,0
121644,-166.666666666667,4,2,5,60,0,0
121732,-100,4,2,9,95,0,1
121908,-100,4,2,6,95,0,1
124555,-100,4,2,9,95,0,1
124732,-100,4,2,6,95,0,1
127379,-100,4,2,9,95,0,1
127555,-100,4,2,6,95,0,1
130202,-100,4,2,9,95,0,1
130379,-100,4,2,6,95,0,1
131614,-100,4,2,11,95,0,1
131702,-100,4,2,3,95,0,1
131791,-100,4,2,1,95,0,1
131879,-100,4,2,2,95,0,1
131967,-100,4,2,5,95,0,1
132055,-100,4,2,2,95,0,1
132144,-100,4,2,3,95,0,1
132232,-100,4,2,2,95,0,1
132320,-100,4,2,12,95,0,1
132408,-100,4,2,2,95,0,1
132497,-100,4,2,5,95,0,1
132585,-100,4,2,2,95,0,1
132673,-100,4,2,8,95,0,1
132761,-100,4,2,3,95,0,1
132850,-100,4,2,5,95,0,1
132938,-100,4,2,7,95,0,1
133026,-100,4,2,9,95,0,1
133202,-100,4,2,6,95,0,1
135850,-100,4,2,9,95,0,1
136026,-100,4,2,6,95,0,1
139026,-100,4,2,10,95,0,1
140085,-100,4,2,6,95,0,1
140438,-100,4,2,10,95,0,1
141497,-100,4,2,6,95,0,1
141850,-100,4,2,10,95,0,1
142908,-100,4,2,6,85,0,1
142997,-100,4,2,6,85,0,0
143261,-100,4,2,6,85,0,1
143350,-100,4,2,6,85,0,0
143614,-100,4,2,6,90,0,1
143879,-100,4,2,6,90,0,0
143967,-100,4,2,1,90,0,1
144232,-100,4,2,1,90,0,0
144320,-100,4,2,5,85,0,1
144408,-100,4,2,5,85,0,0
144497,-100,4,2,3,85,0,0
148555,-100,4,2,5,85,0,0
148732,-100,4,2,3,85,0,0
149261,-100,4,2,3,90,0,0
149614,-90.9090909090909,4,2,3,90,0,0
149967,-90.9090909090909,4,2,7,85,0,0
150144,-90.9090909090909,4,2,3,85,0,0
150320,-90.9090909090909,4,2,5,85,0,0
150497,-90.9090909090909,4,2,3,85,0,0
150673,-90.9090909090909,4,2,5,85,0,0
150850,-90.9090909090909,4,2,3,85,0,0
151026,-90.9090909090909,4,2,5,85,0,0
151202,-90.9090909090909,4,2,3,85,0,0
151379,-90.9090909090909,4,2,7,85,0,0
151555,-90.9090909090909,4,2,3,85,0,0
151732,-90.9090909090909,4,2,5,85,0,0
151908,-90.9090909090909,4,2,3,85,0,0
152085,-90.9090909090909,4,2,5,85,0,0
152261,-90.9090909090909,4,2,3,85,0,0
152438,-90.9090909090909,4,2,5,85,0,0
152614,-90.9090909090909,4,2,3,85,0,0
152791,-90.9090909090909,4,2,6,90,0,0
152879,-90.9090909090909,4,2,1,90,0,0
152967,-90.9090909090909,4,2,2,90,0,0
153055,-90.9090909090909,4,2,1,90,0,0
153144,-90.9090909090909,4,2,3,90,0,0
153232,-90.9090909090909,4,2,2,90,0,0
153320,-90.9090909090909,4,2,1,90,0,0
153408,-90.9090909090909,4,2,2,90,0,0
153497,-90.9090909090909,4,2,3,90,0,0
153585,-90.9090909090909,4,2,1,90,0,0
153761,-90.9090909090909,4,2,2,90,0,0
153850,-90.9090909090909,4,2,1,90,0,0
153938,-90.9090909090909,4,2,3,90,0,0
154026,-90.9090909090909,4,2,2,90,0,0
154114,-90.9090909090909,4,2,1,90,0,0
154291,-90.9090909090909,4,2,5,90,0,0
154379,-90.9090909090909,4,2,3,90,0,0
154555,-90.9090909090909,4,2,1,90,0,0
154644,-90.9090909090909,4,2,2,90,0,0
154732,-90.9090909090909,4,2,7,90,0,0
154820,-90.9090909090909,4,2,5,90,0,0
154908,-90.9090909090909,4,2,1,90,0,0
154997,-90.9090909090909,4,2,2,90,0,0
155173,-90.9090909090909,4,2,1,90,0,0
155261,-90.9090909090909,4,2,3,90,0,0
155350,-90.9090909090909,4,2,5,90,0,0
155438,-90.9090909090909,4,2,2,90,0,0
155526,-90.9090909090909,4,2,7,90,0,0
155614,-83.3333333333333,4,2,7,70,0,0
155791,-83.3333333333333,4,2,1,70,0,0
155879,-83.3333333333333,4,2,1,70,0,0
155967,-83.3333333333333,4,2,3,70,0,0
156144,-83.3333333333333,4,2,1,70,0,0
156320,-83.3333333333333,4,2,3,75,0,0
156497,-83.3333333333333,4,2,1,75,0,0
156673,-83.3333333333333,4,2,3,75,0,0
156850,-83.3333333333333,4,2,1,75,0,0
157026,-83.3333333333333,4,2,3,75,0,0
157202,-83.3333333333333,4,2,1,75,0,0
157379,-83.3333333333333,4,2,3,75,0,0
157555,-83.3333333333333,4,2,1,75,0,0
157732,-83.3333333333333,4,2,3,75,0,0
157908,-83.3333333333333,4,2,1,75,0,0
158085,-83.3333333333333,4,2,3,75,0,0
158261,-83.3333333333333,4,2,1,75,0,0
158438,-83.3333333333333,4,2,3,75,0,0
158614,-83.3333333333333,4,2,1,75,0,0
158702,-83.3333333333333,4,2,3,75,0,0
158791,-83.3333333333333,4,2,3,75,0,0
158879,-83.3333333333333,4,2,3,5,0,0
158967,-83.3333333333333,4,2,1,75,0,0
159055,-83.3333333333333,4,2,1,5,0,0
159144,-83.3333333333333,4,2,3,75,0,0
159320,-83.3333333333333,4,2,1,75,0,0
159497,-83.3333333333333,4,2,3,75,0,0
159673,-83.3333333333333,4,2,1,75,0,0
159850,-83.3333333333333,4,2,3,75,0,0
160026,-83.3333333333333,4,2,1,75,0,0
160202,-83.3333333333333,4,2,3,75,0,0
160379,-83.3333333333333,4,2,1,75,0,0
160555,-83.3333333333333,4,2,3,75,0,0
160732,-83.3333333333333,4,2,1,75,0,0
160908,-83.3333333333333,4,2,3,75,0,0
161085,-83.3333333333333,4,2,1,75,0,0
161261,-83.3333333333333,4,2,3,75,0,0
161349,-83.3333333333333,4,2,3,75,0,0
161438,-83.3333333333333,4,2,1,75,0,0
161526,-83.3333333333333,4,2,3,75,0,0
161614,-83.3333333333333,4,2,3,75,0,0
161791,-83.3333333333333,4,2,1,75,0,0
161967,-83.3333333333333,4,2,3,75,0,0
162144,-83.3333333333333,4,2,1,75,0,0
162320,-83.3333333333333,4,2,3,75,0,0
162497,-83.3333333333333,4,2,1,75,0,0
162673,-83.3333333333333,4,2,3,75,0,0
162850,-83.3333333333333,4,2,1,75,0,0
163026,-83.3333333333333,4,2,3,75,0,0
163202,-83.3333333333333,4,2,1,75,0,0
163379,-83.3333333333333,4,2,3,75,0,0
163555,-83.3333333333333,4,2,1,75,0,0
163644,-83.3333333333333,4,2,1,5,0,0
163732,-83.3333333333333,4,2,3,75,0,0
163908,-83.3333333333333,4,2,1,75,0,0
163997,-83.3333333333333,4,2,1,5,0,0
164085,-83.3333333333333,4,2,6,90,0,0
164261,-83.3333333333333,4,2,1,90,0,0
164438,-83.3333333333333,4,2,5,90,0,0
164879,-83.3333333333333,4,2,5,90,0,0
164967,-83.3333333333333,4,2,1,90,0,0
165055,-83.3333333333333,4,2,5,90,0,0
165144,-83.3333333333333,4,2,5,90,0,0
165497,-83.3333333333333,4,2,9,90,0,0
165585,-83.3333333333333,4,2,9,90,0,0
165673,-83.3333333333333,4,2,1,90,0,0
165761,-83.3333333333333,4,2,5,90,0,0
165850,-83.3333333333333,4,2,5,90,0,0
166291,-83.3333333333333,4,2,5,5,0,0
166379,-83.3333333333333,4,2,1,90,0,0
166467,-83.3333333333333,4,2,1,5,0,0
166555,-83.3333333333333,4,2,5,90,0,0
166644,-83.3333333333333,4,2,5,5,0,0
166732,-83.3333333333333,4,2,5,90,0,0
166820,-83.3333333333333,4,2,5,5,0,0
166908,-83.3333333333333,4,2,10,90,0,0
167085,-83.3333333333333,4,2,1,90,0,0
167261,-83.3333333333333,4,2,5,90,0,0
167702,-83.3333333333333,4,2,5,90,0,0
167791,-83.3333333333333,4,2,1,90,0,0
167879,-83.3333333333333,4,2,5,90,0,0
167967,-83.3333333333333,4,2,5,90,0,0
168320,-83.3333333333333,4,2,6,90,0,0
168408,-83.3333333333333,4,2,6,90,0,0
168497,-83.3333333333333,4,2,1,90,0,0
168585,-83.3333333333333,4,2,5,90,0,0
168673,-83.3333333333333,4,2,5,90,0,0
168761,-83.3333333333333,4,2,5,5,0,0
168850,-83.3333333333333,4,2,5,90,0,0
168938,-83.3333333333333,4,2,5,5,0,0
169026,-83.3333333333333,4,2,5,90,0,0
169114,-83.3333333333333,4,2,5,5,0,0
169202,-83.3333333333333,4,2,1,90,0,0
169291,-83.3333333333333,4,2,1,5,0,0
169379,-83.3333333333333,4,2,5,90,0,0
169467,-83.3333333333333,4,2,5,5,0,0
169555,-83.3333333333333,4,2,5,90,0,0
169644,-83.3333333333333,4,2,5,5,0,0
169732,-83.3333333333333,4,2,6,90,0,0
169908,-83.3333333333333,4,2,1,90,0,0
170085,-83.3333333333333,4,2,5,90,0,0
170526,-83.3333333333333,4,2,5,90,0,0
170614,-83.3333333333333,4,2,1,90,0,0
170702,-83.3333333333333,4,2,5,90,0,0
170791,-83.3333333333333,4,2,5,90,0,0
171144,-83.3333333333333,4,2,9,90,0,0
171232,-83.3333333333333,4,2,9,90,0,0
171320,-83.3333333333333,4,2,1,90,0,0
171408,-83.3333333333333,4,2,5,90,0,0
171497,-83.3333333333333,4,2,5,90,0,0
171585,-83.3333333333333,4,2,5,5,0,0
171673,-83.3333333333333,4,2,5,90,0,0
171761,-83.3333333333333,4,2,5,5,0,0
171850,-83.3333333333333,4,2,5,90,0,0
171938,-83.3333333333333,4,2,5,5,0,0
172026,-83.3333333333333,4,2,1,90,0,0
172114,-83.3333333333333,4,2,1,5,0,0
172202,-83.3333333333333,4,2,5,90,0,0
172291,-83.3333333333333,4,2,5,5,0,0
172379,-83.3333333333333,4,2,5,90,0,0
172467,-83.3333333333333,4,2,5,5,0,0
172555,-83.3333333333333,4,2,5,80,0,0
173614,-83.3333333333333,4,2,3,85,0,0
173702,-83.3333333333333,4,2,5,85,0,0
173791,-83.3333333333333,4,2,1,85,0,0
173879,-83.3333333333333,4,2,2,85,0,0
173967,-83.3333333333333,4,2,2,87,0,0
174144,-83.3333333333333,4,2,1,87,0,0
174232,-83.3333333333333,4,2,7,87,0,0
174320,-83.3333333333333,4,2,3,90,0,0
174408,-83.3333333333333,4,2,5,90,0,0
174497,-83.3333333333333,4,2,1,90,0,0
174585,-83.3333333333333,4,2,2,90,0,0
174673,-83.3333333333333,4,2,8,90,0,0
174761,-83.3333333333333,4,2,3,90,0,0
174850,-83.3333333333333,4,2,4,90,0,0
174938,-83.3333333333333,4,2,1,90,0,0
175379,-100,4,2,9,95,0,1
175555,-100,4,2,6,95,0,1
178202,-100,4,2,9,95,0,1
178379,-100,4,2,6,95,0,1
181026,-100,4,2,9,95,0,1
181202,-100,4,2,6,95,0,1
183850,-100,4,2,9,95,0,1
184026,-100,4,2,6,95,0,1
185261,-100,4,2,13,95,0,1
185350,-100,4,2,5,95,0,1
185438,-100,4,2,1,95,0,1
185526,-100,4,2,2,95,0,1
185614,-100,4,2,3,95,0,1
185702,-100,4,2,5,95,0,1
185791,-100,4,2,2,95,0,1
185879,-100,4,2,1,95,0,1
185967,-100,4,2,5,95,0,1
186055,-100,4,2,3,95,0,1
186144,-100,4,2,1,95,0,1
186232,-100,4,2,2,95,0,1
186320,-100,4,2,5,95,0,1
186408,-100,4,2,2,95,0,1
186497,-100,4,2,3,95,0,1
186585,-100,4,2,1,95,0,1
186673,-100,4,2,9,95,0,1
186850,-100,4,2,6,95,0,1
189497,-100,4,2,9,95,0,1
189673,-100,4,2,6,95,0,1
192673,-100,4,2,10,95,0,1
193732,-100,4,2,6,95,0,1
194085,-100,4,2,10,95,0,1
195144,-100,4,2,6,95,0,1
195497,-100,4,2,10,95,0,1
196555,-100,4,2,6,90,0,0
197085,-100,4,2,6,90,0,0
197261,-100,4,2,6,90,0,1
197526,-100,4,2,6,90,0,0
197614,-100,4,2,6,90,0,1
197879,-100,4,2,6,90,0,0
197967,-163.934426229508,4,2,6,75,0,0
198673,-163.934426229508,4,2,8,5,0,0
198761,-163.934426229508,4,2,8,75,0,0
199379,-163.934426229508,4,2,8,5,0,0
199467,-163.934426229508,4,2,8,75,0,0
200085,-163.934426229508,4,2,8,5,0,0
200173,-163.934426229508,4,2,8,75,0,0
200614,-163.934426229508,4,2,3,75,0,0
201320,-163.934426229508,4,2,4,75,0,0
201408,-163.934426229508,4,2,4,5,0,0
203261,-163.934426229508,4,2,3,70,0,0
203614,-163.934426229508,4,2,3,75,0,0
204320,-163.934426229508,4,2,3,5,0,0
204408,-163.934426229508,4,2,3,75,0,0
205026,-163.934426229508,4,2,3,5,0,0
205114,-163.934426229508,4,2,3,75,0,0
205732,-163.934426229508,4,2,3,5,0,0
205820,-163.934426229508,4,2,3,75,0,0
206261,-163.934426229508,4,2,3,75,0,0
207144,-250,4,2,3,75,0,0
207850,-250,4,2,3,5,0,0
207938,-250,4,2,3,75,0,0
208379,-250,4,2,3,5,0,0
209261,-100,4,2,3,70,0,0
209967,-100,4,2,5,70,0,0
210320,-100,4,2,3,70,0,0
211379,-100,4,2,5,70,0,0
211732,-100,4,2,3,70,0,0
212791,-100,4,2,5,70,0,0
213144,-100,4,2,3,70,0,0
214202,-100,4,2,5,70,0,0
214555,-100,4,2,3,70,0,0
215614,-100,4,2,5,70,0,0
215967,-100,4,2,3,70,0,0
217026,-100,4,2,5,70,0,0
217379,-100,4,2,3,70,0,0
217732,-250,4,2,2,80,0,0
217908,-250,4,2,3,80,0,0
217997,-250,4,2,5,80,0,0
218085,-166.666666666667,4,2,7,80,0,0
218173,-166.666666666667,4,2,3,80,0,0
218261,-166.666666666667,4,2,2,80,0,0
218350,-166.666666666667,4,2,1,80,0,0
218438,-142.857142857143,4,2,3,80,0,0
218526,-142.857142857143,4,2,5,80,0,0
218614,-142.857142857143,4,2,7,80,0,0
218702,-142.857142857143,4,2,3,80,0,0
218791,-125,4,2,8,80,0,0
218879,-125,4,2,3,80,0,0
218967,-125,4,2,10,80,0,0
219055,-125,4,2,3,80,0,0
219144,-100,4,2,7,80,0,0
219232,-100,4,2,3,80,0,0
219320,-100,4,2,1,80,0,0
219408,-100,4,2,2,80,0,0
219497,-142.857142857143,4,2,3,80,0,0
219585,-142.857142857143,4,2,2,80,0,0
219673,-142.857142857143,4,2,1,80,0,0
219761,-142.857142857143,4,2,3,80,0,0
219850,-166.666666666667,4,2,7,80,0,0
219938,-166.666666666667,4,2,5,80,0,0
220026,-166.666666666667,4,2,3,80,0,0
220114,-166.666666666667,4,2,1,80,0,0
220202,-100,4,2,2,80,0,0
220291,-100,4,2,1,80,0,0
220379,-100,4,2,5,80,0,0
220467,-100,4,2,6,80,0,0
220555,-66.6666666666667,4,2,14,90,0,1
220644,-66.6666666666667,4,2,3,90,0,1
220731,-66.6666666666667,4,2,6,90,0,1
220908,-66.6666666666667,4,2,15,90,0,1
221084,-66.6666666666667,4,2,3,90,0,1
221261,-66.6666666666667,4,2,15,90,0,1
221437,-66.6666666666667,4,2,12,90,0,1
221613,-66.6666666666667,4,2,16,90,0,1
221790,-66.6666666666667,4,2,12,90,0,1
221967,-66.6666666666667,4,2,17,90,0,1
222144,-66.6666666666667,4,2,12,90,0,1
222320,-66.6666666666667,4,2,15,90,0,1
222496,-66.6666666666667,4,2,3,90,0,1
222673,-66.6666666666667,4,2,18,90,0,1
222849,-66.6666666666667,4,2,12,90,0,1
223026,-111.111111111111,4,2,11,90,0,0
223114,-111.111111111111,4,2,3,90,0,0
223202,-111.111111111111,4,2,1,90,0,0
223291,-111.111111111111,4,2,2,90,0,0
223379,-66.6666666666667,4,2,19,90,0,1
223555,-66.6666666666667,4,2,5,90,0,1
223732,-66.6666666666667,4,2,20,90,0,1
223908,-66.6666666666667,4,2,15,90,0,1
224084,-66.6666666666667,4,2,20,90,0,1
224261,-66.6666666666667,4,2,16,90,0,1
224438,-66.6666666666667,4,2,21,90,0,1
224614,-66.6666666666667,4,2,17,90,0,1
224702,-66.6666666666667,4,2,18,90,0,1
224791,-66.6666666666667,4,2,22,90,0,1
224967,-66.6666666666667,4,2,16,90,0,1
225144,-66.6666666666667,4,2,20,90,0,1
225320,-66.6666666666667,4,2,15,90,0,1
225497,-66.6666666666667,4,2,20,90,0,1
225850,-66.6666666666667,4,2,13,90,0,1
225938,-66.6666666666667,4,2,5,90,0,1
226026,-66.6666666666667,4,2,14,90,0,1
226114,-66.6666666666667,4,2,23,90,0,1
226202,-66.6666666666667,4,2,23,90,0,1
226378,-66.6666666666667,4,2,19,90,0,1
226555,-66.6666666666667,4,2,24,90,0,1
226731,-66.6666666666667,4,2,21,90,0,1
226907,-66.6666666666667,4,2,25,90,0,1
227085,-66.6666666666667,4,2,21,90,0,1
227261,-66.6666666666667,4,2,15,90,0,1
227437,-66.6666666666667,4,2,22,90,0,1
227614,-66.6666666666667,4,2,26,90,0,1
227790,-66.6666666666667,4,2,22,90,0,1
227967,-66.6666666666667,4,2,15,90,0,1
228143,-66.6666666666667,4,2,22,90,0,1
228320,-66.6666666666667,4,2,20,90,0,1
228496,-66.6666666666667,4,2,22,90,0,1
228673,-111.111111111111,4,2,15,90,0,0
228761,-111.111111111111,4,2,3,90,0,0
228850,-111.111111111111,4,2,22,90,0,0
228938,-111.111111111111,4,2,2,90,0,0
229026,-66.6666666666667,4,2,27,90,0,1
229379,-66.6666666666667,4,2,28,90,0,1
229555,-66.6666666666667,4,2,20,90,0,1
229732,-66.6666666666667,4,2,29,90,0,1
229908,-66.6666666666667,4,2,24,90,0,1
230085,-66.6666666666667,4,2,16,90,0,1
230350,-66.6666666666667,4,2,2,90,0,1
230438,-66.6666666666667,4,2,30,90,0,1
230614,-66.6666666666667,4,2,23,90,0,1
230791,-66.6666666666667,4,2,15,90,0,1
230879,-66.6666666666667,4,2,3,90,0,1
230967,-66.6666666666667,4,2,25,90,0,1
231055,-66.6666666666667,4,2,2,90,0,1
231144,-66.6666666666667,4,2,31,90,0,1
231320,-66.6666666666667,4,2,26,90,0,1
231497,-66.6666666666667,4,2,32,90,0,1
231673,-66.6666666666667,4,2,16,90,0,1
231850,-66.6666666666667,4,2,33,90,0,1
232026,-66.6666666666667,4,2,30,90,0,1
232202,-66.6666666666667,4,2,34,90,0,1
232379,-66.6666666666667,4,2,27,90,0,1
232555,-66.6666666666667,4,2,15,90,0,1
232732,-66.6666666666667,4,2,28,90,0,1
232908,-66.6666666666667,4,2,35,90,0,1
233084,-66.6666666666667,4,2,12,90,0,1
233172,-66.6666666666667,4,2,24,90,0,1
233260,-66.6666666666667,4,2,36,90,0,1
233350,-66.6666666666667,4,2,29,90,0,1
233438,-66.6666666666667,4,2,31,90,0,1
233526,-66.6666666666667,4,2,32,90,0,1
233614,-66.6666666666667,4,2,37,90,0,1
233702,-66.6666666666667,4,2,34,90,0,1
233791,-66.6666666666667,4,2,35,90,0,1
233879,-66.6666666666667,4,2,36,90,0,1
233967,-66.6666666666667,4,2,38,90,0,1
234055,-66.6666666666667,4,2,3,90,0,1
234144,-66.6666666666667,4,2,12,90,0,1
234232,-66.6666666666667,4,2,3,90,0,1
234320,-66.6666666666667,4,2,17,90,0,1
234408,-66.6666666666667,4,2,24,90,0,1
234497,-66.6666666666667,4,2,28,90,0,1
234585,-66.6666666666667,4,2,23,90,0,1
234673,-55.5555555555556,4,2,39,90,0,1
234938,-55.5555555555556,4,2,5,5,0,1
235026,-66.6666666666667,4,2,20,90,0,1
235202,-66.6666666666667,4,2,15,90,0,1
235379,-66.6666666666667,4,2,20,90,0,1
235555,-66.6666666666667,4,2,16,90,0,1
235732,-66.6666666666667,4,2,21,90,0,1
235908,-66.6666666666667,4,2,37,90,0,1
235996,-66.6666666666667,4,2,3,90,0,1
236085,-66.6666666666667,4,2,40,90,0,1
236173,-66.6666666666667,4,2,24,90,0,1
236261,-66.6666666666667,4,2,38,90,0,1
236350,-66.6666666666667,4,2,3,90,0,1
236438,-66.6666666666667,4,2,41,90,0,1
236526,-66.6666666666667,4,2,3,90,0,1
236614,-66.6666666666667,4,2,40,90,0,1
236702,-66.6666666666667,4,2,41,90,0,1
236791,-66.6666666666667,4,2,42,90,0,1
236967,-66.6666666666667,4,2,37,90,0,1
237055,-66.6666666666667,4,2,3,90,0,1
237144,-66.6666666666667,4,2,33,90,0,1
237232,-66.6666666666667,4,2,18,90,0,1
237320,-66.6666666666667,4,2,39,90,0,1
237408,-66.6666666666667,4,2,42,90,0,1
237497,-66.6666666666667,4,2,43,90,0,1
237673,-66.6666666666667,4,2,19,90,0,1
237850,-66.6666666666667,4,2,44,90,0,1
238026,-66.6666666666667,4,2,21,90,0,1
238202,-66.6666666666667,4,2,45,90,0,1
238378,-66.6666666666667,4,2,21,90,0,1
238555,-66.6666666666667,4,2,46,90,0,1
238731,-66.6666666666667,4,2,22,90,0,1
238908,-66.6666666666667,4,2,47,90,0,1
239085,-66.6666666666667,4,2,22,90,0,1
239261,-66.6666666666667,4,2,48,90,0,1
239438,-66.6666666666667,4,2,22,90,0,1
239526,-66.6666666666667,4,2,5,90,0,1
239614,-83.3333333333333,4,2,43,80,0,0
239702,-83.3333333333333,4,2,2,80,0,0
239791,-83.3333333333333,4,2,9,80,0,0
239879,-83.3333333333333,4,2,10,80,0,0
239967,-83.3333333333333,4,2,49,80,0,0
240055,-83.3333333333333,4,2,1,80,0,0
240144,-83.3333333333333,4,2,50,80,0,0
240320,-83.3333333333333,4,2,7,70,0,0
240408,-83.3333333333333,4,2,19,70,0,0
240497,-83.3333333333333,4,2,44,70,0,0
240585,-83.3333333333333,4,2,45,70,0,0
240673,-83.3333333333333,4,2,46,70,0,0
240761,-83.3333333333333,4,2,2,70,0,0
240850,-83.3333333333333,4,2,20,70,0,0
240938,-83.3333333333333,4,2,7,70,0,0
241026,-83.3333333333333,4,2,19,70,0,0
241114,-83.3333333333333,4,2,44,70,0,0
241202,-83.3333333333333,4,2,21,70,0,0
241291,-83.3333333333333,4,2,26,70,0,0
241379,-83.3333333333333,4,2,8,70,0,0
241467,-83.3333333333333,4,2,10,70,0,0
241555,-83.3333333333333,4,2,50,70,0,0
241644,-83.3333333333333,4,2,47,70,0,0
241732,-83.3333333333333,4,2,27,70,0,0
241820,-83.3333333333333,4,2,48,70,0,0
241908,-83.3333333333333,4,2,49,70,0,0
241997,-83.3333333333333,4,2,51,70,0,0
242085,-83.3333333333333,4,2,47,70,0,0
242173,-83.3333333333333,4,2,52,70,0,0
242261,-83.3333333333333,4,2,53,70,0,0
242350,-83.3333333333333,4,2,54,70,0,0
242438,-83.3333333333333,4,2,29,70,0,0
242526,-83.3333333333333,4,2,48,70,0,0
242614,-83.3333333333333,4,2,49,70,0,0
242702,-83.3333333333333,4,2,51,70,0,0
242791,-66.6666666666667,4,2,51,80,0,0
242879,-66.6666666666667,4,2,3,5,0,0
243055,-66.6666666666667,4,2,57,5,0,0
243144,-66.6666666666667,4,2,52,90,0,0
243320,-66.6666666666667,4,2,5,90,0,1
244026,-66.6666666666667,4,2,53,90,0,1
244202,-66.6666666666667,4,2,58,90,0,1
244379,-66.6666666666667,4,2,54,90,0,1
244555,-66.6666666666667,4,2,59,90,0,1
244731,-66.6666666666667,4,2,5,90,0,1
245437,-66.6666666666667,4,2,53,90,0,1
245614,-66.6666666666667,4,2,60,90,0,1
245791,-66.6666666666667,4,2,58,90,0,1
245967,-66.6666666666667,4,2,61,90,0,1
246143,-66.6666666666667,4,2,5,90,0,1
246497,-66.6666666666667,4,2,54,90,0,1
246585,-66.6666666666667,4,2,62,90,0,1
246673,-66.6666666666667,4,2,63,90,0,1
246849,-66.6666666666667,4,2,5,90,0,1
247379,-66.6666666666667,4,2,30,90,0,1
247467,-66.6666666666667,4,2,1,90,0,1
247555,-66.6666666666667,4,2,64,90,0,1
247644,-66.6666666666667,4,2,34,90,0,1
247908,-66.6666666666667,4,2,55,90,0,1
248085,-66.6666666666667,4,2,56,90,0,1
248173,-66.6666666666667,4,2,3,90,0,1
248261,-66.6666666666667,4,2,34,90,0,1
248350,-66.6666666666667,4,2,64,90,0,1
248615,-66.6666666666667,4,2,65,90,0,1
248791,-66.6666666666667,4,2,59,90,0,1
248967,-66.6666666666667,4,2,5,90,0,1
249673,-66.6666666666667,4,2,53,90,0,1
249850,-66.6666666666667,4,2,58,90,0,1
250026,-66.6666666666667,4,2,54,90,0,1
250202,-66.6666666666667,4,2,59,90,0,1
250378,-66.6666666666667,4,2,5,90,0,1
251084,-66.6666666666667,4,2,53,90,0,1
251261,-66.6666666666667,4,2,60,90,0,1
251438,-66.6666666666667,4,2,58,90,0,1
251614,-66.6666666666667,4,2,61,90,0,1
251790,-66.6666666666667,4,2,5,90,0,1
252144,-66.6666666666667,4,2,54,90,0,1
252232,-66.6666666666667,4,2,62,90,0,1
252320,-66.6666666666667,4,2,63,90,0,1
252497,-66.6666666666667,4,2,5,90,0,1
253026,-66.6666666666667,4,2,57,90,0,1
253114,-66.6666666666667,4,2,31,90,0,1
253202,-66.6666666666667,4,2,65,90,0,1
253291,-66.6666666666667,4,2,66,90,0,1
253379,-66.6666666666667,4,2,67,90,0,1
253467,-66.6666666666667,4,2,32,90,0,1
253555,-66.6666666666667,4,2,68,90,0,1
253644,-66.6666666666667,4,2,41,90,0,1
253732,-66.6666666666667,4,2,69,90,0,1
253820,-66.6666666666667,4,2,36,90,0,1
253908,-66.6666666666667,4,2,58,90,0,1
253997,-66.6666666666667,4,2,70,90,0,1
254085,-66.6666666666667,4,2,29,90,0,1
254173,-66.6666666666667,4,2,63,90,0,1
254261,-66.6666666666667,4,2,16,90,0,1
254350,-66.6666666666667,4,2,71,90,0,1
254438,-66.6666666666667,4,2,66,90,0,1
254614,-66.6666666666667,4,2,5,90,0,1
255673,-66.6666666666667,4,2,54,90,0,1
255761,-66.6666666666667,4,2,63,90,0,1
255850,-66.6666666666667,4,2,72,90,0,1
255938,-66.6666666666667,4,2,73,90,0,1
256026,-66.6666666666667,4,2,60,90,0,1
256114,-66.6666666666667,4,2,73,90,0,1
256202,-66.6666666666667,4,2,74,90,0,1
256291,-66.6666666666667,4,2,73,90,0,1
256379,-66.6666666666667,4,2,60,90,0,1
256467,-66.6666666666667,4,2,74,90,0,1
256555,-66.6666666666667,4,2,75,90,0,1
256644,-66.6666666666667,4,2,76,90,0,1
256732,-66.6666666666667,4,2,61,90,0,1
256820,-66.6666666666667,4,2,75,90,0,1
256908,-66.6666666666667,4,2,67,90,0,1
256997,-66.6666666666667,4,2,74,90,0,1
257085,-66.6666666666667,4,2,62,90,0,1
257173,-66.6666666666667,4,2,67,90,0,1
257261,-66.6666666666667,4,2,69,90,0,1
257350,-66.6666666666667,4,2,75,90,0,1
257438,-66.6666666666667,4,2,63,90,0,1
257526,-66.6666666666667,4,2,68,90,0,1
257614,-66.6666666666667,4,2,77,90,0,1
257702,-66.6666666666667,4,2,67,90,0,1
257879,-66.6666666666667,4,2,77,90,0,1
257967,-66.6666666666667,4,2,78,90,0,1
258055,-66.6666666666667,4,2,68,90,0,1
258232,-66.6666666666667,4,2,78,90,0,1
258320,-66.6666666666667,4,2,58,90,0,1
258408,-66.6666666666667,4,2,63,90,0,1
258497,-66.6666666666667,4,2,69,90,0,1
258585,-66.6666666666667,4,2,58,90,0,1
258673,-66.6666666666667,4,2,70,90,0,1
258761,-66.6666666666667,4,2,71,90,0,1
258850,-66.6666666666667,4,2,16,90,0,1
258938,-66.6666666666667,4,2,3,90,0,1
259026,-66.6666666666667,4,2,35,90,0,1
259114,-66.6666666666667,4,2,1,90,0,1
259202,-66.6666666666667,4,2,72,90,0,1
259291,-66.6666666666667,4,2,73,90,0,1
259379,-66.6666666666667,4,2,74,90,0,1
259467,-66.6666666666667,4,2,3,90,0,1
259555,-66.6666666666667,4,2,79,90,0,1
259644,-66.6666666666667,4,2,80,90,0,1
259732,-66.6666666666667,4,2,37,90,0,1
259820,-66.6666666666667,4,2,75,90,0,1
259908,-66.6666666666667,4,2,80,90,0,1
259996,-66.6666666666667,4,2,81,90,0,1
260085,-66.6666666666667,4,2,76,90,0,1
260261,-66.6666666666667,4,2,5,90,0,1
260791,-66.6666666666667,4,2,23,90,0,1
260967,-66.6666666666667,4,2,5,90,0,1
261497,-66.6666666666667,4,2,82,90,0,1
261673,-66.6666666666667,4,2,5,90,0,1
262026,-66.6666666666667,4,2,77,90,0,1
262202,-66.6666666666667,4,2,68,90,0,1
262378,-66.6666666666667,4,2,5,90,0,1
262908,-66.6666666666667,4,2,83,90,0,1
263084,-66.6666666666667,4,2,5,90,0,1
263437,-66.6666666666667,4,2,67,90,0,1
263614,-66.6666666666667,4,2,75,90,0,1
263790,-66.6666666666667,4,2,5,90,0,1
264320,-66.6666666666667,4,2,79,85,0,1
264408,-66.6666666666667,4,2,84,85,0,1
264497,-66.6666666666667,4,2,65,85,0,1
264585,-66.6666666666667,4,2,85,85,0,1
264673,-83.3333333333333,4,2,84,80,0,1
264761,-83.3333333333333,4,2,86,80,0,1
264850,-83.3333333333333,4,2,87,80,0,1
264938,-83.3333333333333,4,2,88,80,0,1
265026,-111.111111111111,4,2,85,75,0,1
265114,-111.111111111111,4,2,84,75,0,1
265202,-111.111111111111,4,2,65,75,0,1
265291,-111.111111111111,4,2,76,75,0,1
265379,-166.666666666667,4,2,84,70,0,1
265467,-166.666666666667,4,2,86,70,0,1
265555,-166.666666666667,4,2,89,70,0,1
265643,-166.666666666667,4,2,32,70,0,1
265732,-192.307692307692,4,2,80,80,0,1
266438,-192.307692307692,4,2,4,5,0,1
266526,-192.307692307692,4,2,4,80,0,1
267144,-192.307692307692,4,2,4,5,0,1
267232,-192.307692307692,4,2,4,80,0,1
267850,-192.307692307692,4,2,4,5,0,1
267938,-192.307692307692,4,2,4,80,0,1
268555,-192.307692307692,4,2,4,5,0,1
268644,-192.307692307692,4,2,4,80,0,1
269261,-192.307692307692,4,2,4,5,0,1
269350,-192.307692307692,4,2,4,80,0,1
269879,-192.307692307692,4,2,4,5,0,1
269967,-133.333333333333,4,2,2,60,0,0
270496,-133.333333333333,4,2,2,5,0,0
270673,-133.333333333333,4,2,2,60,0,0
270850,-117.647058823529,4,2,2,60,0,0
271114,-117.647058823529,4,2,2,5,0,0
271202,-117.647058823529,4,2,2,60,0,0
271379,-117.647058823529,4,2,3,50,0,0
271643,-117.647058823529,4,2,3,5,0,0
271732,-105.263157894737,4,2,1,50,0,0
271908,-105.263157894737,4,2,3,50,0,0
272085,-105.263157894737,4,2,1,50,0,0
272438,-105.263157894737,4,2,1,50,0,0
272614,-105.263157894737,4,2,3,50,0,0
272791,-117.64705882353,4,2,3,50,0,0
272967,-117.64705882353,4,2,3,50,0,0
273144,-117.64705882353,4,2,1,50,0,0
273320,-117.64705882353,4,2,5,50,0,0
273497,-117.64705882353,4,2,5,50,0,0
274378,-117.64705882353,4,2,5,50,0,0
274555,-117.64705882353,4,2,1,50,0,0
274732,-117.64705882353,4,2,3,50,0,0
274908,-117.64705882353,4,2,1,50,0,0
275084,-117.64705882353,4,2,1,50,0,0
275261,-117.64705882353,4,2,1,50,0,0
275438,-117.64705882353,4,2,3,50,0,0
275702,-117.64705882353,4,2,3,5,0,0
275791,-117.64705882353,4,2,3,50,0,0
276408,-117.64705882353,4,2,3,5,0,0
276497,-117.64705882353,4,2,3,50,0,0
277026,-117.64705882353,4,2,5,50,0,0
277290,-117.64705882353,4,2,5,5,0,0
277379,-117.64705882353,4,2,1,50,0,0
277555,-117.64705882353,4,2,3,50,0,0
277732,-117.64705882353,4,2,1,50,0,0
278085,-117.64705882353,4,2,1,50,0,0
278261,-117.64705882353,4,2,3,50,0,0
278791,-117.64705882353,4,2,1,50,0,0
279144,-117.64705882353,4,2,7,50,0,0
279850,-117.64705882353,4,2,7,50,0,0
280114,-133.333333333334,4,2,6,5,0,0
280202,-117.64705882353,4,2,1,50,0,0
280379,-117.64705882353,4,2,3,50,0,0
280555,-117.64705882353,4,2,1,50,0,0
280908,-117.64705882353,4,2,5,50,0,0
281173,-117.64705882353,4,2,5,5,0,0
281438,-117.64705882353,4,2,5,50,0,0
281878,-117.64705882353,4,2,5,5,0,0
281967,-117.64705882353,4,2,5,50,0,0
282584,-117.64705882353,4,2,5,5,0,0
282673,-117.64705882353,4,2,3,70,0,0
283026,-117.64705882353,4,2,5,70,0,0
284085,-117.64705882353,4,2,3,70,0,0
284438,-117.64705882353,4,2,5,70,0,0
285497,-117.64705882353,4,2,3,70,0,0
285850,-117.64705882353,4,2,5,70,0,0
286908,-117.64705882353,4,2,3,70,0,0
287261,-117.64705882353,4,2,5,70,0,0
288320,-117.64705882353,4,2,3,70,0,0
288673,-117.64705882353,4,2,5,70,0,0
289732,-117.64705882353,4,2,3,70,0,0
290085,-117.64705882353,4,2,5,70,0,0
290791,-117.64705882353,4,2,1,70,0,0
290879,-117.64705882353,4,2,3,70,0,0
291144,-117.64705882353,4,2,1,75,0,0
291232,-117.64705882353,4,2,5,75,0,0
291320,-117.64705882353,4,2,3,75,0,0
291408,-117.64705882353,4,2,5,75,0,0
291497,-117.64705882353,4,2,1,75,0,0
291585,-117.64705882353,4,2,2,75,0,0
291850,-117.64705882353,4,2,5,75,0,0
291938,-117.64705882353,4,2,3,75,0,0
292026,-117.64705882353,4,2,1,75,0,0
292114,-117.64705882353,4,2,3,75,0,0
292202,-117.64705882353,4,2,1,75,0,0
292379,-117.64705882353,4,2,3,75,0,0
292467,-117.64705882353,4,2,1,85,0,0
292555,-76.9230769230769,4,2,2,85,0,0
293967,-83.3333333333333,4,2,6,90,0,0
294144,-83.3333333333333,4,2,1,90,0,0
294320,-83.3333333333333,4,2,5,90,0,0
294761,-83.3333333333333,4,2,5,90,0,0
294850,-83.3333333333333,4,2,1,90,0,0
294938,-83.3333333333333,4,2,5,90,0,0
295026,-83.3333333333333,4,2,5,90,0,0
295379,-83.3333333333333,4,2,9,90,0,0
295467,-83.3333333333333,4,2,9,90,0,0
295555,-83.3333333333333,4,2,1,90,0,0
295644,-83.3333333333333,4,2,5,90,0,0
295732,-83.3333333333333,4,2,5,90,0,0
296173,-83.3333333333333,4,2,5,5,0,0
296261,-83.3333333333333,4,2,1,90,0,0
296350,-83.3333333333333,4,2,1,5,0,0
296438,-83.3333333333333,4,2,5,90,0,0
296526,-83.3333333333333,4,2,5,5,0,0
296614,-83.3333333333333,4,2,5,90,0,0
296702,-83.3333333333333,4,2,5,5,0,0
296791,-83.3333333333333,4,2,10,90,0,0
296967,-83.3333333333333,4,2,1,90,0,0
297144,-83.3333333333333,4,2,5,90,0,0
297585,-83.3333333333333,4,2,5,90,0,0
297673,-83.3333333333333,4,2,1,90,0,0
297761,-83.3333333333333,4,2,5,90,0,0
297850,-83.3333333333333,4,2,5,90,0,0
298202,-83.3333333333333,4,2,6,90,0,0
298291,-83.3333333333333,4,2,6,90,0,0
298379,-83.3333333333333,4,2,1,90,0,0
298467,-83.3333333333333,4,2,5,90,0,0
298555,-83.3333333333333,4,2,5,90,0,0
298644,-83.3333333333333,4,2,5,5,0,0
298732,-83.3333333333333,4,2,5,90,0,0
298820,-83.3333333333333,4,2,5,5,0,0
298908,-83.3333333333333,4,2,5,90,0,0
298997,-83.3333333333333,4,2,5,5,0,0
299085,-83.3333333333333,4,2,1,90,0,0
299173,-83.3333333333333,4,2,1,5,0,0
299261,-83.3333333333333,4,2,5,90,0,0
299350,-83.3333333333333,4,2,5,5,0,0
299438,-83.3333333333333,4,2,5,90,0,0
299526,-83.3333333333333,4,2,5,5,0,0
299614,-83.3333333333333,4,2,6,90,0,0
299791,-83.3333333333333,4,2,1,90,0,0
299967,-83.3333333333333,4,2,5,90,0,0
300408,-83.3333333333333,4,2,5,90,0,0
300497,-83.3333333333333,4,2,1,90,0,0
300585,-83.3333333333333,4,2,5,90,0,0
300673,-83.3333333333333,4,2,5,90,0,0
301026,-76.9230769230769,4,2,9,90,0,0
301290,-76.9230769230769,4,2,1,5,0,0
301379,-83.3333333333333,4,2,5,90,0,0
301467,-83.3333333333333,4,2,5,5,0,0
301555,-83.3333333333333,4,2,5,90,0,0
301644,-83.3333333333333,4,2,5,5,0,0
301732,-83.3333333333333,4,2,5,90,0,0
301820,-83.3333333333333,4,2,5,5,0,0
301908,-83.3333333333333,4,2,1,90,0,0
301997,-83.3333333333333,4,2,1,5,0,0
302085,-83.3333333333333,4,2,5,90,0,0
302173,-83.3333333333333,4,2,5,5,0,0
302261,-83.3333333333333,4,2,5,90,0,0
302350,-83.3333333333333,4,2,5,5,0,0
302438,-83.3333333333333,4,2,1,80,0,0
302526,-83.3333333333333,4,2,10,80,0,0
302614,-83.3333333333333,4,2,9,80,0,0
302702,-83.3333333333333,4,2,2,80,0,0
302791,-83.3333333333333,4,2,1,80,0,0
302879,-83.3333333333333,4,2,5,80,0,0
302967,-83.3333333333333,4,2,1,80,0,0
303055,-83.3333333333333,4,2,2,80,0,0
303144,-83.3333333333333,4,2,2,85,0,0
303232,-83.3333333333333,4,2,3,85,0,0
303320,-83.3333333333333,4,2,1,85,0,0
303408,-83.3333333333333,4,2,5,85,0,0
303497,-83.3333333333333,4,2,2,85,0,0
303585,-83.3333333333333,4,2,7,85,0,0
303673,-83.3333333333333,4,2,3,85,0,0
303761,-83.3333333333333,4,2,1,85,0,0
303850,-83.3333333333333,4,2,5,90,0,0
303938,-83.3333333333333,4,2,2,90,0,0
304026,-83.3333333333333,4,2,7,90,0,0
304114,-83.3333333333333,4,2,5,90,0,0
304202,-83.3333333333333,4,2,3,90,0,0
304291,-83.3333333333333,4,2,1,90,0,0
304467,-83.3333333333333,4,2,3,90,0,0
304555,-83.3333333333333,4,2,2,90,0,0
304644,-83.3333333333333,4,2,1,80,0,0
304732,-83.3333333333333,4,2,8,80,0,0
304820,-83.3333333333333,4,2,5,80,0,0
304908,-83.3333333333333,4,2,3,80,0,0
304997,-83.3333333333333,4,2,1,80,0,0
305085,-83.3333333333333,4,2,2,80,0,0
305173,-83.3333333333333,4,2,3,80,0,0
305261,-100,4,2,9,90,0,1
305438,-100,4,2,6,90,0,1
308085,-100,4,2,9,90,0,1
308261,-100,4,2,6,90,0,1
310908,-100,4,2,9,90,0,1
311085,-100,4,2,6,90,0,1
313732,-100,4,2,9,90,0,1
313908,-100,4,2,6,90,0,1
315850,-100,4,2,1,90,0,1
315938,-100,4,2,3,90,0,1
316026,-100,4,2,1,90,0,1
316114,-100,4,2,2,90,0,1
316202,-100,4,2,1,90,0,1
316291,-100,4,2,3,90,0,1
316379,-100,4,2,5,90,0,1
316467,-100,4,2,7,90,0,1
316555,-90.9090909090909,4,2,6,100,0,1
316732,-90.9090909090909,4,2,5,100,0,1
316908,-90.9090909090909,4,2,10,100,0,1
317085,-90.9090909090909,4,2,5,100,0,1
317261,-90.9090909090909,4,2,10,100,0,1
317438,-90.9090909090909,4,2,5,100,0,1
317614,-90.9090909090909,4,2,10,100,0,1
317791,-90.9090909090909,4,2,5,100,0,1
317967,-90.9090909090909,4,2,6,100,0,1
318144,-90.9090909090909,4,2,5,100,0,1
318320,-90.9090909090909,4,2,10,100,0,1
318497,-90.9090909090909,4,2,5,100,0,1
318673,-90.9090909090909,4,2,10,100,0,1
318850,-90.9090909090909,4,2,5,100,0,1
319026,-90.9090909090909,4,2,10,100,0,1
319202,-90.9090909090909,4,2,5,100,0,1
319379,-90.9090909090909,4,2,6,100,0,1
319555,-90.9090909090909,4,2,5,100,0,1
319732,-90.9090909090909,4,2,10,100,0,1
319908,-90.9090909090909,4,2,5,100,0,1
320085,-90.9090909090909,4,2,10,100,0,1
320261,-90.9090909090909,4,2,5,100,0,1
320438,-90.9090909090909,4,2,10,100,0,1
320614,-90.9090909090909,4,2,5,100,0,1
320791,-90.9090909090909,4,2,6,100,0,1
320967,-90.9090909090909,4,2,5,100,0,1
321144,-90.9090909090909,4,2,10,100,0,1
321320,-90.9090909090909,4,2,5,100,0,1
321497,-90.9090909090909,4,2,10,100,0,1
321673,-90.9090909090909,4,2,5,100,0,1
321850,-90.9090909090909,4,2,10,100,0,1
322026,-90.9090909090909,4,2,5,100,0,1
322202,-90.9090909090909,4,2,6,100,0,1
322379,-90.9090909090909,4,2,5,100,0,1
322555,-90.9090909090909,4,2,10,100,0,1
322732,-90.9090909090909,4,2,5,100,0,1
322908,-90.9090909090909,4,2,10,100,0,1
323085,-90.9090909090909,4,2,5,100,0,1
323261,-90.9090909090909,4,2,10,100,0,1
323438,-90.9090909090909,4,2,5,100,0,1
323614,-90.9090909090909,4,2,6,100,0,1
323791,-90.9090909090909,4,2,5,100,0,1
323967,-90.9090909090909,4,2,10,100,0,1
324144,-90.9090909090909,4,2,5,100,0,1
324320,-90.9090909090909,4,2,10,100,0,1
324497,-90.9090909090909,4,2,5,100,0,1
324673,-90.9090909090909,4,2,10,100,0,1
324850,-90.9090909090909,4,2,5,100,0,1
325026,-90.9090909090909,4,2,6,95,0,1
325202,-90.9090909090909,4,2,5,95,0,1
325379,-90.9090909090909,4,2,10,95,0,1
325555,-90.9090909090909,4,2,5,95,0,1
325732,-90.9090909090909,4,2,10,95,0,1
325908,-90.9090909090909,4,2,5,95,0,1
326085,-90.9090909090909,4,2,10,95,0,1
326261,-90.9090909090909,4,2,5,95,0,1
326438,-100,4,2,5,85,0,1
326526,-100,4,2,3,85,0,0
326614,-100,4,2,1,85,0,0
326702,-100,4,2,2,85,0,0
326791,-100,4,2,5,85,0,1
326879,-100,4,2,3,85,0,0
326967,-100,4,2,1,85,0,0
327055,-100,4,2,23,85,0,0
327144,-100,4,2,23,90,0,1
327408,-100,4,2,23,90,0,0
327497,-100,4,2,23,90,0,1
327761,-100,4,2,23,90,0,0
327850,-100,4,2,23,85,0,0
328026,-100,4,2,3,85,0,0
332085,-100,4,2,5,85,0,0
332261,-100,4,2,3,85,0,0
332791,-100,4,2,3,90,0,0
333497,-100,4,2,5,90,0,0
333673,-100,4,2,3,90,0,0
339144,-100,4,2,5,90,0,0
339320,-100,4,2,3,90,0,0
344791,-100,4,2,5,90,0,0
344967,-100,4,2,3,90,0,0
348850,-83.3333333333333,4,2,3,90,0,0
349026,-100,4,2,1,90,0,0
349114,-100,4,2,1,5,0,0
349202,-166.666666666667,4,2,100,75,0,0
350438,-100,4,2,2,85,0,0
350526,-100,4,2,2,85,0,0
350614,-100,4,2,1,85,0,0
350702,-100,4,2,1,85,0,0
350791,-100,4,2,3,85,0,0
350879,-100,4,2,3,85,0,0
350967,-100,4,2,7,85,0,0
351055,-100,4,2,6,85,0,0
351144,-100,4,2,5,85,0,0
352555,-76.9230769230769,4,1,100,95,0,0
352644,-66.6666666666667,4,2,5,5,0,0

[Colours]
Combo1 : 255,102,70
Combo2 : 126,255,108
Combo3 : 209,255,70
Combo4 : 92,235,206
Combo5 : 174,181,236

[HitObjects]
256,192,53101,12,0,54490,0:0:0:0:
27,17,54690,5,2,0:0:0:0:
27,17,55042,2,0,P|20:42|17:72,4,42.5
220,156,56807,6,0,P|151:126|108:88,1,127.5,2|0,0:0|0:0,0:0:0:0:
86,91,58219,2,0,P|70:63|65:34,1,51
37,36,58925,6,0,P|37:25|41:15,1,17
20,6,59190,1,0,0:0:0:0:
20,6,59278,2,0,P|13:31|10:61,4,42.5
175,66,60337,6,0,P|193:72|179:53,1,59.5,2|0,0:0|0:0,0:0:0:0:
89,46,61042,2,0,P|157:85|220:157,1,170
230,0,63143,6,0,P|203:45|135:38,1,127.5,12|0,3:3|0:0,0:0:0:0:
123,16,63495,1,0,2:0:0:0:
123,16,63672,1,0,2:0:0:0:
31,106,63848,2,0,P|78:95|121:130,1,85,0|0,2:0|2:0,2:0:0:0:
188,202,64201,2,0,B|181:263|181:263|178:268|178:268|173:328,1,127.5
187,359,64554,5,8,1:3:0:0:
95,231,64731,1,0,1:1:0:0:
273,212,64907,1,0,1:1:0:0:
191,348,65084,1,0,1:1:0:0:
287,208,65260,6,0,B|276:144|197:136|154:220|197:298|293:347|375:246,1,350.625013375283,12|0,3:3|0:0,0:0:0:0:
489,185,66319,2,0,P|425:204|397:183,1,95.6250036478044,0|0,1:1|0:0,0:0:0:0:
383,170,66672,2,0,L|390:46,1,95.6250036478044
409,52,67025,1,0,0:0:0:0:
349,256,67378,6,0,P|299:213|235:238,1,127.5,12|0,3:3|0:0,0:0:0:0:
232,256,67731,1,0,0:0:0:0:
232,256,67907,1,0,0:0:0:0:
282,381,68084,2,0,P|299:346|286:299,1,85
155,267,68437,2,0,L|27:276,1,127.5
9,295,68790,5,0,3:3:0:0:
264,316,69142,1,0,3:3:0:0:
162,113,69495,6,0,B|142:82|84:77|84:77|123:85|158:123|156:177|156:177|185:129|221:111|279:123,1,350.625013375283,2|0,3:3|0:0,0:0:0:0:
280,106,70554,2,0,P|299:111|309:118,3,31.8750012159348,4|0|0|0,3:3|0:0|0:0|0:0,0:0:0:0:
208,50,70907,2,0,P|203:30|203:18,3,31.8750012159348
195,140,71260,2,0,P|180:154|169:159,3,31.8750012159348
286,33,71613,6,0,P|341:33|363:62,1,85,12|0,3:3|0:0,0:0:0:0:
368,82,71878,1,0,0:0:0:0:
368,82,71966,1,0,0:0:0:0:
309,182,72142,1,0,0:0:0:0:
273,112,72319,1,0,0:0:0:0:
462,113,72495,1,0,0:0:0:0:
426,183,72672,1,0,0:0:0:0:
372,101,72848,1,0,0:0:0:0:
372,101,72937,1,0,0:0:0:0:
372,101,73025,5,0,1:1:0:0:
464,248,73201,1,0,1:1:0:0:
288,254,73378,1,0,1:1:0:0:
373,108,73554,1,0,1:1:0:0:
386,325,73731,6,0,B|370:200|370:200|289:159|289:159|274:23,1,350.625013375283,12|0,3:3|0:0,0:0:0:0:
296,3,74790,2,0,P|314:6|343:26,3,31.8750012159348,0|0|0|0,1:1|0:0|0:0|0:0,0:0:0:0:
363,112,75142,2,0,P|356:93|359:58,3,31.8750012159348
424,0,75495,2,0,P|411:14|379:29,3,31.8750012159348
230,90,75848,6,0,P|272:106|288:149,1,85,12|0,3:3|0:0,0:0:0:0:
273,165,76113,1,0,0:0:0:0:
273,165,76201,1,0,0:0:0:0:
355,80,76378,1,0,0:0:0:0:
463,173,76554,6,0,L|367:164,1,95.6250036478044,0|0,1:1|0:0,0:0:0:0:
226,231,76907,2,0,B|210:249|210:249|329:239,1,127.5,0|0,1:1|0:0,0:0:0:0:
337,254,77260,1,0,1:1:0:0:
158,87,77613,5,0,1:1:0:0:
214,26,77790,1,0,1:1:0:0:
24,77,77966,2,0,B|86:41|172:119|123:110|177:184|279:147,1,280.49999143982,4|0,3:3|0:0,0:0:0:0:
353,81,79025,2,0,B|345:206|345:206|351:212|351:212|341:375,1,280.49999143982,4|0,3:3|0:0,0:0:0:0:
324,381,80096,6,0,P|308:353|283:338,1,42.5,4|0,3:3|0:0,0:0:0:0:
384,295,80448,2,0,P|395:277|413:265,1,42.5000016212464
308,222,80801,2,0,P|283:201|254:195,1,42.5000016212464
441,169,81154,1,12,3:3:0:0:
459,160,82203,5,12,3:3:0:0:
464,139,82291,1,0,3:3:0:0:
470,119,82379,1,0,3:3:0:0:
475,98,82467,1,0,3:3:0:0:
481,79,82555,5,10,3:3:0:0:
439,87,82643,1,0,3:3:0:0:
397,95,82731,1,0,3:3:0:0:
355,103,82819,1,0,3:3:0:0:
314,112,82908,6,0,L|254:105,3,42.5,10|0|0|0,3:3|3:3|3:3|3:3,0:0:0:0:
306,184,83261,2,0,L|246:177,3,42.5,10|0|0|0,3:3|3:3|3:3|3:3,0:0:0:0:
375,249,83614,5,12,3:3:0:0:
332,254,83702,1,0,3:3:0:0:
290,259,83790,1,0,3:3:0:0:
248,262,83878,1,0,3:3:0:0:
206,267,83967,5,10,3:3:0:0:
215,285,84055,1,0,3:3:0:0:
224,304,84143,1,0,3:3:0:0:
233,324,84231,1,0,3:3:0:0:
242,343,84320,5,10,3:3:0:0:
200,347,84408,1,0,3:3:0:0:
158,352,84496,1,0,3:3:0:0:
116,356,84584,1,0,3:3:0:0:
73,360,84673,6,0,L|84:302,3,42.5,10|0|0|0,3:3|3:3|3:3|3:3,0:0:0:0:
41,226,85026,5,12,3:3:0:0:
30,184,85114,1,0,3:3:0:0:
20,143,85202,1,0,3:3:0:0:
10,102,85290,1,0,3:3:0:0:
0,60,85378,5,10,3:3:0:0:
21,63,85467,1,0,3:3:0:0:
41,67,85555,1,0,3:3:0:0:
62,71,85643,1,0,3:3:0:0:
84,75,85732,6,0,L|75:27,3,42.5,10|0|0|0,3:3|3:3|3:3|3:3,0:0:0:0:
159,63,86085,2,0,L|150:15,3,42.5,10|0|0|0,3:3|3:3|3:3|3:3,0:0:0:0:
136,136,86438,5,12,3:3:0:0:
177,143,86526,1,0,3:3:0:0:
219,150,86614,1,0,3:3:0:0:
261,157,86702,1,0,3:3:0:0:
303,164,86791,5,10,3:3:0:0:
289,180,86879,1,0,3:3:0:0:
276,196,86967,1,0,3:3:0:0:
262,213,87055,1,0,3:3:0:0:
249,229,87144,5,10,3:3:0:0:
207,221,87232,1,0,3:3:0:0:
165,214,87320,1,0,3:3:0:0:
123,207,87408,1,0,3:3:0:0:
82,201,87497,6,0,L|90:248,3,42.5,10|0|0|0,3:3|3:3|3:3|3:3,0:0:0:0:
134,329,87850,5,12,3:3:0:0:
176,321,87938,1,0,3:3:0:0:
218,314,88026,1,0,3:3:0:0:
260,307,88114,1,0,3:3:0:0:
301,301,88203,5,10,3:3:0:0:
297,321,88291,1,0,3:3:0:0:
293,342,88379,1,0,3:3:0:0:
290,363,88467,1,0,3:3:0:0:
286,384,88555,6,0,L|333:376,3,42.5,10|0|0|0,3:3|3:3|3:3|3:3,0:0:0:0:
273,308,88908,2,0,L|320:300,3,42.5,10|0|0|0,3:3|3:3|3:3|3:3,0:0:0:0:
392,271,89261,5,12,3:3:0:0:
407,232,89350,1,0,3:3:0:0:
422,192,89438,1,0,3:3:0:0:
437,152,89526,1,0,3:3:0:0:
451,112,89614,5,10,3:3:0:0:
409,118,89702,1,0,3:3:0:0:
367,125,89790,1,0,3:3:0:0:
325,132,89878,1,0,3:3:0:0:
283,140,89966,5,4,1:3:0:0:
297,163,90055,1,0,1:1:0:0:
325,169,90144,2,0,P|352:152|359:129,1,42.5,0|0,1:1|1:1,0:0:0:0:
395,39,90320,5,8,1:1:0:0:
433,7,90408,1,0,1:1:0:0:
481,13,90497,2,0,P|500:24|511:44,1,46.7500014266968,0|0,1:1|1:1,0:0:0:0:
493,201,90673,5,12,3:3:0:0:
449,218,90761,1,0,3:3:0:0:
406,201,90850,1,2,3:3:0:0:
388,157,90938,1,0,3:3:0:0:
406,114,91026,1,2,3:3:0:0:
445,100,91114,1,0,3:3:0:0:
475,108,91202,1,2,3:3:0:0:
493,123,91291,1,0,3:3:0:0:
498,147,91379,6,0,P|467:147|441:134,1,46.7500014266968,2|0,3:3|3:3,0:0:0:0:
287,212,91555,2,0,P|298:191|315:175,1,46.7500014266968,2|0,3:3|3:3,0:0:0:0:
490,152,91732,6,0,P|459:152|433:139,1,46.7500014266968,2|0,3:3|3:3,0:0:0:0:
330,18,91908,2,0,P|343:38|349:61,1,46.7500014266968,2|0,3:3|3:3,0:0:0:0:
388,196,92085,5,6,3:3:0:0:
387,213,92173,1,0,3:3:0:0:
386,230,92261,1,2,3:3:0:0:
384,248,92349,1,0,3:3:0:0:
383,264,92437,1,2,3:3:0:0:
381,281,92526,1,0,3:3:0:0:
380,298,92614,1,2,3:3:0:0:
378,316,92702,1,0,3:3:0:0:
377,333,92791,2,0,L|373:383,1,46.7500014266968,2|0,3:3|3:3,0:0:0:0:
307,273,92967,5,2,3:3:0:0:
304,247,93055,1,0,3:3:0:0:
313,217,93144,1,2,3:3:0:0:
344,192,93232,1,0,3:3:0:0:
389,187,93320,1,2,3:3:0:0:
434,208,93408,1,0,3:3:0:0:
457,255,93496,5,6,3:3:0:0:
424,289,93584,1,0,3:3:0:0:
378,291,93673,1,2,3:3:0:0:
343,259,93761,1,0,3:3:0:0:
322,220,93849,1,2,3:3:0:0:
283,202,93937,1,0,3:3:0:0:
251,208,94025,1,2,3:3:0:0:
234,223,94114,1,0,3:3:0:0:
229,248,94202,6,0,P|260:248|286:235,1,46.7500014266968,2|0,3:3|3:3,0:0:0:0:
122,182,94379,2,0,P|106:155|82:139,1,46.7500014266968,2|0,3:3|3:3,0:0:0:0:
223,256,94555,6,0,P|254:256|280:243,1,46.7500014266968,2|0,3:3|3:3,0:0:0:0:
120,299,94732,2,0,P|104:325|102:354,1,46.7500014266968,2|0,3:3|3:3,0:0:0:0:
203,174,94908,5,6,3:3:0:0:
213,159,94996,1,0,3:3:0:0:
220,143,95084,1,2,3:3:0:0:
224,126,95172,1,0,3:3:0:0:
225,109,95261,2,0,P|222:83|207:56,3,46.7500014266968,2|0|2|0,3:3|3:3|3:3|3:3,0:0:0:0:
334,59,95614,5,2,3:3:0:0:
320,67,95702,1,0,3:3:0:0:
310,80,95791,1,2,3:3:0:0:
303,105,95879,1,0,3:3:0:0:
304,134,95967,1,2,3:3:0:0:
321,161,96055,1,0,3:3:0:0:
363,181,96144,1,2,3:3:0:0:
412,170,96232,1,0,3:3:0:0:
435,118,96320,5,6,3:3:0:0:
402,84,96408,1,0,3:3:0:0:
356,82,96497,1,2,3:3:0:0:
321,114,96585,1,0,3:3:0:0:
300,153,96673,1,2,3:3:0:0:
261,171,96761,1,0,3:3:0:0:
229,165,96849,1,2,3:3:0:0:
212,150,96938,1,0,3:3:0:0:
207,125,97026,6,0,P|234:121|260:134,1,46.7500014266968,2|0,3:3|3:3,0:0:0:0:
339,270,97202,2,0,P|326:250|320:227,1,46.7500014266968,2|0,3:3|3:3,0:0:0:0:
213,116,97379,6,0,P|244:116|270:129,1,46.7500014266968,2|0,3:3|3:3,0:0:0:0:
399,92,97555,2,0,P|388:112|371:128,1,46.7500014266968,2|0,3:3|3:3,0:0:0:0:
249,201,97732,5,6,3:3:0:0:
206,197,97820,1,0,3:3:0:0:
163,194,97908,1,2,3:3:0:0:
120,191,97996,1,0,3:3:0:0:
77,188,98084,5,6,3:3:0:0:
101,176,98173,1,0,3:3:0:0:
132,174,98261,1,2,3:3:0:0:
159,188,98350,1,0,3:3:0:0:
170,217,98438,5,6,3:3:0:0:
128,243,98526,1,0,3:3:0:0:
73,238,98614,1,2,3:3:0:0:
38,202,98702,1,0,3:3:0:0:
34,149,98791,5,6,3:3:0:0:
58,161,98879,1,0,3:3:0:0:
69,184,98967,2,0,P|67:212|50:241,1,46.7500014266968,2|0,3:3|3:3,0:0:0:0:
5,357,99144,5,8,1:3:0:0:
51,351,99232,1,8,1:3:0:0:
97,345,99320,1,8,1:3:0:0:
144,340,99408,1,8,1:1:0:0:
191,333,99497,2,0,L|183:386,1,46.7500014266968,0|0,1:1|1:1,0:0:0:0:
259,263,99673,5,0,1:1:0:0:
259,263,99761,1,8,1:1:0:0:
259,263,99850,2,0,P|241:247|212:235,1,46.7500014266968,0|0,1:1|1:1,0:0:0:0:
203,152,100026,2,0,P|180:159|155:178,1,46.7500014266968,0|8,1:1|1:1,0:0:0:0:
272,83,100202,5,8,3:3:0:0:
273,71,100290,1,8,3:3:0:0:
275,59,100378,1,8,1:1:0:0:
277,48,100466,1,8,1:1:0:0:
278,36,100555,5,0,1:1:0:0:
237,12,100644,1,0,1:1:0:0:
191,20,100732,1,8,1:1:0:0:
161,56,100820,1,8,1:1:0:0:
161,103,100909,1,0,1:1:0:0:
190,138,100997,1,0,1:1:0:0:
225,147,101085,1,0,1:1:0:0:
254,141,101173,1,0,1:1:0:0:
268,127,101261,5,0,1:1:0:0:
309,103,101349,1,0,1:1:0:0:
355,111,101437,1,0,1:1:0:0:
385,147,101525,1,0,1:1:0:0:
385,194,101614,1,8,1:1:0:0:
356,229,101702,1,0,1:1:0:0:
321,238,101790,1,0,1:1:0:0:
289,229,101878,1,0,1:1:0:0:
277,207,101967,5,4,3:3:0:0:
199,282,102144,2,0,L|194:333,2,50.9999984436036,8|0|0,3:3|0:0|3:3,0:0:0:0:
138,198,102497,1,8,3:3:0:0:
281,340,102673,6,0,L|385:329,1,101.999996887207,0|8,3:3|3:3,0:0:0:0:
502,226,103026,2,0,L|451:221,2,50.9999984436036,0|0|8,3:3|3:3|3:3,0:0:0:0:
277,357,103379,2,0,L|381:346,1,101.999996887207,0|8,3:3|3:3,0:0:0:0:
505,238,103732,2,0,L|401:227,1,101.999996887207,0|8,3:3|3:3,0:0:0:0:
267,155,104085,5,0,3:3:0:0:
291,145,104173,1,0,3:3:0:0:
317,149,104261,1,8,3:3:0:0:
419,274,104438,1,0,3:3:0:0:
398,258,104526,1,0,3:3:0:0:
388,233,104614,1,8,3:3:0:0:
446,82,104791,5,0,3:3:0:0:
435,118,104879,1,0,3:0:0:0:
408,143,104967,1,8,3:3:0:0:
371,151,105055,1,0,3:0:0:0:
334,137,105144,2,0,P|314:117|307:85,1,50.9999984436036,0|0,3:3|0:0,0:0:0:0:
407,12,105320,6,0,P|384:30|371:61,1,50.9999984436036,8|0,3:3|0:0,0:0:0:0:
204,133,105497,2,0,P|251:160|276:204,1,101.999996887207,0|8,3:3|3:3,0:0:0:0:
310,324,105850,5,0,3:3:0:0:
310,324,105938,1,0,3:3:0:0:
310,324,106026,1,8,3:3:0:0:
461,238,106202,2,0,L|357:249,1,101.999996887207,0|8,3:3|3:3,0:0:0:0:
249,384,106555,2,0,L|145:373,1,101.999996887207,0|8,3:3|3:3,0:0:0:0:
50,255,106908,5,0,3:3:0:0:
24,251,106996,1,0,3:3:0:0:
0,262,107084,1,8,3:3:0:0:
132,231,107261,1,0,3:3:0:0:
148,211,107349,1,0,3:3:0:0:
150,184,107437,1,8,3:3:0:0:
113,310,107614,5,4,3:3:0:0:
127,345,107702,1,0,3:0:0:0:
155,370,107790,1,8,3:3:0:0:
192,379,107878,1,0,3:0:0:0:
229,372,107967,2,0,P|268:326|265:273,1,101.999996887207,0|8,3:3|3:3,0:0:0:0:
181,191,108320,6,0,L|191:292,1,101.999996887207,0|8,3:3|3:3,0:0:0:0:
287,138,108673,2,0,L|292:87,2,50.9999984436036,0|0|8,3:3|3:3|3:3,0:0:0:0:
186,298,109026,2,0,L|176:197,1,101.999996887207,0|8,3:3|3:3,0:0:0:0:
292,29,109379,2,0,L|281:130,1,101.999996887207,0|8,3:3|3:3,0:0:0:0:
117,66,109732,5,0,3:3:0:0:
140,53,109820,1,0,3:3:0:0:
168,57,109908,2,0,P|194:67|218:93,1,50.9999984436036,8|0,3:3|0:0,0:0:0:0:
342,190,110085,1,0,3:3:0:0:
365,203,110173,1,0,3:3:0:0:
393,199,110261,2,0,P|419:188|443:162,1,50.9999984436036,8|0,3:3|0:0,0:0:0:0:
304,29,110438,5,6,3:3:0:0:
241,226,110614,1,10,3:3:0:0:
406,86,110791,1,0,3:3:0:0:
406,86,110879,1,0,3:3:0:0:
405,87,110967,6,0,P|380:95|355:94,1,50.9999984436036,10|0,3:3|3:3,0:0:0:0:
183,11,111144,2,0,P|202:29|215:51,1,50.9999984436036,0|0,3:3|3:0,0:0:0:0:
230,238,111320,2,0,P|234:213|246:192,1,50.9999984436036,10|0,3:3|3:0,0:0:0:0:
360,168,111497,6,0,L|422:173,1,50.9999984436036,0|0,3:3|3:3,0:0:0:0:
180,119,111673,2,0,L|118:124,1,50.9999984436036,10|0,3:3|3:3,0:0:0:0:
344,2,111850,2,0,L|406:7,1,50.9999984436036,6|0,3:3|3:0,0:0:0:0:
180,127,112026,2,0,L|118:132,1,50.9999984436036,10|0,3:3|3:0,0:0:0:0:
266,215,112202,1,0,3:3:0:0:
269,240,112290,1,0,3:3:0:0:
272,265,112378,1,10,3:3:0:0:
275,290,112466,1,0,3:3:0:0:
278,314,112555,6,0,P|251:295|218:294,1,50.9999984436036,0|0,3:3|0:0,0:0:0:0:
274,326,112732,2,0,P|247:307|214:306,1,50.9999984436036,10|0,3:3|0:0,0:0:0:0:
139,229,112908,6,0,P|109:242|91:270,1,50.9999984436036,0|0,3:3|3:3,0:0:0:0:
147,241,113085,2,0,P|117:254|99:282,1,50.9999984436036,10|0,3:3|3:3,0:0:0:0:
0,384,113261,5,2,3:3:0:0:
201,302,113438,1,10,3:3:0:0:
18,234,113614,1,0,3:3:0:0:
18,234,113702,1,0,3:3:0:0:
18,234,113791,6,0,L|11:173,1,50.9999984436036,10|0,3:3|3:3,0:0:0:0:
126,334,113967,2,0,L|119:395,1,50.9999984436036,0|0,3:3|3:0,0:0:0:0:
228,224,114144,2,0,L|221:163,1,50.9999984436036,10|0,3:3|3:0,0:0:0:0:
10,306,114320,6,0,P|35:305|58:295,1,50.9999984436036,0|0,3:3|3:3,0:0:0:0:
224,326,114497,2,0,P|210:304|190:290,1,50.9999984436036,10|0,3:3|3:3,0:0:0:0:
135,131,114673,2,0,P|123:153|121:179,1,50.9999984436036,2|0,3:3|3:0,0:0:0:0:
109,374,114850,2,0,P|120:351|123:326,1,50.9999984436036,10|0,3:3|3:0,0:0:0:0:
42,178,115026,6,0,L|31:110,1,50.9999984436036,0|0,3:3|3:3,0:0:0:0:
209,178,115202,2,0,L|217:127,1,50.9999984436036,10|0,3:3|3:3,0:0:0:0:
115,76,115379,6,0,L|126:144,1,50.9999984436036,0|0,3:3|0:0,0:0:0:0:
119,64,115555,2,0,L|130:132,1,50.9999984436036,10|0,3:3|0:0,0:0:0:0:
115,302,115732,6,0,L|126:234,1,50.9999984436036,0|0,3:3|3:3,0:0:0:0:
126,310,115908,2,0,L|137:242,1,50.9999984436036,10|0,3:3|3:3,0:0:0:0:
249,118,116085,5,6,3:3:0:0:
57,186,116261,1,10,3:3:0:0:
252,271,116438,1,0,3:3:0:0:
252,271,116526,1,0,3:3:0:0:
252,271,116614,6,0,P|282:271|318:254,1,50.9999984436036,10|0,3:3|3:3,0:0:0:0:
157,147,116791,2,0,P|144:124|126:107,1,50.9999984436036,0|0,3:3|3:0,0:0:0:0:
97,289,116967,2,0,P|83:311|77:336,1,50.9999984436036,10|0,3:3|3:0,0:0:0:0:
265,181,117144,6,0,L|261:131,1,50.9999984436036,0|0,3:3|3:3,0:0:0:0:
177,333,117320,2,0,L|183:383,1,50.9999984436036,10|0,3:3|3:3,0:0:0:0:
91,191,117497,2,0,B|72:196|65:212|65:212|141:202|190:257,1,165.749992412568,6|0,3:3|0:0,0:0:0:0:
318,243,117850,6,0,P|288:256|270:284,1,50.9999984436036,0|0,3:3|3:3,0:0:0:0:
322,255,118026,2,0,P|292:268|274:296,1,50.9999984436036,10|0,3:3|3:3,0:0:0:0:
483,204,118202,6,0,P|488:179|481:154,1,50.9999984436036,0|0,3:3|0:0,0:0:0:0:
470,200,118378,2,0,P|475:175|468:150,1,50.9999984436036,10|0,3:3|0:0,0:0:0:0:
393,176,118555,6,0,P|373:159|349:153,1,50.9999984436036,0|0,3:3|3:3,0:0:0:0:
384,185,118731,2,0,P|364:168|340:162,1,50.9999984436036,10|0,3:3|3:3,0:0:0:0:
412,291,118908,5,4,3:3:0:0:
407,265,118996,1,0,3:3:0:0:
403,240,119084,1,8,3:3:0:0:
398,214,119172,1,0,3:3:0:0:
395,190,119260,1,0,3:3:0:0:
390,165,119349,1,0,3:3:0:0:
386,139,119437,1,8,3:3:0:0:
381,114,119525,1,0,3:3:0:0:
375,86,119614,6,0,L|384:28,3,50.9999984436036,0|0|8|0,3:3|3:3|3:3|3:3,0:0:0:0:
454,100,119967,2,0,L|463:42,3,50.9999984436036,0|0|8|0,3:3|3:3|3:3|3:3,0:0:0:0:
302,57,120320,5,4,3:3:0:0:
279,51,120408,1,0,3:3:0:0:
257,58,120496,1,8,3:3:0:0:
242,75,120584,1,0,3:3:0:0:
237,98,120672,1,0,3:3:0:0:
245,119,120761,1,0,3:3:0:0:
263,134,120849,1,8,3:3:0:0:
284,139,120937,1,0,3:3:0:0:
306,132,121026,6,0,P|314:120|322:90,3,38.2499988327027,0|0|0|0,1:1|1:1|1:1|1:1,0:0:0:0:
388,182,121379,2,0,P|386:164|378:148,3,25.4999992218018,0|0|0|8,1:1|1:1|1:1|1:1,0:0:0:0:
300,251,121732,5,6,3:3:0:0:
326,253,121820,1,0,3:3:0:0:
352,255,121908,1,8,3:3:0:0:
379,257,121996,1,0,3:3:0:0:
405,259,122084,1,2,3:3:0:0:
432,261,122173,1,0,3:3:0:0:
458,263,122261,1,8,3:3:0:0:
485,265,122349,1,0,3:3:0:0:
511,267,122437,5,2,3:3:0:0:
489,315,122525,1,0,3:3:0:0:
445,340,122613,1,8,3:3:0:0:
395,331,122702,1,0,3:3:0:0:
363,291,122790,1,2,3:3:0:0:
319,264,122878,1,0,3:3:0:0:
269,273,122967,1,8,3:3:0:0:
236,311,123055,1,0,3:3:0:0:
234,362,123144,5,6,3:3:0:0:
287,367,123232,1,0,3:3:0:0:
338,347,123320,1,8,3:3:0:0:
373,304,123409,1,0,3:3:0:0:
380,247,123497,1,2,3:3:0:0:
360,196,123585,1,0,3:3:0:0:
315,162,123673,1,8,3:3:0:0:
261,155,123762,1,0,3:3:0:0:
209,175,123850,5,2,3:3:0:0:
229,191,123938,1,0,3:3:0:0:
255,195,124026,2,0,P|279:188|296:167,1,42.5,8|0,3:3|3:3,0:0:0:0:
158,120,124202,5,2,3:3:0:0:
133,128,124290,1,0,3:3:0:0:
117,149,124378,2,0,P|109:173|119:198,1,42.5,8|0,3:3|3:3,0:0:0:0:
201,260,124555,5,6,3:3:0:0:
160,266,124643,1,0,3:3:0:0:
121,273,124731,1,8,3:3:0:0:
81,280,124819,1,0,3:3:0:0:
42,287,124908,2,0,L|-1:281,3,42.5,2|0|8|0,3:3|3:3|3:3|3:3,0:0:0:0:
137,317,125261,5,2,3:3:0:0:
141,296,125349,1,0,3:3:0:0:
145,275,125437,1,8,3:3:0:0:
150,254,125525,1,0,3:3:0:0:
154,233,125614,5,2,3:3:0:0:
195,239,125702,1,0,3:3:0:0:
234,246,125790,1,8,3:3:0:0:
274,253,125878,1,0,3:3:0:0:
313,260,125967,6,0,L|307:217,1,42.5,6|0,3:3|3:3,0:0:0:0:
430,137,126144,2,0,L|424:180,1,42.5,8|0,3:3|3:3,0:0:0:0:
341,48,126320,1,2,3:3:0:0:
319,11,126408,1,0,3:3:0:0:
272,1,126496,1,8,3:3:0:0:
232,27,126584,1,0,3:3:0:0:
223,74,126673,2,0,P|230:96|240:112,3,42.5,2|0|8|0,3:3|3:3|3:3|3:3,0:0:0:0:
356,139,127026,6,0,L|313:145,1,42.5,2|0,3:3|3:3,0:0:0:0:
120,181,127202,2,0,L|163:175,1,42.5,8|0,3:3|3:3,0:0:0:0:
290,213,127379,5,6,3:3:0:0:
316,257,127467,1,0,3:3:0:0:
307,307,127555,1,8,3:3:0:0:
268,340,127644,1,0,3:3:0:0:
217,340,127732,5,2,3:3:0:0:
208,302,127820,1,0,3:3:0:0:
228,267,127909,1,8,3:3:0:0:
264,254,127997,1,0,3:3:0:0:
306,264,128085,2,0,P|320:280|326:302,3,42.5,2|0|8|0,3:3|3:3|3:3|3:3,0:0:0:0:
397,204,128438,2,0,P|403:183|419:167,3,42.5,2|0|8|0,3:3|3:3|3:3|3:3,0:0:0:0:
282,121,128791,5,6,3:3:0:0:
316,162,128879,1,0,3:3:0:0:
371,172,128967,1,8,3:3:0:0:
419,144,129055,1,0,3:3:0:0:
438,92,129144,5,2,3:3:0:0:
419,117,129232,1,0,3:3:0:0:
391,132,129320,1,8,3:3:0:0:
359,132,129408,1,0,3:3:0:0:
329,121,129497,6,0,P|312:107|299:75,3,42.5,2|0|8|0,3:3|3:3|3:3|3:3,0:0:0:0:
228,0,129850,5,2,3:3:0:0:
228,0,129938,1,0,3:3:0:0:
228,0,130026,2,0,L|233:50,1,42.5,8|0,3:3|3:3,0:0:0:0:
241,179,130202,1,6,3:3:0:0:
252,186,130290,1,0,3:3:0:0:
262,193,130378,2,0,L|257:243,1,42.5,8|0,3:3|3:3,0:0:0:0:
303,341,130555,1,2,3:3:0:0:
303,341,130643,1,0,3:3:0:0:
303,341,130731,2,0,L|308:391,1,42.5,8|0,3:3|3:3,0:0:0:0:
193,357,130908,5,2,3:3:0:0:
224,353,130996,1,0,3:3:0:0:
255,348,131084,1,8,3:3:0:0:
287,343,131172,1,0,3:3:0:0:
317,335,131260,1,2,3:3:0:0:
348,326,131349,1,0,3:3:0:0:
378,316,131437,1,8,3:3:0:0:
407,303,131525,1,0,3:3:0:0:
436,289,131614,6,0,L|432:238,3,42.5,14|0|0|0,3:3|1:1|1:1|1:1,0:0:0:0:
507,241,131967,2,0,L|511:284,3,42.5,8|0|0|0,1:1|1:1|1:1|1:1,0:0:0:0:
356,239,132320,6,0,L|360:188,3,42.5,10|0|8|0,1:3|1:1|1:1|1:1,0:0:0:0:
284,191,132673,2,0,L|281:234,3,42.5,0|0|8|8,3:3|1:1|1:1|1:1,0:0:0:0:
200,331,133026,5,6,3:3:0:0:
160,370,133114,1,0,3:3:0:0:
107,384,133202,1,8,3:3:0:0:
54,370,133291,1,0,3:3:0:0:
15,331,133379,1,2,3:3:0:0:
0,277,133467,1,0,3:3:0:0:
15,224,133555,1,8,3:3:0:0:
54,185,133644,1,0,3:3:0:0:
107,170,133732,5,2,3:3:0:0:
111,195,133820,1,0,3:3:0:0:
115,219,133908,2,0,L|125:279,1,42.5,8|0,3:3|3:3,0:0:0:0:
224,291,134085,1,2,3:3:0:0:
220,316,134173,1,0,3:3:0:0:
216,340,134261,2,0,L|206:400,1,42.5,8|0,3:3|3:3,0:0:0:0:
146,265,134438,5,6,3:3:0:0:
171,218,134526,1,0,3:3:0:0:
224,199,134614,1,8,3:3:0:0:
274,219,134702,1,0,3:3:0:0:
302,265,134790,1,2,3:3:0:0:
343,302,134879,1,0,3:3:0:0:
399,302,134967,1,8,3:3:0:0:
441,267,135055,1,0,3:3:0:0:
449,212,135143,5,2,3:3:0:0:
423,209,135232,1,0,3:3:0:0:
399,218,135320,2,0,P|380:243|376:262,1,42.5,8|0,3:3|3:3,0:0:0:0:
291,358,135497,1,2,3:3:0:0:
306,336,135586,1,0,3:3:0:0:
310,311,135674,2,0,P|297:282|283:269,1,42.5,8|0,3:3|3:3,0:0:0:0:
225,173,135850,5,6,3:3:0:0:
260,196,135938,1,0,3:3:0:0:
301,196,136026,1,8,3:3:0:0:
337,174,136114,1,0,3:3:0:0:
356,137,136202,2,0,P|357:118|345:88,3,42.5,2|0|8|0,3:3|3:3|3:3|3:3,0:0:0:0:
453,65,136555,5,2,3:3:0:0:
471,61,136644,1,0,3:3:0:0:
490,50,136732,1,8,3:3:0:0:
504,37,136820,1,0,3:3:0:0:
512,24,136909,5,2,3:3:0:0:
504,63,136997,1,0,3:3:0:0:
474,93,137085,1,8,3:3:0:0:
432,103,137173,1,0,3:3:0:0:
394,91,137261,2,0,P|378:77|366:47,1,42.5,6|0,3:3|3:3,0:0:0:0:
451,187,137438,2,0,P|450:206|435:235,1,42.5,8|0,3:3|3:3,0:0:0:0:
396,75,137614,5,2,3:3:0:0:
369,42,137702,1,0,3:3:0:0:
329,31,137790,1,8,3:3:0:0:
290,45,137878,1,0,3:3:0:0:
267,83,137967,2,0,P|249:99|226:105,3,42.5,2|0|8|0,3:3|3:3|3:3|3:3,0:0:0:0:
162,156,138320,2,0,P|139:148|122:131,3,42.5,2|0|8|0,3:3|3:3|3:3|3:3,0:0:0:0:
100,19,138673,5,6,3:3:0:0:
57,61,138761,1,0,3:3:0:0:
42,117,138850,1,8,3:3:0:0:
57,176,138938,1,0,3:3:0:0:
99,218,139026,1,2,3:3:0:0:
157,233,139114,1,0,3:3:0:0:
214,218,139202,1,8,3:3:0:0:
257,176,139291,1,0,3:3:0:0:
272,118,139379,5,2,3:3:0:0:
305,68,139467,1,0,3:3:0:0:
360,43,139556,1,8,3:3:0:0:
419,49,139644,1,0,3:3:0:0:
467,82,139732,1,2,3:3:0:0:
492,137,139820,1,0,3:3:0:0:
488,196,139908,1,8,3:3:0:0:
454,245,139997,1,0,3:3:0:0:
399,269,140085,5,6,3:3:0:0:
368,226,140173,1,0,3:3:0:0:
370,178,140262,1,8,3:3:0:0:
404,145,140350,1,0,3:3:0:0:
449,139,140438,1,2,3:3:0:0:
492,117,140525,1,0,3:3:0:0:
511,74,140613,1,8,3:3:0:0:
496,29,140702,1,0,3:3:0:0:
455,0,140791,6,0,P|433:-2|413:2,3,42.5,2|0|8|0,3:3|3:3|3:3|3:3,0:0:0:0:
368,138,141144,2,0,P|380:119|387:97,3,42.5,2|0|8|0,3:3|3:3|3:3|3:3,0:0:0:0:
256,16,141497,5,6,3:3:0:0:
256,37,141585,1,0,3:3:0:0:
257,58,141673,1,8,3:3:0:0:
258,79,141761,1,0,3:3:0:0:
259,100,141849,1,2,3:3:0:0:
260,122,141938,1,0,3:3:0:0:
260,143,142026,1,8,3:3:0:0:
261,164,142114,1,0,3:3:0:0:
262,185,142202,1,2,3:3:0:0:
263,207,142291,1,0,3:3:0:0:
264,228,142379,1,8,3:3:0:0:
264,249,142467,1,0,3:3:0:0:
265,270,142555,1,2,3:3:0:0:
266,292,142644,1,0,3:3:0:0:
267,313,142732,1,8,3:3:0:0:
268,334,142820,1,0,3:3:0:0:
269,358,142908,6,0,L|313:363,3,42.5,6|0|0|0,3:3|3:3|3:3|3:3,0:0:0:0:
274,283,143261,2,0,L|318:288,3,42.5,0|0|0|0,3:3|3:3|3:3|3:3,0:0:0:0:
186,158,143614,5,8,3:3:0:0:
186,158,143702,1,0,3:3:0:0:
186,158,143791,2,0,P|175:180|171:215,1,42.5,0|0,3:3|3:3,0:0:0:0:
345,100,143967,1,8,3:3:0:0:
345,100,144055,1,8,3:3:0:0:
345,100,144144,2,0,P|340:75|323:45,1,42.5,8|8,3:3|3:3,0:0:0:0:
261,207,144320,5,4,3:3:0:0:
303,196,144408,1,0,3:3:0:0:
344,186,144496,1,10,3:3:0:0:
385,176,144584,1,0,3:3:0:0:
427,166,144672,5,0,3:3:0:0:
424,187,144761,1,0,3:3:0:0:
420,207,144849,1,10,3:3:0:0:
416,228,144937,1,0,3:3:0:0:
412,250,145026,6,0,L|363:259,3,42.5,0|0|10|0,3:3|3:3|3:3|3:3,0:0:0:0:
423,322,145379,2,0,L|374:331,3,42.5,0|0|10|0,3:3|3:3|3:3|3:3,0:0:0:0:
266,367,145732,5,4,3:3:0:0:
273,326,145820,1,0,3:3:0:0:
280,284,145908,1,10,3:3:0:0:
287,242,145996,1,0,3:3:0:0:
294,200,146085,5,0,3:3:0:0:
310,214,146173,1,0,3:3:0:0:
326,227,146261,1,10,3:3:0:0:
343,241,146349,1,0,3:3:0:0:
359,254,146438,5,0,3:3:0:0:
366,213,146526,1,0,3:3:0:0:
373,171,146614,1,10,3:3:0:0:
380,129,146702,1,0,3:3:0:0:
387,87,146791,6,0,L|396:38,3,42.5,0|0|10|0,3:3|3:3|3:3|3:3,0:0:0:0:
274,120,147144,5,4,3:3:0:0:
232,112,147232,1,0,3:3:0:0:
190,105,147320,1,10,3:3:0:0:
148,98,147408,1,0,3:3:0:0:
107,92,147497,5,0,3:3:0:0:
111,112,147585,1,0,3:3:0:0:
115,133,147673,1,10,3:3:0:0:
118,154,147761,1,0,3:3:0:0:
122,175,147849,6,0,L|75:167,3,42.5,0|0|10|0,3:3|3:3|3:3|3:3,0:0:0:0:
114,248,148202,2,0,L|67:240,3,42.5,0|0|10|0,3:3|3:3|3:3|3:3,0:0:0:0:
191,115,148555,5,4,3:3:0:0:
230,100,148644,1,0,3:3:0:0:
270,85,148732,1,10,3:3:0:0:
310,70,148820,1,0,3:3:0:0:
350,56,148908,5,0,3:3:0:0:
344,98,148996,1,0,3:3:0:0:
337,140,149084,1,10,3:3:0:0:
330,182,149172,1,0,3:3:0:0:
322,224,149260,5,0,3:3:0:0:
299,210,149349,1,0,3:3:0:0:
293,182,149438,2,0,P|310:155|333:148,1,42.5,10|0,3:3|3:3,0:0:0:0:
416,125,149614,5,0,3:3:0:0:
447,86,149702,1,0,3:3:0:0:
440,38,149791,2,0,P|428:19|408:8,1,46.7500014266968,10|0,3:3|3:3,0:0:0:0:
303,139,149967,5,6,3:3:0:0:
269,172,150055,1,0,3:3:0:0:
267,218,150144,1,10,3:3:0:0:
299,253,150232,1,0,3:3:0:0:
338,274,150320,1,2,3:3:0:0:
356,313,150408,1,0,3:3:0:0:
350,345,150496,1,10,3:3:0:0:
335,362,150585,1,0,3:3:0:0:
310,367,150673,6,0,P|310:336|323:310,1,46.7500014266968,2|0,3:3|3:3,0:0:0:0:
200,200,150850,2,0,P|220:210|236:227,1,46.7500014266968,10|0,3:3|3:3,0:0:0:0:
304,362,151026,6,0,P|304:331|317:305,1,46.7500014266968,2|0,3:3|3:3,0:0:0:0:
416,187,151202,2,0,P|396:200|373:206,1,46.7500014266968,10|0,3:3|3:3,0:0:0:0:
232,301,151379,5,6,3:3:0:0:
215,299,151467,1,0,3:3:0:0:
198,298,151555,1,10,3:3:0:0:
180,296,151643,1,0,3:3:0:0:
163,295,151732,2,0,L|113:291,3,46.7500014266968,2|0|10|0,3:3|3:3|3:3|3:3,0:0:0:0:
243,217,152085,5,2,3:3:0:0:
260,173,152173,1,0,3:3:0:0:
243,130,152262,1,10,3:3:0:0:
199,112,152350,1,0,3:3:0:0:
163,123,152438,1,2,3:3:0:0:
148,146,152526,1,0,3:3:0:0:
147,165,152614,2,0,P|154:191|174:200,1,46.7500014266968,10|0,3:3|3:3,0:0:0:0:
22,186,152791,5,4,1:3:0:0:
28,140,152879,1,0,1:1:0:0:
34,94,152967,1,0,1:1:0:0:
39,47,153055,1,0,1:1:0:0:
46,0,153144,2,0,L|-7:8,1,46.7500014266968,8|0,1:3|1:1,0:0:0:0:
128,88,153320,5,0,1:1:0:0:
128,88,153408,1,0,1:1:0:0:
128,88,153497,2,0,P|149:80|174:61,1,46.7500014266968,10|0,1:3|1:1,0:0:0:0:
251,91,153673,2,0,P|255:67|251:36,1,46.7500014266968,8|0,3:3|1:1,0:0:0:0:
229,197,153850,5,0,1:1:0:0:
230,209,153938,1,0,1:1:0:0:
232,221,154026,1,0,1:1:0:0:
234,232,154114,1,0,1:1:0:0:
235,244,154203,5,12,3:3:0:0:
186,272,154292,1,8,1:1:0:0:
132,262,154380,1,0,1:1:0:0:
97,220,154468,1,0,3:3:0:0:
97,165,154555,1,0,1:1:0:0:
131,123,154645,1,0,1:1:0:0:
172,113,154733,1,8,1:1:0:0:
206,120,154821,1,8,1:1:0:0:
223,136,154909,5,8,1:3:0:0:
271,165,154997,1,8,1:3:0:0:
325,155,155085,1,8,3:3:0:0:
361,113,155173,1,0,1:1:0:0:
361,57,155262,1,0,1:1:0:0:
326,16,155350,1,8,1:1:0:0:
285,5,155438,1,0,1:1:0:0:
247,16,155526,1,8,1:1:0:0:
233,42,155615,5,4,3:3:0:0:
340,85,155791,2,0,L|391:80,2,50.9999984436036,8|0|0,3:3|0:0|3:3,0:0:0:0:
240,48,156144,1,8,3:3:0:0:
318,165,156320,6,0,L|422:154,1,101.999996887207,0|8,3:3|3:3,0:0:0:0:
231,49,156673,2,0,L|180:44,2,50.9999984436036,0|0|8,3:3|3:3|3:3,0:0:0:0:
315,176,157026,2,0,L|419:165,1,101.999996887207,0|8,3:3|3:3,0:0:0:0:
233,60,157379,2,0,L|129:49,1,101.999996887207,0|8,3:3|3:3,0:0:0:0:
314,93,157732,5,0,3:3:0:0:
324,69,157820,1,0,3:3:0:0:
320,43,157908,1,8,3:3:0:0:
315,186,158085,1,0,3:3:0:0:
330,206,158173,1,0,3:3:0:0:
355,216,158261,1,8,3:3:0:0:
235,144,158438,6,0,P|183:139|134:176,1,101.999996887207,0|8,3:3|3:3,0:0:0:0:
135,190,158702,1,0,3:0:0:0:
135,190,158791,2,0,L|136:245,1,50.9999984436036,0|0,3:3|0:0,0:0:0:0:
108,357,158967,6,0,P|80:360|49:335,1,50.9999984436036,8|0,3:3|0:0,0:0:0:0:
239,238,159144,2,0,P|210:280|221:341,1,101.999996887207,0|8,3:3|3:3,0:0:0:0:
334,363,159497,1,0,3:3:0:0:
334,363,159585,1,0,3:3:0:0:
334,363,159673,1,8,3:3:0:0:
429,214,159850,6,0,L|418:110,1,101.999996887207,0|8,3:3|3:3,0:0:0:0:
352,268,160202,2,0,L|341:372,1,101.999996887207,0|8,3:3|3:3,0:0:0:0:
291,178,160555,5,0,3:3:0:0:
317,174,160643,1,0,3:3:0:0:
341,185,160731,1,8,3:3:0:0:
217,145,160908,1,0,3:3:0:0:
200,123,160996,1,0,3:3:0:0:
199,97,161084,1,8,3:3:0:0:
223,225,161261,5,4,3:3:0:0:
209,260,161349,1,0,3:0:0:0:
180,285,161437,1,8,3:3:0:0:
144,294,161525,1,0,3:0:0:0:
106,287,161614,2,0,P|67:241|70:188,1,101.999996887207,0|8,3:3|3:3,0:0:0:0:
208,98,161967,6,0,L|309:108,1,101.999996887207,0|8,3:3|3:3,0:0:0:0:
80,19,162320,2,0,L|29:24,2,50.9999984436036,0|0|8,3:3|3:3|3:3,0:0:0:0:
206,115,162673,2,0,L|307:125,1,101.999996887207,0|8,3:3|3:3,0:0:0:0:
512,13,163026,2,0,L|411:24,1,101.999996887207,0|8,3:3|3:3,0:0:0:0:
401,139,163379,5,0,3:3:0:0:
424,152,163467,1,0,3:3:0:0:
452,148,163555,2,0,P|478:138|502:112,1,50.9999984436036,8|0,3:3|0:0,0:0:0:0:
318,18,163732,5,0,3:3:0:0:
295,5,163820,1,0,3:3:0:0:
267,9,163908,2,0,P|241:19|217:45,1,50.9999984436036,8|8,3:3|3:3,0:0:0:0:
279,214,164085,5,6,3:3:0:0:
399,37,164261,1,10,3:3:0:0:
482,235,164438,1,0,3:3:0:0:
482,235,164526,1,0,3:3:0:0:
482,235,164614,6,0,L|420:240,1,50.9999984436036,10|0,3:3|3:3,0:0:0:0:
259,140,164791,2,0,L|321:145,1,50.9999984436036,0|0,3:3|3:0,0:0:0:0:
478,45,164967,2,0,L|416:50,1,50.9999984436036,10|0,3:3|3:0,0:0:0:0:
357,238,165144,6,0,P|361:212|372:192,1,50.9999984436036,0|0,3:3|3:3,0:0:0:0:
329,39,165320,2,0,P|348:55|361:77,1,50.9999984436036,10|0,3:3|3:3,0:0:0:0:
512,113,165497,2,0,P|488:123|462:122,1,50.9999984436036,6|0,3:3|3:0,0:0:0:0:
322,45,165673,2,0,P|341:61|354:83,1,50.9999984436036,10|0,3:3|3:0,0:0:0:0:
449,226,165850,1,0,3:3:0:0:
446,251,165938,1,0,3:3:0:0:
443,276,166026,1,10,3:3:0:0:
440,301,166114,1,0,3:3:0:0:
435,325,166202,6,0,P|408:306|375:305,1,50.9999984436036,0|0,3:3|0:0,0:0:0:0:
431,337,166379,2,0,P|404:318|371:317,1,50.9999984436036,10|0,3:3|0:0,0:0:0:0:
330,195,166555,6,0,P|326:227|341:257,1,50.9999984436036,0|0,3:3|3:3,0:0:0:0:
257,353,166732,2,0,P|287:340|305:312,1,50.9999984436036,10|0,3:3|3:3,0:0:0:0:
244,189,166908,5,2,3:3:0:0:
357,384,167085,1,10,3:3:0:0:
148,343,167261,1,0,3:3:0:0:
148,343,167350,1,0,3:3:0:0:
148,343,167438,6,0,L|153:281,1,50.9999984436036,10|0,3:3|3:3,0:0:0:0:
256,195,167614,2,0,L|251:144,1,50.9999984436036,0|0,3:3|3:0,0:0:0:0:
130,71,167791,2,0,L|135:9,1,50.9999984436036,10|0,3:3|3:0,0:0:0:0:
94,185,167967,6,0,P|118:191|143:186,1,50.9999984436036,0|0,3:3|3:3,0:0:0:0:
238,68,168144,2,0,P|231:43|214:24,1,50.9999984436036,10|0,3:3|3:3,0:0:0:0:
64,1,168320,2,0,P|46:18|37:42,1,50.9999984436036,2|0,3:3|3:0,0:0:0:0:
232,78,168497,2,0,P|225:53|208:34,1,50.9999984436036,10|0,3:3|3:0,0:0:0:0:
50,114,168673,6,0,L|118:103,1,50.9999984436036,0|0,3:3|3:3,0:0:0:0:
276,185,168850,2,0,L|208:174,1,50.9999984436036,10|0,3:3|3:3,0:0:0:0:
85,272,169026,2,0,L|153:261,1,50.9999984436036,0|0,3:3|0:0,0:0:0:0:
89,284,169202,2,0,L|157:273,1,50.9999984436036,10|0,3:3|0:0,0:0:0:0:
237,358,169379,2,0,L|169:347,1,50.9999984436036,0|0,3:3|3:3,0:0:0:0:
74,200,169555,2,0,L|142:189,1,50.9999984436036,10|0,3:3|3:3,0:0:0:0:
20,374,169732,5,6,3:3:0:0:
214,261,169908,1,10,3:3:0:0:
0,204,170085,1,0,3:3:0:0:
0,204,170173,1,0,3:3:0:0:
0,204,170261,6,0,P|4:230|15:250,1,50.9999984436036,10|0,3:3|3:3,0:0:0:0:
125,384,170438,2,0,P|145:367|157:348,1,50.9999984436036,0|0,3:3|3:0,0:0:0:0:
219,186,170614,2,0,P|194:176|171:175,1,50.9999984436036,10|0,3:3|3:0,0:0:0:0:
22,327,170791,6,0,L|73:322,1,50.9999984436036,0|0,3:3|3:3,0:0:0:0:
256,263,170967,2,0,L|205:258,1,50.9999984436036,10|0,3:3|3:3,0:0:0:0:
62,170,171144,2,0,L|11:175,1,50.9999984436036,6|0,3:3|3:0,0:0:0:0:
199,99,171320,2,0,L|250:104,1,50.9999984436036,10|0,3:3|3:0,0:0:0:0:
95,41,171497,6,0,P|108:11|136:-7,1,50.9999984436036,0|0,3:3|3:3,0:0:0:0:
101,51,171673,2,0,P|114:21|142:3,1,50.9999984436036,10|0,3:3|3:3,0:0:0:0:
63,185,171850,6,0,P|38:189|13:182,1,50.9999984436036,0|0,3:3|0:0,0:0:0:0:
58,195,172026,2,0,P|33:199|8:192,1,50.9999984436036,10|0,3:3|0:0,0:0:0:0:
32,108,172203,6,0,P|15:88|9:64,1,50.9999984436036,0|0,3:3|3:3,0:0:0:0:
43,107,172379,2,0,P|26:87|20:63,1,50.9999984436036,10|0,3:3|3:3,0:0:0:0:
168,85,172555,5,4,3:3:0:0:
189,81,172644,1,0,3:3:0:0:
214,92,172732,1,8,3:3:0:0:
231,109,172820,1,0,3:3:0:0:
239,134,172908,1,0,3:3:0:0:
238,158,172997,1,0,3:3:0:0:
225,183,173085,1,8,3:3:0:0:
206,198,173173,1,0,3:3:0:0:
183,203,173261,6,0,P|152:197|133:173,3,50.9999984436036,0|0|8|0,3:3|3:3|3:3|3:3,0:0:0:0:
277,254,173614,1,8,1:3:0:0:
277,254,173702,1,8,1:1:0:0:
277,254,173791,2,0,P|296:230|327:225,1,50.9999984436036,0|0,1:1|1:1,0:0:0:0:
188,338,173967,5,12,3:3:0:0:
190,307,174055,1,0,1:1:0:0:
193,277,174144,2,0,L|183:217,1,50.9999984436036,8|8,1:3|1:1,0:0:0:0:
124,159,174320,2,0,L|134:100,3,50.9999984436036,0|8|8|0,1:1|1:1|1:3|1:1,0:0:0:0:
265,131,174673,2,0,L|255:190,1,50.9999984436036,0|8,3:3|3:1,0:0:0:0:
212,52,174850,1,8,3:3:0:0:
255,18,174938,1,8,3:3:0:0:
308,13,175026,1,8,3:3:0:0:
361,32,175114,1,8,3:3:0:0:
395,74,175202,2,0,P|404:103|398:136,1,50.9999984436036,8|8,3:3|3:3,0:0:0:0:
497,19,175379,5,6,3:3:0:0:
498,45,175467,1,0,3:3:0:0:
500,71,175555,1,8,3:3:0:0:
502,98,175643,1,0,3:3:0:0:
504,124,175731,1,2,3:3:0:0:
506,151,175820,1,0,3:3:0:0:
508,177,175908,1,8,3:3:0:0:
510,204,175996,1,0,3:3:0:0:
512,230,176084,5,2,3:3:0:0:
475,193,176172,1,0,3:3:0:0:
426,180,176261,1,8,3:3:0:0:
377,193,176349,1,0,3:3:0:0:
341,230,176437,1,2,3:3:0:0:
328,279,176525,1,0,3:3:0:0:
341,328,176613,1,8,3:3:0:0:
377,364,176702,1,0,3:3:0:0:
426,377,176790,5,6,3:3:0:0:
442,319,176878,1,0,3:3:0:0:
417,264,176967,1,8,3:3:0:0:
364,238,177055,1,0,3:3:0:0:
306,253,177143,1,2,3:3:0:0:
246,246,177231,1,0,3:3:0:0:
205,203,177319,1,8,3:3:0:0:
201,143,177408,1,0,3:3:0:0:
235,95,177497,5,2,3:3:0:0:
251,115,177585,1,0,3:3:0:0:
255,141,177673,2,0,P|248:165|227:182,1,42.5,8|0,3:3|3:3,0:0:0:0:
166,63,177850,5,2,3:3:0:0:
175,39,177938,1,0,3:3:0:0:
195,22,178026,2,0,P|219:17|244:25,1,42.5,8|0,3:3|3:3,0:0:0:0:
332,134,178202,5,6,3:3:0:0:
338,175,178290,1,0,3:3:0:0:
345,214,178378,1,8,3:3:0:0:
352,254,178466,1,0,3:3:0:0:
358,293,178555,2,0,L|352:336,3,42.5,2|0|8|0,3:3|3:3|3:3|3:3,0:0:0:0:
426,206,178908,5,2,3:3:0:0:
430,185,178996,1,0,3:3:0:0:
434,164,179084,1,8,3:3:0:0:
439,143,179172,1,0,3:3:0:0:
443,122,179261,5,2,3:3:0:0:
402,128,179349,1,0,3:3:0:0:
363,135,179437,1,8,3:3:0:0:
323,142,179525,1,0,3:3:0:0:
284,149,179614,6,0,L|278:192,1,42.5,6|0,3:3|3:3,0:0:0:0:
228,42,179791,2,0,L|222:-1,1,42.5,8|0,3:3|3:3,0:0:0:0:
190,167,179967,1,2,3:3:0:0:
168,204,180055,1,0,3:3:0:0:
121,214,180143,1,8,3:3:0:0:
81,188,180231,1,0,3:3:0:0:
72,141,180320,2,0,P|79:119|89:103,3,42.5,2|0|8|0,3:3|3:3|3:3|3:3,0:0:0:0:
236,56,180673,6,0,L|193:50,1,42.5,2|0,3:3|3:3,0:0:0:0:
0,14,180849,2,0,L|43:20,1,42.5,8|0,3:3|3:3,0:0:0:0:
124,106,181026,5,6,3:3:0:0:
150,150,181114,1,0,3:3:0:0:
141,200,181202,1,8,3:3:0:0:
102,233,181291,1,0,3:3:0:0:
51,233,181379,5,2,3:3:0:0:
42,195,181467,1,0,3:3:0:0:
62,160,181556,1,8,3:3:0:0:
98,147,181644,1,0,3:3:0:0:
140,157,181732,2,0,P|154:173|160:195,3,42.5,2|0|8|0,3:3|3:3|3:3|3:3,0:0:0:0:
193,277,182085,2,0,P|186:297|170:313,3,42.5,2|0|8|0,3:3|3:3|3:3|3:3,0:0:0:0:
37,375,182438,5,6,3:3:0:0:
9,327,182526,1,0,3:3:0:0:
18,272,182614,1,8,3:3:0:0:
61,237,182702,1,0,3:3:0:0:
116,237,182791,5,2,3:3:0:0:
109,267,182879,1,0,3:3:0:0:
89,292,182967,1,8,3:3:0:0:
61,305,183055,1,0,3:3:0:0:
29,303,183144,2,0,P|6:290|-2:264,1,42.5,2|0,3:3|3:3,0:0:0:0:
132,234,183320,2,0,P|132:259|114:280,1,42.5,8|0,3:3|3:3,0:0:0:0:
50,150,183497,5,2,3:3:0:0:
50,150,183585,1,0,3:3:0:0:
50,150,183673,2,0,L|100:155,1,42.5,8|0,3:3|3:3,0:0:0:0:
229,159,183849,1,6,3:3:0:0:
236,172,183937,1,0,3:3:0:0:
243,184,184025,2,0,L|293:179,1,42.5,8|0,3:3|3:3,0:0:0:0:
391,225,184202,1,2,3:3:0:0:
391,225,184290,1,0,3:3:0:0:
391,225,184378,2,0,L|441:230,1,42.5,8|0,3:3|3:3,0:0:0:0:
336,106,184555,5,2,3:3:0:0:
349,135,184643,1,0,3:3:0:0:
359,165,184731,1,8,3:3:0:0:
365,196,184819,1,0,3:3:0:0:
370,228,184907,1,2,3:3:0:0:
371,260,184996,1,0,3:3:0:0:
369,292,185084,1,8,3:3:0:0:
365,323,185172,1,0,3:3:0:0:
358,354,185261,6,0,L|307:350,3,42.5,14|8|8|0,3:3|1:1|1:3|1:1,0:0:0:0:
249,381,185614,2,0,L|198:385,3,42.5,0|8|8|0,1:1|1:1|1:3|1:1,0:0:0:0:
355,265,185967,6,0,L|406:261,3,42.5,8|0|0|0,1:1|1:1|1:1|1:1,0:0:0:0:
461,306,186320,2,0,L|512:310,3,42.5,8|0|0|0,1:1|1:1|1:1|1:1,0:0:0:0:
419,153,186673,5,6,3:3:0:0:
382,112,186761,1,0,3:3:0:0:
327,102,186850,1,8,3:3:0:0:
280,132,186938,1,0,3:3:0:0:
261,183,187026,1,2,3:3:0:0:
225,224,187114,1,0,3:3:0:0:
171,236,187202,1,8,3:3:0:0:
123,208,187291,1,0,3:3:0:0:
102,157,187379,5,2,3:3:0:0:
127,161,187467,1,0,3:3:0:0:
151,165,187555,2,0,L|211:175,1,42.5,8|0,3:3|3:3,0:0:0:0:
97,70,187732,1,2,3:3:0:0:
72,74,187820,1,0,3:3:0:0:
48,78,187908,2,0,L|-12:88,1,42.5,8|0,3:3|3:3,0:0:0:0:
167,0,188085,5,6,3:3:0:0:
221,8,188173,1,0,3:3:0:0:
264,44,188261,1,8,3:3:0:0:
283,95,188350,1,0,3:3:0:0:
273,149,188438,1,2,3:3:0:0:
238,192,188526,1,0,3:3:0:0:
185,211,188614,1,8,3:3:0:0:
131,201,188702,1,0,3:3:0:0:
89,166,188790,5,2,3:3:0:0:
112,153,188879,1,0,3:3:0:0:
137,151,188967,2,0,P|164:166|176:181,1,42.5,8|0,3:3|3:3,0:0:0:0:
52,231,189144,5,2,3:3:0:0:
29,217,189233,1,0,3:3:0:0:
15,196,189321,2,0,P|14:164|21:146,1,42.5,8|0,3:3|3:3,0:0:0:0:
130,231,189497,5,6,3:3:0:0:
153,266,189585,1,0,3:3:0:0:
153,307,189673,1,8,3:3:0:0:
131,343,189761,1,0,3:3:0:0:
94,362,189849,2,0,P|75:363|45:351,3,42.5,2|0|8|0,3:3|3:3|3:3|3:3,0:0:0:0:
227,335,190202,5,2,3:3:0:0:
243,332,190291,1,0,3:3:0:0:
265,336,190379,1,8,3:3:0:0:
284,344,190467,1,0,3:3:0:0:
295,353,190556,5,2,3:3:0:0:
260,373,190644,1,0,3:3:0:0:
218,368,190732,1,8,3:3:0:0:
182,343,190820,1,0,3:3:0:0:
168,306,190908,2,0,P|168:284|183:256,1,42.5,6|0,3:3|3:3,0:0:0:0:
274,169,191085,2,0,P|255:179|223:180,1,42.5,8|0,3:3|3:3,0:0:0:0:
89,119,191261,5,2,3:3:0:0:
99,76,191349,1,0,3:3:0:0:
131,49,191437,1,8,3:3:0:0:
172,47,191525,1,0,3:3:0:0:
209,71,191614,2,0,P|225:92|232:112,3,42.5,2|0|8|0,3:3|3:3|3:3|3:3,0:0:0:0:
164,152,191967,2,0,P|153:176|139:192,3,42.5,2|0|8|0,3:3|3:3|3:3|3:3,0:0:0:0:
154,6,192320,5,6,3:3:0:0:
96,0,192408,1,0,3:3:0:0:
40,19,192497,1,8,3:3:0:0:
6,66,192585,1,0,3:3:0:0:
0,127,192673,1,2,3:3:0:0:
21,180,192761,1,0,3:3:0:0:
67,218,192850,1,8,3:3:0:0:
128,226,192938,1,0,3:3:0:0:
184,205,193026,5,2,3:3:0:0:
228,165,193114,1,0,3:3:0:0:
289,151,193202,1,8,3:3:0:0:
344,172,193291,1,0,3:3:0:0:
382,215,193379,1,2,3:3:0:0:
396,274,193467,1,0,3:3:0:0:
377,330,193555,1,8,3:3:0:0:
334,367,193644,1,0,3:3:0:0:
279,384,193732,5,6,3:3:0:0:
247,343,193820,1,0,3:3:0:0:
241,296,193909,1,8,3:3:0:0:
260,253,193997,1,0,3:3:0:0:
297,222,194085,1,2,3:3:0:0:
343,216,194173,1,0,3:3:0:0:
389,233,194262,1,8,3:3:0:0:
417,271,194350,1,0,3:3:0:0:
424,318,194438,2,0,P|418:346|405:364,3,42.5,2|0|8|0,3:3|3:3|3:3|3:3,0:0:0:0:
299,232,194791,2,0,P|327:223|350:225,3,42.5,2|0|8|0,3:3|3:3|3:3|3:3,0:0:0:0:
284,384,195145,5,6,3:3:0:0:
290,346,195233,1,0,3:3:0:0:
296,307,195320,2,0,L|342:299,1,42.5,8|0,3:3|3:3,0:0:0:0:
211,242,195497,2,0,L|165:234,1,42.5,2|0,3:3|3:3,0:0:0:0:
351,205,195673,5,8,3:3:0:0:
345,243,195761,1,0,3:3:0:0:
339,282,195850,2,0,L|293:290,1,42.5,2|0,3:3|3:3,0:0:0:0:
203,256,196026,2,0,L|157:248,1,42.5,8|0,3:3|3:3,0:0:0:0:
433,324,196202,1,2,3:3:0:0:
433,324,196291,1,0,3:3:0:0:
433,324,196379,2,0,L|479:316,1,42.5,8|0,3:3|3:3,0:0:0:0:
354,187,196555,5,6,3:3:0:0:
351,205,196643,1,0,3:3:0:0:
348,223,196732,1,0,3:3:0:0:
346,240,196819,1,0,3:3:0:0:
343,258,196908,1,0,3:3:0:0:
341,276,196997,1,0,3:3:0:0:
340,293,197085,2,0,L|348:339,1,42.5,8|0,3:3|3:3,0:0:0:0:
271,208,197261,6,0,P|244:201|212:208,3,42.5,0|0|0|0,3:3|3:3|3:3|3:3,2:2:0:0:
418,136,197614,2,0,P|445:129|477:136,3,42.5,8|0|0|0,3:3|3:3|3:3|3:3,2:2:0:0:
319,46,197967,6,0,B|251:8|160:77|198:186|285:200|332:159|332:159|368:124|440:150|433:229|378:251|341:231|341:231|308:210|271:247|283:296|327:300|348:281|348:281|363:264|391:271|396:299|382:315|364:315|364:315|354:306|338:320|349:342|366:331,1,777.749967957689,6|6,3:3|3:3,0:0:0:0:
374,354,201320,2,0,L|379:401,1,25.924998931923,2|0,3:3|0:0,0:0:0:0:
372,372,203261,5,0,3:3:0:0:
371,365,203350,1,0,3:3:0:0:
370,358,203437,1,0,3:3:0:0:
369,352,203525,1,0,3:3:0:0:
368,345,203614,6,0,B|434:280|434:280|213:329|213:329|252:300|259:242|187:208|150:245|145:283|145:283|134:350|17:371|-12:257|49:193|106:216,1,777.749967957689,6|6,3:3|3:3,0:0:0:0:
0,271,207144,6,0,B|217:303|217:303|226:320,1,238,6|0,3:3|0:0,0:0:0:0:
16,279,209261,5,12,3:3:0:0:
37,292,209349,1,0,3:3:0:0:
61,290,209437,1,0,3:3:0:0:
80,278,209525,1,0,3:3:0:0:
91,256,209614,2,0,P|89:237|72:219,1,42.5,10|0,3:3|3:3,0:0:0:0:
177,206,209791,5,0,3:3:0:0:
173,247,209879,1,0,3:3:0:0:
168,287,209967,2,0,L|163:337,1,42.5,2|0,3:3|3:3,0:0:0:0:
254,211,210144,5,0,3:3:0:0:
250,252,210232,1,0,3:3:0:0:
245,292,210320,2,0,L|240:342,3,42.5,10|0|0|0,3:3|3:3|3:3|3:3,0:0:0:0:
327,384,210673,5,12,3:3:0:0:
362,377,210761,1,0,3:3:0:0:
398,372,210850,1,0,3:3:0:0:
434,367,210938,1,0,3:3:0:0:
471,362,211026,2,0,L|548:380,1,42.5,10|0,3:3|3:3,0:0:0:0:
407,285,211202,5,0,3:3:0:0:
383,279,211291,1,0,3:3:0:0:
359,274,211379,2,0,L|316:263,3,42.5,2|0|0|0,3:3|3:3|3:3|3:3,0:0:0:0:
445,196,211732,2,0,L|488:185,3,42.5,10|0|0|0,3:3|3:3|3:3|3:3,0:0:0:0:
339,126,212085,5,12,3:3:0:0:
299,112,212173,1,0,3:3:0:0:
259,123,212261,1,0,3:3:0:0:
232,155,212349,1,0,3:3:0:0:
231,197,212438,2,0,P|239:222|256:236,1,42.5,10|0,3:3|3:3,0:0:0:0:
161,128,212614,5,0,3:3:0:0:
165,87,212702,1,0,3:3:0:0:
170,47,212790,2,0,L|175:-3,1,42.5,2|0,3:3|3:3,0:0:0:0:
84,123,212967,5,0,3:3:0:0:
88,82,213055,1,0,3:3:0:0:
93,42,213143,2,0,L|98:-8,3,42.5,10|0|0|0,3:3|3:3|3:3|3:3,0:0:0:0:
0,93,213497,5,12,3:3:0:0:
4,115,213585,1,0,3:3:0:0:
8,137,213673,1,0,3:3:0:0:
12,159,213762,1,0,3:3:0:0:
16,181,213850,2,0,L|11:223,1,42.5,10|0,3:3|3:3,0:0:0:0:
78,310,214025,5,0,3:3:0:0:
115,324,214114,1,0,3:3:0:0:
155,309,214202,2,0,P|166:289|168:268,3,42.5,2|0|0|0,3:3|3:3|3:3|3:3,0:0:0:0:
307,257,214555,2,0,P|317:275|334:288,3,42.5,10|0|0|0,3:3|3:3|3:3|3:3,0:0:0:0:
229,184,214908,5,12,3:3:0:0:
224,148,214996,1,0,3:3:0:0:
221,112,215084,1,0,3:3:0:0:
216,77,215172,1,0,3:3:0:0:
212,42,215261,2,0,L|204:-21,1,42.5,10|0,3:3|3:3,0:0:0:0:
298,77,215438,5,0,3:3:0:0:
339,81,215526,1,0,3:3:0:0:
379,86,215614,2,0,L|429:91,1,42.5,2|0,3:3|3:3,0:0:0:0:
303,0,215791,5,0,3:3:0:0:
344,4,215879,1,0,3:3:0:0:
384,9,215967,2,0,L|434:14,3,42.5,10|0|0|0,3:3|3:3|3:3|3:3,0:0:0:0:
286,96,216320,5,12,3:3:0:0:
256,125,216408,1,0,3:3:0:0:
215,136,216496,1,0,3:3:0:0:
174,126,216584,1,0,3:3:0:0:
144,98,216673,2,0,P|136:78|141:51,1,42.5,10|0,3:3|3:3,0:0:0:0:
89,172,216850,5,0,3:3:0:0:
84,212,216938,1,0,3:3:0:0:
80,253,217026,2,0,L|74:302,1,42.5,2|0,3:3|3:3,0:0:0:0:
12,160,217203,5,0,3:3:0:0:
8,201,217291,1,0,3:3:0:0:
4,241,217379,2,0,L|-1:290,3,42.5,10|0|0|0,3:3|3:3|3:3|3:3,0:0:0:0:
28,353,217732,5,14,3:3:0:0:
28,356,217820,1,8,3:3:0:0:
29,360,217908,2,0,L|32:378,1,17,8|8,1:3|1:1,0:0:0:0:
158,295,218085,5,8,1:1:0:0:
161,297,218173,1,0,1:1:0:0:
165,298,218261,2,0,L|192:309,1,25.4999992218018,0|0,1:1|1:1,0:0:0:0:
171,145,218438,5,0,1:1:0:0:
176,142,218526,1,8,1:1:0:0:
180,138,218614,2,0,L|214:111,1,29.7499990921021,8|0,1:1|1:1,0:0:0:0:
20,58,218791,5,8,1:1:0:0:
20,49,218879,1,8,1:3:0:0:
20,41,218967,2,0,L|17:-12,1,34,8|0,1:1|1:1,0:0:0:0:
0,203,219144,5,8,1:1:0:0:
43,207,219232,1,0,1:1:0:0:
85,210,219320,2,0,L|139:215,1,42.5,0|0,1:1|1:1,0:0:0:0:
194,132,219497,5,0,1:1:0:0:
222,129,219585,1,0,1:1:0:0:
250,127,219673,2,0,L|285:123,1,29.7499990921021,0|0,1:1|1:1,0:0:0:0:
361,199,219850,5,8,1:1:0:0:
382,202,219938,1,8,1:1:0:0:
404,204,220026,2,0,L|431:207,1,25.4999992218018,0|0,1:1|1:1,0:0:0:0:
242,224,220202,5,12,1:3:0:0:
242,224,220291,2,0,L|248:271,2,42.5,0|8|0,1:1|1:1|1:1,0:0:0:0:
336,330,220555,5,14,3:3:0:0:
374,301,220643,1,0,3:3:0:0:
418,283,220731,1,2,3:2:0:0:
465,275,220819,1,0,3:3:0:0:
512,279,220908,5,10,3:3:0:0:
498,286,220996,1,0,3:3:0:0:
484,294,221084,1,2,3:2:0:0:
472,305,221172,1,0,3:3:0:0:
462,319,221261,5,10,3:3:0:0:
432,281,221349,1,0,3:3:0:0:
388,266,221437,1,2,3:2:0:0:
342,278,221525,1,0,3:3:0:0:
311,313,221613,1,10,3:3:0:0:
269,335,221702,1,0,3:3:0:0:
222,330,221790,1,2,3:2:0:0:
186,301,221878,1,0,3:3:0:0:
171,255,221967,6,0,L|181:179,1,63.7500024318696,14|0,3:3|3:3,0:0:0:0:
277,153,222144,1,2,3:2:0:0:
279,146,222232,1,0,3:3:0:0:
272,148,222320,2,0,L|262:72,3,63.7500024318696,10|0|2|0,3:3|3:3|3:2|3:3,0:0:0:0:
179,29,222673,5,10,3:3:0:0:
153,70,222761,1,0,3:3:0:0:
111,91,222849,1,2,3:2:0:0:
63,92,222937,1,0,3:3:0:0:
20,67,223026,2,0,P|4:50|0:24,3,38.2499988327027,10|0|2|0,1:1|1:1|1:2|1:1,0:0:0:0:
129,93,223379,5,14,3:3:0:0:
165,62,223467,1,0,3:3:0:0:
210,47,223555,1,2,3:2:0:0:
258,48,223643,1,0,3:3:0:0:
302,65,223731,1,10,3:3:0:0:
337,96,223820,1,0,3:3:0:0:
381,113,223908,1,2,3:2:0:0:
429,113,223996,1,0,3:3:0:0:
474,97,224084,1,10,3:3:0:0:
501,59,224173,1,0,3:3:0:0:
489,15,224261,1,2,3:2:0:0:
447,0,224349,1,0,3:3:0:0:
406,18,224438,2,0,P|396:51|403:84,1,63.7500024318696,10|0,3:3|3:3,0:0:0:0:
312,172,224614,5,2,3:2:0:0:
314,179,224702,1,2,3:2:0:0:
307,177,224791,5,14,3:3:0:0:
335,215,224879,1,0,3:3:0:0:
350,259,224967,1,2,3:2:0:0:
356,307,225055,1,0,3:3:0:0:
347,354,225144,5,10,3:3:0:0:
366,329,225232,1,0,3:3:0:0:
391,309,225320,1,2,3:2:0:0:
421,296,225408,1,0,3:3:0:0:
452,292,225497,6,0,B|349:263|379:340|265:330,1,191.250007295609,10|2,3:3|3:2,0:0:0:0:
135,217,225850,2,0,P|166:214|197:221,1,63.7500024318696,2|8,1:2|1:1,0:0:0:0:
194,295,226026,2,0,P|162:288|131:291,1,63.7500024318696,2|0,1:2|1:1,0:0:0:0:
25,287,226202,5,14,3:3:0:0:
50,246,226290,1,0,3:3:0:0:
60,200,226378,1,2,3:2:0:0:
52,153,226466,1,0,3:3:0:0:
26,113,226554,1,10,3:3:0:0:
1,74,226643,1,0,3:3:0:0:
18,31,226731,1,2,3:2:0:0:
62,19,226819,1,0,3:3:0:0:
98,47,226907,1,10,3:3:0:0:
139,72,226997,1,0,3:3:0:0:
185,82,227085,1,2,3:2:0:0:
232,74,227173,1,0,3:3:0:0:
273,49,227261,2,0,P|297:27|312:0,3,63.7500024318696,10|0|2|0,3:3|3:3|3:2|3:3,0:0:0:0:
280,135,227614,5,14,3:3:0:0:
308,125,227702,1,0,3:3:0:0:
335,107,227790,1,2,3:2:0:0:
356,84,227878,1,0,3:3:0:0:
370,55,227967,1,10,3:3:0:0:
390,32,228055,1,0,3:3:0:0:
421,32,228143,1,2,3:2:0:0:
441,55,228231,1,0,3:3:0:0:
438,85,228320,1,10,3:3:0:0:
434,117,228408,1,0,3:3:0:0:
440,149,228496,1,2,3:2:0:0:
452,177,228584,1,0,3:3:0:0:
474,201,228673,2,0,P|508:214|528:213,3,38.2499988327027,10|0|2|0,1:1|1:1|1:2|1:1,0:0:0:0:
371,230,229026,5,14,3:3:0:0:
373,246,229114,1,0,3:3:0:0:
376,263,229202,2,0,L|385:333,1,63.7500024318696,0|0,3:3|3:3,0:0:0:0:
268,221,229379,2,0,L|277:151,1,63.7500024318696,10|0,3:3|3:3,0:0:0:0:
192,314,229555,2,0,L|183:250,1,63.7500024318696,2|0,3:2|3:3,0:0:0:0:
133,168,229732,5,10,3:3:0:0:
136,180,229820,1,0,3:3:0:0:
128,177,229908,2,0,P|162:174|189:156,1,63.7500024318696,2|0,3:2|3:3,0:0:0:0:
251,80,230085,2,0,B|338:52|340:152|425:128,1,191.250007295609,10|0,1:1|1:1,0:0:0:0:
447,102,230438,6,0,L|517:111,1,63.7500024318696,14|0,3:3|3:3,0:0:0:0:
341,8,230614,2,0,L|404:0,1,63.7500024318696,2|0,3:2|3:3,0:0:0:0:
329,140,230791,6,0,P|304:160|272:165,1,63.7500024318696,10|0,1:1|1:1,0:0:0:0:
200,232,230967,2,0,P|170:220|149:195,1,63.7500024318696,2|0,1:2|1:1,0:0:0:0:
290,321,231144,5,14,3:3:0:0:
290,321,231232,1,0,3:3:0:0:
290,321,231320,2,0,P|285:288|296:259,1,63.7500024318696,2|0,3:2|3:3,0:0:0:0:
338,158,231497,1,10,3:3:0:0:
338,158,231585,1,0,3:3:0:0:
338,158,231673,2,0,P|312:178|280:183,1,63.7500024318696,2|0,3:2|3:3,0:0:0:0:
415,71,231850,5,14,3:3:0:0:
425,60,231938,1,0,3:3:0:0:
438,53,232026,1,2,3:2:0:0:
454,48,232114,1,0,3:3:0:0:
469,48,232202,2,0,P|497:63|511:90,1,63.7500024318696,10|0,3:3|3:3,3:3:0:0:
304,80,232379,1,2,3:2:0:0:
299,66,232467,1,0,3:3:0:0:
299,51,232555,1,10,3:3:0:0:
303,36,232644,1,0,3:3:0:0:
310,22,232732,2,0,P|337:5|370:8,1,63.7500024318696,2|0,3:2|3:3,3:3:0:0:
202,80,232908,5,10,3:3:0:0:
157,103,232996,1,0,3:3:0:0:
109,93,233084,1,2,3:2:0:0:
81,66,233172,1,2,3:2:0:0:
78,34,233260,5,14,3:3:0:0:
134,10,233350,1,2,3:2:0:0:
184,33,233438,1,2,3:2:0:0:
197,78,233526,1,2,3:2:0:0:
173,125,233614,1,10,3:3:0:0:
123,141,233702,1,2,3:2:0:0:
88,180,233791,1,2,3:2:0:0:
87,225,233879,1,2,3:2:0:0:
111,263,233967,5,10,3:3:0:0:
144,246,234055,1,0,3:3:0:0:
157,219,234144,1,2,3:2:0:0:
152,195,234232,1,2,3:2:0:0:
135,182,234321,5,10,1:1:0:0:
145,185,234409,1,2,1:2:0:0:
154,190,234497,2,0,L|220:205,1,63.7500024318696,2|2,1:2|1:2,0:0:0:0:
289,108,234673,6,0,B|302:210|302:210|299:221|299:221|320:347,1,229.499992996216,14|0,3:3|3:3,0:0:0:0:
341,361,235026,1,10,3:3:0:0:
341,361,235114,2,0,L|408:376,2,63.7500024318696,0|2|0,3:3|3:2|3:3,0:0:0:0:
233,311,235379,1,10,3:3:0:0:
233,311,235467,2,0,L|166:326,2,63.7500024318696,0|2|0,3:3|3:2|3:3,0:0:0:0:
349,251,235732,5,10,3:3:0:0:
373,249,235820,1,0,3:3:0:0:
398,250,235908,1,2,3:2:0:0:
423,257,235996,1,2,3:2:0:0:
439,265,236085,5,14,3:3:0:0:
419,215,236173,1,2,3:2:0:0:
372,183,236261,1,2,3:2:0:0:
321,185,236350,1,2,3:2:0:0:
283,208,236438,1,10,3:3:0:0:
268,239,236526,1,2,3:2:0:0:
268,252,236614,5,2,3:2:0:0:
226,212,236702,1,2,3:2:0:0:
173,216,236791,1,10,3:3:0:0:
142,253,236879,1,2,3:2:0:0:
113,290,236967,1,2,3:2:0:0:
73,292,237055,1,2,3:2:0:0:
49,269,237144,5,2,1:2:0:0:
58,263,237232,1,10,1:1:0:0:
67,258,237320,2,0,L|133:243,1,63.7500024318696,2|2,1:2|1:2,0:0:0:0:
230,384,237497,6,0,L|164:369,3,63.7500024318696,14|0|2|0,3:3|3:3|3:2|3:3,0:0:0:0:
298,305,237850,2,0,L|364:290,3,63.7500024318696,10|0|2|0,3:3|3:3|3:2|3:3,0:0:0:0:
175,230,238202,2,0,L|109:215,3,63.7500024318696,10|0|2|0,3:3|3:3|3:2|3:3,0:0:0:0:
317,154,238555,2,0,L|383:139,3,63.7500024318696,10|0|2|0,3:3|3:3|3:2|3:3,0:0:0:0:
257,235,238908,5,10,3:3:0:0:
246,197,238996,1,0,3:3:0:0:
235,158,239085,2,0,L|220:94,1,63.7500024318696,2|0,3:2|3:3,0:0:0:0:
175,20,239261,5,10,3:3:0:0:
214,4,239349,1,0,3:3:0:0:
256,13,239438,2,0,P|283:33|296:60,1,63.7500024318696,2|8,3:2|3:1,0:0:0:0:
323,147,239614,6,0,L|373:136,2,50.9999984436036,2|0|2,1:2|1:1|1:2,0:0:0:0:
208,213,239879,1,0,3:3:0:0:
220,226,239967,2,0,L|269:238,1,50.9999984436036,10|0,3:3|3:0,3:0:0:0:
79,213,240144,2,0,L|16:227,1,50.9999984436036,2|0,3:2|3:3,0:0:0:0:
152,340,240320,5,10,1:1:0:0:
201,352,240408,1,10,1:1:0:0:
248,340,240497,1,2,1:2:0:0:
272,314,240585,1,2,1:2:0:0:
279,287,240673,2,0,P|276:257|266:233,1,50.9999984436036,2|0,1:2|1:1,0:0:0:0:
176,143,240850,5,10,1:1:0:0:
227,155,240938,1,10,1:1:0:0:
273,165,241026,1,10,1:1:0:0:
314,176,241114,1,2,1:2:0:0:
346,184,241202,1,10,1:1:0:0:
373,191,241291,1,10,1:1:0:0:
395,198,241379,5,10,1:1:0:0:
386,145,241467,1,10,1:1:0:0:
378,157,241555,2,0,L|364:226,1,50.9999984436036,10|2,1:3|1:2,0:0:0:0:
415,313,241732,5,10,1:1:0:0:
464,320,241820,1,2,1:2:0:0:
501,291,241909,1,2,1:2:0:0:
512,256,241997,1,2,1:2:0:0:
508,234,242085,2,0,P|482:210|460:210,1,50.9999984436036,2|2,1:2|1:2,0:0:0:0:
365,155,242261,5,2,1:2:0:0:
354,211,242350,1,2,1:2:0:0:
345,263,242438,1,10,1:1:0:0:
335,307,242526,1,2,1:2:0:0:
328,334,242614,2,0,L|315:403,1,50.9999984436036,2|2,1:2|1:2,0:0:0:0:
303,220,242791,6,0,B|348:203|366:155|366:155|365:206|403:240,1,191.250007295609,14|2,3:3|3:2,0:0:0:0:
420,345,243144,5,6,3:3:0:0:
381,317,243232,1,0,3:3:0:0:
335,302,243320,1,10,3:3:0:0:
288,302,243408,1,0,3:3:0:0:
242,315,243497,1,0,3:3:0:0:
201,337,243585,1,0,3:3:0:0:
161,315,243673,1,10,3:3:0:0:
157,269,243761,1,0,3:3:0:0:
192,240,243850,6,0,P|209:216|218:172,1,63.7500024318696,2|0,3:2|3:3,0:0:0:0:
261,274,244026,2,0,P|278:250|287:206,1,63.7500024318696,10|0,3:3|3:3,0:0:0:0:
115,124,244202,2,0,P|132:148|141:192,1,63.7500024318696,2|0,3:2|3:3,0:0:0:0:
270,286,244379,2,0,P|287:262|296:218,1,63.7500024318696,10|0,3:3|3:3,0:0:0:0:
269,58,244555,5,2,3:2:0:0:
270,78,244643,1,0,3:3:0:0:
274,98,244731,1,10,3:3:0:0:
283,117,244819,1,0,3:3:0:0:
296,134,244908,5,0,3:3:0:0:
326,97,244996,1,0,3:3:0:0:
364,69,245084,1,10,3:3:0:0:
409,51,245172,1,0,3:3:0:0:
456,46,245261,6,0,P|395:83|367:129,1,127.500004863739,2|10,3:2|3:3,0:0:0:0:
379,155,245526,1,0,3:3:0:0:
379,155,245614,2,0,P|388:191|410:218,1,63.7500024318696,2|0,3:2|3:3,0:0:0:0:
282,304,245791,2,0,P|308:278|321:245,1,63.7500024318696,10|0,3:3|3:3,0:0:0:0:
461,301,245967,5,2,3:2:0:0:
415,288,246055,1,0,3:3:0:0:
367,290,246143,1,10,3:3:0:0:
322,306,246231,1,0,3:3:0:0:
284,335,246320,2,0,P|258:361|225:374,1,63.7500024318696,0|0,3:3|3:3,0:0:0:0:
78,266,246497,5,10,3:3:0:0:
80,273,246585,1,2,3:2:0:0:
73,271,246673,5,2,3:2:0:0:
120,277,246761,1,0,3:3:0:0:
163,296,246849,1,10,3:3:0:0:
200,326,246937,1,0,3:3:0:0:
228,365,247026,5,0,3:3:0:0:
222,334,247114,1,0,3:3:0:0:
224,302,247202,1,10,3:3:0:0:
236,273,247290,1,0,3:3:0:0:
256,248,247378,5,10,1:1:0:0:
260,263,247467,1,0,1:1:0:0:
263,277,247555,2,0,L|277:347,1,63.7500024318696,2|0,1:2|3:3,0:0:0:0:
160,236,247732,2,0,L|174:166,1,63.7500024318696,2|0,3:2|3:3,0:0:0:0:
335,238,247908,5,10,3:3:0:0:
338,252,247997,1,8,3:3:0:0:
341,266,248085,2,0,L|355:336,1,63.7500024318696,10|0,3:3|1:1,0:0:0:0:
177,227,248261,2,0,L|191:157,1,63.7500024318696,2|0,1:2|1:1,0:0:0:0:
250,253,248438,5,10,3:3:0:0:
253,267,248527,1,8,3:3:0:0:
256,281,248615,2,0,L|270:351,1,63.7500024318696,10|8,3:3|3:3,0:0:0:0:
158,384,248791,5,6,3:3:0:0:
135,361,248879,1,0,3:3:0:0:
109,344,248967,1,10,3:3:0:0:
78,333,249055,1,0,3:3:0:0:
47,330,249144,5,0,3:3:0:0:
89,308,249232,1,0,3:3:0:0:
136,302,249320,1,10,3:3:0:0:
182,312,249408,1,0,3:3:0:0:
223,337,249497,6,0,P|247:351|298:357,1,63.7500024318696,2|0,3:2|3:3,0:0:0:0:
248,264,249673,2,0,P|272:278|323:284,1,63.7500024318696,10|0,3:3|3:3,0:0:0:0:
437,384,249850,2,0,P|437:356|416:309,1,63.7500024318696,2|0,3:2|3:3,0:0:0:0:
446,161,250026,2,0,P|421:174|391:215,1,63.7500024318696,10|0,3:3|3:3,0:0:0:0:
354,343,250202,5,2,3:2:0:0:
351,295,250290,1,0,3:3:0:0:
336,250,250378,1,10,3:3:0:0:
309,210,250466,1,0,3:3:0:0:
273,180,250554,1,0,3:3:0:0:
232,159,250643,1,0,3:3:0:0:
230,113,250731,1,10,3:3:0:0:
268,88,250819,1,0,3:3:0:0:
309,109,250908,6,0,P|363:110|431:78,1,127.500004863739,2|10,3:2|3:3,0:0:0:0:
427,57,251173,1,0,3:3:0:0:
427,57,251261,2,0,P|447:26|449:-6,1,63.7500024318696,2|0,3:2|3:3,0:0:0:0:
382,144,251438,2,0,P|398:176|425:194,1,63.7500024318696,10|0,3:3|3:3,0:0:0:0:
296,16,251614,5,2,3:2:0:0:
248,12,251702,1,0,3:3:0:0:
203,26,251790,1,10,3:3:0:0:
166,56,251878,1,0,3:3:0:0:
142,97,251966,1,0,3:3:0:0:
98,110,252055,1,0,3:3:0:0:
58,89,252144,2,0,P|42:55|56:16,1,63.7500024318696,10|2,3:3|3:2,0:0:0:0:
0,150,252320,5,2,3:2:0:0:
6,153,252408,1,0,3:3:0:0:
0,157,252497,5,10,3:3:0:0:
46,164,252585,1,0,3:3:0:0:
88,184,252673,1,0,3:3:0:0:
126,214,252761,1,0,3:3:0:0:
153,253,252850,2,0,P|168:286|172:320,1,63.7500024318696,10|0,3:3|3:3,3:3:0:0:
197,180,253026,5,6,1:3:0:0:
178,143,253114,2,0,L|185:69,2,63.7500024318696,10|2|2,1:1|1:2|1:2,0:0:0:0:
298,195,253379,5,2,1:2:0:0:
330,164,253467,2,0,L|337:90,2,63.7500024318696,10|2|2,1:1|1:2|1:2,0:0:0:0:
348,299,253732,5,2,1:2:0:0:
336,314,253820,2,0,L|343:388,2,63.7500024318696,2|2|2,1:2|1:2|1:2,0:0:0:0:
443,287,254085,5,10,3:3:0:0:
456,299,254173,2,0,L|463:373,2,63.7500024318696,2|10|2,1:2|1:1|1:2,0:0:0:0:
372,183,254438,5,6,3:3:0:0:
321,170,254526,1,0,3:3:0:0:
273,175,254614,1,10,3:3:0:0:
235,200,254702,1,0,3:3:0:0:
204,238,254790,1,0,3:3:0:0:
177,274,254879,1,0,3:3:0:0:
131,272,254967,1,10,3:3:0:0:
105,235,255055,1,0,3:3:0:0:
118,192,255143,1,0,3:3:0:0:
129,145,255233,1,0,3:3:0:0:
122,97,255321,1,10,3:3:0:0:
97,58,255409,1,0,3:3:0:0:
60,26,255497,2,0,P|31:10|1:6,1,63.7500024318696,0|0,3:3|3:3,0:0:0:0:
188,60,255673,2,0,P|215:41|234:18,1,63.7500024318696,10|2,3:3|3:2,0:0:0:0:
105,162,255850,5,2,3:2:0:0:
116,206,255938,1,2,3:2:0:0:
147,246,256026,1,10,3:3:0:0:
142,296,256114,1,2,3:2:0:0:
155,340,256203,5,2,3:2:0:0:
200,328,256291,1,2,3:2:0:0:
239,295,256379,1,10,3:3:0:0:
290,302,256467,1,2,3:2:0:0:
334,289,256555,5,2,3:2:0:0:
322,249,256644,1,2,3:2:0:0:
293,210,256732,1,10,3:3:0:0:
299,168,256820,1,2,3:2:0:0:
287,128,256908,5,2,3:2:0:0:
247,139,256997,1,2,3:2:0:0:
210,167,257085,1,10,3:3:0:0:
166,163,257173,1,2,3:2:0:0:
125,175,257261,5,2,3:2:0:0:
134,206,257350,1,2,3:2:0:0:
155,237,257438,1,10,3:3:0:0:
153,271,257526,1,2,3:2:0:0:
162,304,257614,5,2,3:2:0:0:
193,294,257703,1,2,3:2:0:0:
223,270,257791,1,10,3:3:0:0:
258,276,257879,1,2,3:2:0:0:
291,267,257967,5,2,3:2:0:0:
283,241,258056,1,2,3:2:0:0:
264,217,258144,1,10,3:3:0:0:
269,189,258232,1,2,3:2:0:0:
261,163,258320,5,2,3:2:0:0:
235,171,258409,1,2,3:2:0:0:
211,189,258497,1,10,3:3:0:0:
183,185,258585,1,2,3:2:0:0:
157,193,258673,5,10,3:3:0:0:
184,247,258761,1,10,3:3:0:0:
233,258,258850,1,10,1:1:0:0:
272,238,258937,1,2,1:2:0:0:
300,216,259026,1,10,1:1:0:0:
343,220,259114,1,0,1:1:0:0:
366,245,259202,6,0,P|406:262|434:253,1,63.7500024318696,10|10,1:3|1:3,0:0:0:0:
498,158,259379,1,10,1:3:0:0:
460,121,259467,1,2,1:2:0:0:
415,116,259555,1,2,1:2:0:0:
375,136,259644,1,2,1:2:0:0:
359,173,259732,6,0,P|364:217|386:236,1,63.7500024318696,10|10,1:1|1:3,0:0:0:0:
430,287,259908,2,0,P|456:302|488:299,1,63.7500024318696,2|2,3:2|3:2,0:0:0:0:
368,352,260085,5,14,3:3:0:0:
330,322,260173,1,0,3:3:0:0:
285,306,260261,1,10,3:3:0:0:
238,306,260349,1,0,3:3:0:0:
193,321,260438,2,0,P|164:326|131:316,1,63.7500024318696,0|0,3:3|3:3,0:0:0:0:
18,202,260614,5,10,3:3:0:0:
20,209,260702,1,0,3:3:0:0:
13,207,260791,5,2,3:2:0:0:
41,245,260879,1,0,3:3:0:0:
56,289,260967,1,10,3:3:0:0:
62,337,261055,1,0,3:3:0:0:
53,384,261144,5,0,3:3:0:0:
68,356,261232,1,0,3:3:0:0:
91,334,261320,1,10,3:3:0:0:
119,320,261408,1,0,3:3:0:0:
151,314,261497,6,0,P|209:328|253:382,1,127.500004863739,2|10,3:2|3:3,0:0:0:0:
282,384,261761,1,0,3:3:0:0:
282,384,261850,2,0,P|307:363|317:324,1,63.7500024318696,0|0,3:3|3:3,0:0:0:0:
401,326,262026,2,0,P|396:294|367:265,1,63.7500024318696,10|0,3:3|3:3,0:0:0:0:
295,229,262202,5,2,3:2:0:0:
319,188,262290,1,0,3:3:0:0:
332,142,262378,1,10,3:3:0:0:
330,94,262466,1,0,3:3:0:0:
312,50,262555,2,0,P|298:25|264:-8,3,63.7500024318696,0|0|10|0,3:3|3:3|3:3|3:3,0:0:0:0:
462,76,262908,5,2,3:2:0:0:
414,77,262996,1,0,3:3:0:0:
369,92,263084,1,10,3:3:0:0:
329,118,263172,1,0,3:3:0:0:
298,155,263261,5,0,3:3:0:0:
324,137,263349,1,0,3:3:0:0:
355,128,263437,1,10,3:3:0:0:
386,127,263525,1,0,3:3:0:0:
417,136,263614,5,2,3:2:0:0:
382,105,263702,1,0,3:3:0:0:
336,94,263790,1,10,3:3:0:0:
290,107,263878,1,0,3:3:0:0:
257,141,263966,1,0,3:3:0:0:
213,160,264055,1,0,3:3:0:0:
167,157,264143,1,10,3:3:0:0:
127,132,264231,1,0,3:3:0:0:
116,93,264320,5,10,3:3:0:0:
121,88,264408,1,2,1:2:0:0:
128,83,264497,2,0,P|158:73|192:79,1,63.7500024318696,2|2,1:2|1:2,0:0:0:0:
366,175,264673,5,10,3:3:0:0:
361,170,264761,1,2,1:2:0:0:
356,166,264850,2,0,P|325:156|291:162,1,50.9999984436036,2|2,1:2|1:2,0:0:0:0:
177,240,265026,5,10,3:3:0:0:
182,235,265114,1,2,1:2:0:0:
187,231,265203,2,0,P|217:221|251:227,1,38.2499988327027,2|2,1:2|1:2,0:0:0:0:
294,313,265379,5,10,3:3:0:0:
289,308,265467,1,2,3:2:0:0:
284,303,265556,2,0,P|267:298|250:301,1,25.4999992218018,2|2,3:2|3:2,0:0:0:0:
215,364,265732,6,0,B|192:363|220:332|220:332|250:256|244:149|244:149|215:127|190:131|190:131|171:103|144:115|165:135|193:115|193:115|215:127|250:117|250:117|280:82|260:62|260:62|286:50|287:2|270:47|291:67|291:67|265:79|281:123|281:123|310:144|335:140|335:140|355:168|381:157|360:137|333:156|333:156|310:144|276:154|276:154|234:253|244:336|244:336|261:378|223:364,1,1038.69999366028,6|0,3:3|0:0,0:0:0:0:
222,384,269967,5,10,3:3:0:0:
138,272,270144,2,0,P|186:311|201:371,1,127.500004863739,12|0,3:3|0:0,0:0:0:0:
369,176,270673,5,10,3:3:0:0:
309,283,270850,2,0,P|318:221|363:178,1,108.375002067089,12|0,3:3|0:0,0:0:0:0:
376,187,271202,1,0,0:0:0:0:
310,298,271379,6,0,B|226:306|226:306|198:290,1,108.375002067089,0|0,3:3|0:0,0:0:0:0:
144,236,271732,5,2,3:3:0:0:
196,298,271908,1,0,3:3:0:0:
134,350,272085,1,8,3:3:0:0:
82,288,272438,1,2,3:3:0:0:
144,236,272614,1,0,3:3:0:0:
196,298,272791,1,0,3:3:0:0:
11,364,273144,1,2,3:3:0:0:
49,179,273497,5,8,3:3:0:0:
49,179,273585,2,0,L|66:227,2,36.1250006890297,0|0|0,3:3|3:3|3:3,0:0:0:0:
92,316,273850,2,0,L|109:267,3,36.1250006890297,2|0|0|0,3:3|3:3|3:3|3:3,0:0:0:0:
160,204,274202,1,0,3:3:0:0:
222,256,274378,1,0,3:0:0:0:
274,194,274555,1,2,3:3:0:0:
116,282,274908,1,8,3:3:0:0:
271,375,275261,1,2,3:3:0:0:
218,278,275438,5,0,3:3:0:0:
238,270,275526,1,0,3:3:0:0:
256,263,275614,2,0,L|292:270,1,36.1250006890297,8|0,3:3|0:0,0:0:0:0:
418,318,275791,1,2,3:3:0:0:
293,142,276144,5,0,3:3:0:0:
273,134,276232,1,0,3:3:0:0:
256,128,276320,2,0,L|220:135,1,36.1250006890297,8|0,3:3|0:0,0:0:0:0:
120,164,276497,1,2,3:3:0:0:
255,8,276850,1,0,3:3:0:0:
255,8,276938,1,0,3:3:0:0:
255,8,277026,6,0,B|263:92|263:92|247:120,1,108.375002067089,4|0,3:3|0:0,0:0:0:0:
198,174,277379,1,2,3:3:0:0:
260,226,277555,1,0,3:3:0:0:
312,164,277732,1,8,3:3:0:0:
377,213,278085,1,2,3:3:0:0:
429,151,278262,1,0,3:3:0:0:
491,204,278438,1,2,3:3:0:0:
425,18,278791,1,2,3:3:0:0:
301,167,279144,5,0,3:3:0:0:
301,182,279232,1,0,3:3:0:0:
307,200,279320,1,0,3:3:0:0:
305,222,279408,1,0,3:3:0:0:
312,246,279497,1,2,3:3:0:0:
309,268,279585,1,0,3:3:0:0:
318,296,279673,1,0,3:3:0:0:
311,331,279761,1,0,3:3:0:0:
322,366,279850,6,0,B|330:282|330:282|314:254,1,108.375002067089,4|0,3:3|0:0,0:0:0:0:
245,203,280202,1,2,3:3:0:0:
307,255,280378,1,0,3:3:0:0:
359,193,280555,1,8,3:3:0:0:
214,287,280909,5,2,3:3:0:0:
194,295,280997,1,0,3:3:0:0:
176,302,281085,2,0,L|140:295,1,36.1250006890297,0|0,3:3|0:0,0:0:0:0:
288,384,281438,5,0,3:3:0:0:
296,364,281526,1,0,3:3:0:0:
303,346,281614,2,0,L|281:236,1,108.375002067089,8|0,3:3|0:0,0:0:0:0:
206,212,281967,5,2,3:3:0:0:
214,192,282055,1,0,3:3:0:0:
222,172,282144,1,0,3:3:0:0:
230,152,282231,1,0,3:3:0:0:
238,132,282320,2,0,L|216:22,1,108.375002067089,8|0,3:3|0:0,0:0:0:0:
87,101,282673,5,12,3:3:0:0:
133,126,282761,1,0,3:3:0:0:
180,120,282850,1,0,3:3:0:0:
205,104,282938,1,0,3:3:0:0:
215,86,283026,2,0,P|221:67|218:45,1,36.1250006890297,2|0,3:3|3:3,0:0:0:0:
301,4,283202,1,0,3:3:0:0:
309,59,283291,1,0,3:3:0:0:
317,112,283379,2,0,L|325:166,3,36.1250006890297,2|0|0|0,3:3|3:3|3:3|3:3,0:0:0:0:
443,205,283732,2,0,P|425:208|410:218,1,36.1250006890297,2|0,3:3|3:3,0:0:0:0:
233,224,283908,2,0,P|244:237|260:245,1,36.1250006890297,0|0,3:3|3:3,0:0:0:0:
369,379,284085,5,12,3:3:0:0:
394,345,284173,1,0,3:3:0:0:
389,308,284262,1,0,3:3:0:0:
376,288,284350,1,0,3:3:0:0:
362,280,284438,2,0,P|345:274|326:277,1,36.1250006890297,2|0,3:3|3:3,0:0:0:0:
222,353,284614,1,0,3:3:0:0:
175,380,284702,1,0,3:3:0:0:
121,370,284791,1,2,3:3:0:0:
86,329,284879,1,0,3:3:0:0:
86,274,284967,1,0,3:3:0:0:
121,233,285055,1,0,3:3:0:0:
175,224,285144,2,0,P|192:229|213:243,1,36.1250006890297,2|0,3:3|3:3,0:0:0:0:
335,159,285320,2,0,P|322:171|299:182,1,36.1250006890297,0|0,3:3|3:3,0:0:0:0:
163,139,285497,5,12,3:3:0:0:
143,117,285585,1,0,3:3:0:0:
139,86,285673,1,0,3:3:0:0:
153,60,285761,1,0,3:3:0:0:
182,48,285850,2,0,P|203:47|221:52,1,36.1250006890297,2|0,3:3|3:3,0:0:0:0:
158,147,286026,1,0,3:3:0:0:
103,155,286115,1,0,3:3:0:0:
50,163,286203,2,0,L|-4:171,3,36.1250006890297,2|0|0|0,3:3|3:3|3:3|3:3,0:0:0:0:
174,56,286555,2,0,L|228:64,1,36.1250006890297,2|0,3:3|3:3,0:0:0:0:
55,178,286732,2,0,L|1:186,1,36.1250006890297,0|0,3:3|3:3,0:0:0:0:
212,244,286908,5,12,3:3:0:0:
246,286,286997,1,0,3:3:0:0:
248,332,287085,1,0,3:3:0:0:
233,364,287173,1,0,3:3:0:0:
216,375,287261,2,0,P|194:382|179:383,1,36.1250006890297,2|0,3:3|3:3,0:0:0:0:
97,315,287438,1,0,3:3:0:0:
94,264,287526,1,0,3:3:0:0:
91,210,287614,1,2,3:3:0:0:
88,158,287702,1,0,3:3:0:0:
85,105,287790,1,0,3:3:0:0:
83,53,287879,1,0,3:3:0:0:
79,0,287967,2,0,P|91:12|114:23,1,36.1250006890297,2|0,3:3|3:3,0:0:0:0:
271,38,288144,2,0,P|254:43|233:56,1,36.1250006890297,0|0,3:3|3:3,0:0:0:0:
128,138,288320,5,12,3:3:0:0:
108,160,288408,1,0,3:3:0:0:
104,191,288496,1,0,3:3:0:0:
118,217,288584,1,0,3:3:0:0:
147,229,288673,2,0,P|168:230|186:225,1,36.1250006890297,2|0,3:3|3:3,0:0:0:0:
281,150,288850,1,0,3:3:0:0:
328,123,288938,1,0,3:3:0:0:
382,133,289027,1,2,3:3:0:0:
417,174,289115,1,0,3:3:0:0:
417,229,289203,1,0,3:3:0:0:
382,270,289291,1,0,3:3:0:0:
328,279,289380,2,0,P|311:274|290:260,1,36.1250006890297,2|0,3:3|3:3,0:0:0:0:
159,220,289555,2,0,P|176:215|197:201,1,36.1250006890297,0|0,3:3|3:3,0:0:0:0:
250,80,289732,5,12,3:3:0:0:
208,46,289821,1,0,3:3:0:0:
162,44,289909,1,0,3:3:0:0:
130,59,289997,1,0,3:3:0:0:
119,76,290085,2,0,P|112:98|111:113,1,36.1250006890297,2|0,3:3|3:3,0:0:0:0:
163,213,290261,1,0,3:3:0:0:
214,216,290349,1,0,3:3:0:0:
268,219,290437,1,2,3:3:0:0:
320,222,290525,1,0,3:3:0:0:
373,225,290613,1,0,3:3:0:0:
425,227,290702,1,0,3:3:0:0:
478,231,290790,2,0,L|513:224,3,36.1250006890297,8|0|0|0,3:3|3:3|3:3|3:3,0:0:0:0:
395,138,291144,5,8,3:3:0:0:
391,148,291232,1,8,1:1:0:0:
383,144,291320,2,0,L|348:151,3,36.1250006890297,0|8|0|0,1:1|1:1|1:1|1:1,0:0:0:0:
236,217,291673,5,8,3:3:0:0:
240,227,291761,1,8,3:3:0:0:
249,220,291850,1,8,1:1:0:0:
268,274,291938,1,0,1:1:0:0:
311,289,292026,1,0,1:1:0:0:
355,277,292114,1,0,1:1:0:0:
373,252,292202,1,8,3:3:0:0:
369,242,292290,1,8,3:3:0:0:
361,246,292378,2,0,L|326:239,1,36.1250006890297,0|0,1:1|1:1,0:0:0:0:
256,192,292555,12,0,293702,2:0:0:0:
292,132,293967,5,6,3:3:0:0:
148,0,294143,1,10,3:3:0:0:
178,180,294320,1,0,3:3:0:0:
178,180,294408,1,0,3:3:0:0:
178,180,294496,6,0,P|203:188|228:187,1,50.9999984436036,10|0,3:3|3:3,0:0:0:0:
317,18,294673,2,0,P|297:35|285:57,1,50.9999984436036,0|0,3:3|3:0,0:0:0:0:
389,219,294850,2,0,P|383:193|370:172,1,50.9999984436036,10|0,3:3|3:0,3:0:0:0:
211,55,295026,6,0,L|216:117,1,50.9999984436036,0|0,3:3|3:3,0:0:0:0:
303,266,295202,2,0,L|308:204,1,50.9999984436036,10|0,3:3|3:3,0:0:0:0:
386,51,295379,2,0,L|391:113,1,50.9999984436036,6|0,3:3|3:0,0:0:0:0:
294,259,295555,2,0,L|299:197,1,50.9999984436036,10|0,3:3|3:0,0:0:0:0:
467,204,295732,1,0,3:3:0:0:
470,229,295820,1,0,3:3:0:0:
473,254,295908,1,10,3:3:0:0:
476,279,295996,1,0,3:3:0:0:
478,303,296085,6,0,P|451:284|418:283,1,50.9999984436036,0|0,3:3|0:0,0:0:0:0:
470,312,296261,2,0,P|443:293|410:292,1,50.9999984436036,10|0,3:3|0:0,0:0:0:0:
318,351,296438,2,0,P|347:337|365:309,1,50.9999984436036,0|0,3:3|3:3,0:0:0:0:
361,200,296614,2,0,P|358:232|373:261,1,50.9999984436036,10|0,3:3|3:3,0:0:0:0:
479,384,296791,5,2,3:3:0:0:
292,275,296967,1,10,3:3:0:0:
462,189,297144,1,0,3:3:0:0:
462,189,297232,1,0,3:3:0:0:
462,189,297320,2,0,L|512:193,1,50.9999984436036,10|0,3:3|3:3,0:0:0:0:
403,337,297497,2,0,L|352:332,1,50.9999984436036,0|0,3:3|3:0,0:0:0:0:
245,169,297673,2,0,L|295:173,1,50.9999984436036,10|0,3:3|3:0,0:0:0:0:
443,266,297850,6,0,P|464:281|478:303,1,50.9999984436036,0|0,3:3|3:3,0:0:0:0:
374,155,298026,2,0,P|376:130|388:108,1,50.9999984436036,10|0,3:3|3:3,0:0:0:0:
312,271,298203,2,0,P|289:281|264:283,1,50.9999984436036,2|0,3:3|3:0,0:0:0:0:
457,182,298379,2,0,P|480:171|505:170,1,50.9999984436036,10|0,3:3|3:0,0:0:0:0:
378,317,298555,6,0,L|373:367,1,50.9999984436036,0|0,3:3|3:3,0:0:0:0:
277,184,298732,2,0,L|272:133,1,50.9999984436036,10|0,3:3|3:3,0:0:0:0:
186,286,298908,2,0,L|181:336,1,50.9999984436036,0|0,3:3|0:0,0:0:0:0:
195,297,299085,2,0,L|190:347,1,50.9999984436036,10|0,3:3|0:0,0:0:0:0:
101,214,299261,2,0,L|96:163,1,50.9999984436036,0|0,3:3|3:3,0:0:0:0:
112,208,299438,2,0,L|107:157,1,50.9999984436036,10|0,3:3|3:3,0:0:0:0:
14,306,299614,5,6,3:3:0:0:
188,213,299790,1,10,3:3:0:0:
120,375,299967,1,0,3:3:0:0:
120,375,300055,1,0,3:3:0:0:
120,375,300143,6,0,P|90:375|54:358,1,50.9999984436036,10|0,3:3|3:3,0:0:0:0:
188,202,300320,2,0,P|201:223|207:248,1,50.9999984436036,0|0,3:3|3:0,0:0:0:0:
5,228,300497,2,0,P|17:205|35:188,1,50.9999984436036,10|0,3:3|3:0,0:0:0:0:
199,323,300673,6,0,L|194:373,1,50.9999984436036,0|0,3:3|3:3,0:0:0:0:
104,172,300850,2,0,L|99:121,1,50.9999984436036,10|0,3:3|3:3,0:0:0:0:
0,306,301026,2,0,B|8:314|13:328|13:328|63:266|145:261,1,165.749992412568,6|0,3:3|0:0,0:0:0:0:
303,229,301379,6,0,P|333:216|351:188,1,50.9999984436036,0|0,3:3|3:3,0:0:0:0:
307,241,301555,2,0,P|337:228|355:200,1,50.9999984436036,10|0,3:3|3:3,0:0:0:0:
144,271,301732,6,0,P|140:303|155:333,1,50.9999984436036,0|0,3:3|0:0,0:0:0:0:
131,268,301908,2,0,P|127:300|142:330,1,50.9999984436036,10|0,3:3|0:0,0:0:0:0:
236,293,302085,6,0,P|262:312|295:314,1,50.9999984436036,0|0,3:3|3:3,0:0:0:0:
227,303,302261,2,0,P|253:322|286:324,1,50.9999984436036,10|0,3:3|3:3,0:0:0:0:
200,176,302438,5,12,3:3:0:0:
186,154,302526,1,0,3:3:0:0:
162,143,302614,1,0,1:1:0:0:
136,143,302702,1,0,1:1:0:0:
113,154,302791,1,0,1:1:0:0:
87,156,302879,1,8,1:1:0:0:
63,147,302967,1,0,1:1:0:0:
44,129,303055,1,0,1:1:0:0:
37,104,303144,5,8,3:3:0:0:
71,84,303232,1,0,1:1:0:0:
110,89,303320,1,0,1:1:0:0:
139,124,303408,1,8,1:1:0:0:
136,168,303497,2,0,P|114:191|94:198,3,50.9999984436036,8|8|0|0,1:3|1:1|1:1|1:1,0:0:0:0:
211,82,303850,5,8,1:1:0:0:
248,55,303938,1,0,1:1:0:0:
294,59,304026,1,8,1:1:0:0:
326,91,304114,1,8,1:1:0:0:
330,137,304203,1,0,1:1:0:0:
363,170,304291,1,0,1:1:0:0:
408,173,304379,1,8,3:3:0:0:
446,147,304467,1,0,1:1:0:0:
457,103,304555,5,0,1:1:0:0:
413,76,304644,1,0,1:1:0:0:
362,89,304732,1,8,1:1:0:0:
342,136,304820,1,8,1:1:0:0:
358,179,304908,2,0,P|380:195|406:191,3,50.9999984436036,0|0|0|0,1:1|1:1|1:1|1:1,0:0:0:0:
264,132,305261,5,6,3:3:0:0:
267,157,305350,1,0,3:3:0:0:
270,182,305438,1,8,3:3:0:0:
273,207,305526,1,0,3:3:0:0:
276,232,305614,1,2,3:3:0:0:
279,257,305702,1,0,3:3:0:0:
282,282,305791,1,8,3:3:0:0:
285,307,305879,1,0,3:3:0:0:
288,332,305967,5,2,3:3:0:0:
238,316,306055,1,0,3:3:0:0:
210,273,306143,1,8,3:3:0:0:
216,222,306231,1,0,3:3:0:0:
252,187,306319,1,2,3:3:0:0:
273,141,306408,1,0,3:3:0:0:
262,91,306496,1,8,3:3:0:0:
221,60,306584,1,0,3:3:0:0:
168,63,306672,5,6,3:3:0:0:
170,116,306762,1,0,3:3:0:0:
201,162,306850,1,8,3:3:0:0:
252,187,306938,1,0,3:3:0:0:
306,181,307026,1,2,3:3:0:0:
352,151,307114,1,0,3:3:0:0:
374,103,307203,1,8,3:3:0:0:
371,48,307291,1,0,3:3:0:0:
341,0,307379,5,2,3:3:0:0:
325,20,307467,1,0,3:3:0:0:
321,46,307555,2,0,P|328:70|349:87,1,42.5,8|0,3:3|3:3,0:0:0:0:
478,82,307732,5,2,3:3:0:0:
494,62,307820,1,0,3:3:0:0:
498,36,307908,2,0,P|491:12|470:-5,1,42.5,8|0,3:3|3:3,0:0:0:0:
413,145,308085,5,6,3:3:0:0:
419,186,308173,1,0,3:3:0:0:
426,225,308261,1,8,3:3:0:0:
433,265,308349,1,0,3:3:0:0:
440,304,308438,2,0,L|434:347,3,42.5,2|0|8|0,3:3|3:3|3:3|3:3,0:0:0:0:
358,265,308791,5,2,3:3:0:0:
354,244,308879,1,0,3:3:0:0:
350,223,308967,1,8,3:3:0:0:
345,202,309055,1,0,3:3:0:0:
341,181,309144,5,2,3:3:0:0:
382,187,309232,1,0,3:3:0:0:
421,194,309320,1,8,3:3:0:0:
461,201,309408,1,0,3:3:0:0:
500,208,309497,6,0,L|494:165,1,42.5,6|0,3:3|3:3,0:0:0:0:
411,30,309673,2,0,L|405:73,1,42.5,8|0,3:3|3:3,0:0:0:0:
326,198,309850,1,2,3:3:0:0:
304,235,309938,1,0,3:3:0:0:
257,245,310026,1,8,3:3:0:0:
217,219,310114,1,0,3:3:0:0:
208,172,310203,2,0,P|215:150|225:134,3,42.5,2|0|8|0,3:3|3:3|3:3|3:3,0:0:0:0:
368,85,310556,6,0,L|325:79,1,42.5,2|0,3:3|3:3,0:0:0:0:
132,43,310732,2,0,L|175:49,1,42.5,8|0,3:3|3:3,0:0:0:0:
244,137,310908,5,6,3:3:0:0:
270,181,310996,1,0,3:3:0:0:
261,231,311084,1,8,3:3:0:0:
222,264,311173,1,0,3:3:0:0:
171,264,311261,5,2,3:3:0:0:
162,226,311349,1,0,3:3:0:0:
182,191,311438,1,8,3:3:0:0:
218,178,311526,1,0,3:3:0:0:
260,188,311614,2,0,P|274:204|280:226,3,42.5,2|0|8|0,3:3|3:3|3:3|3:3,0:0:0:0:
402,225,311967,2,0,P|408:204|424:188,3,42.5,2|0|8|0,3:3|3:3|3:3|3:3,0:0:0:0:
416,77,312320,5,6,3:3:0:0:
382,118,312408,1,0,3:3:0:0:
327,128,312496,1,8,3:3:0:0:
279,100,312584,1,0,3:3:0:0:
260,48,312673,5,2,3:3:0:0:
279,73,312761,1,0,3:3:0:0:
307,88,312849,1,8,3:3:0:0:
339,88,312937,1,0,3:3:0:0:
369,77,313026,6,0,P|386:63|399:31,1,42.5,2|0,3:3|3:3,0:0:0:0:
488,39,313202,2,0,P|484:17|463:-9,1,42.5,8|0,3:3|3:3,0:0:0:0:
460,146,313379,5,2,3:3:0:0:
460,146,313467,1,0,3:3:0:0:
460,146,313555,2,0,L|410:151,1,42.5,8|0,3:3|3:3,0:0:0:0:
282,156,313731,1,6,3:3:0:0:
274,169,313819,1,0,3:3:0:0:
267,180,313907,2,0,L|217:175,1,42.5,8|0,3:3|3:3,0:0:0:0:
119,221,314084,1,2,3:3:0:0:
119,221,314172,1,0,3:3:0:0:
119,221,314260,2,0,L|69:226,1,42.5,8|0,3:3|3:3,0:0:0:0:
175,110,314438,5,2,3:3:0:0:
161,138,314526,1,0,3:3:0:0:
150,168,314614,1,8,3:3:0:0:
142,199,314702,1,0,3:3:0:0:
137,230,314790,1,2,3:3:0:0:
135,262,314879,1,0,3:3:0:0:
136,294,314967,1,8,3:3:0:0:
140,325,315055,1,0,3:3:0:0:
147,356,315144,5,2,3:3:0:0:
148,334,315232,1,0,3:3:0:0:
152,314,315320,1,8,3:3:0:0:
160,294,315408,1,0,3:3:0:0:
171,276,315496,1,2,3:3:0:0:
185,260,315585,1,0,3:3:0:0:
202,246,315673,1,8,3:3:0:0:
220,235,315761,1,0,3:3:0:0:
240,228,315849,5,0,1:1:0:0:
258,260,315938,1,0,1:1:0:0:
256,306,316026,1,0,1:1:0:0:
213,343,316114,1,0,1:1:0:0:
153,339,316202,2,0,P|135:329|114:295,3,42.5,0|0|8|8,1:1|1:1|1:1|1:1,0:0:0:0:
23,242,316555,5,14,3:3:0:0:
39,183,316644,1,0,3:3:0:0:
89,149,316732,1,2,3:3:0:0:
149,153,316820,1,0,3:3:0:0:
192,196,316908,1,10,3:3:0:0:
246,220,316997,1,0,3:3:0:0:
304,204,317085,1,2,3:3:0:0:
339,155,317173,1,0,3:3:0:0:
334,94,317262,5,10,3:3:0:0:
301,100,317350,1,0,3:3:0:0:
269,106,317438,2,0,L|218:114,1,46.7500014266968,2|0,3:3|3:3,0:0:0:0:
316,211,317614,5,10,3:3:0:0:
341,215,317702,1,0,3:3:0:0:
365,220,317790,2,0,L|410:227,1,46.7500014266968,2|0,3:3|3:3,0:0:0:0:
284,321,317967,5,14,3:3:0:0:
232,351,318055,1,0,3:3:0:0:
172,341,318144,1,2,3:3:0:0:
133,294,318232,1,0,3:3:0:0:
133,234,318320,1,10,3:3:0:0:
164,194,318408,1,0,3:3:0:0:
199,182,318497,1,2,3:3:0:0:
225,186,318585,1,0,3:3:0:0:
242,200,318673,5,10,3:3:0:0:
220,251,318761,1,0,3:3:0:0:
169,263,318850,2,0,P|143:261|121:250,1,46.7500014266968,2|0,3:3|3:3,0:0:0:0:
60,108,319026,5,10,3:3:0:0:
115,101,319114,1,0,3:3:0:0:
151,139,319203,2,0,P|162:162|163:187,1,46.7500014266968,2|0,3:3|3:3,0:0:0:0:
67,297,319379,5,14,3:3:0:0:
67,297,319467,1,0,3:3:0:0:
67,297,319555,2,0,L|75:349,1,46.7500014266968,2|0,3:3|3:3,0:0:0:0:
22,178,319732,1,10,3:3:0:0:
22,178,319820,1,0,3:3:0:0:
22,178,319908,2,0,L|14:230,1,46.7500014266968,2|0,3:3|3:3,0:0:0:0:
142,255,320085,5,10,3:3:0:0:
135,208,320173,1,0,3:3:0:0:
128,162,320261,1,2,3:3:0:0:
121,116,320349,1,0,3:3:0:0:
114,70,320438,2,0,L|122:18,3,46.7500014266968,10|0|2|0,3:3|3:3|3:3|3:3,0:0:0:0:
207,154,320791,6,0,P|226:163|257:161,1,46.7500014266968,14|0,3:3|3:3,0:0:0:0:
45,20,320967,2,0,P|26:11|-5:13,1,46.7500014266968,2|0,3:3|3:3,0:0:0:0:
202,161,321144,1,10,3:3:0:0:
254,175,321232,1,0,3:3:0:0:
308,160,321320,1,2,3:3:0:0:
349,120,321408,1,0,3:3:0:0:
363,66,321497,2,0,P|360:45|343:19,3,46.7500014266968,10|0|2|0,3:3|3:3|3:3|3:3,0:0:0:0:
429,126,321850,2,0,P|448:135|479:132,3,46.7500014266968,10|0|2|0,3:3|3:3|3:3|3:3,0:0:0:0:
332,21,322202,5,14,3:3:0:0:
265,21,322291,1,0,3:3:0:0:
208,54,322379,1,2,3:3:0:0:
176,111,322467,1,0,3:3:0:0:
177,176,322555,1,10,3:3:0:0:
209,233,322644,1,0,3:3:0:0:
266,265,322732,1,2,3:3:0:0:
331,265,322820,1,0,3:3:0:0:
387,233,322908,5,10,3:3:0:0:
347,193,322997,1,0,3:3:0:0:
293,178,323085,1,2,3:3:0:0:
238,193,323173,1,0,3:3:0:0:
199,233,323262,1,10,3:3:0:0:
148,257,323350,1,0,3:3:0:0:
91,252,323438,1,2,3:3:0:0:
46,219,323526,1,0,3:3:0:0:
23,173,323614,5,14,3:3:0:0:
70,137,323702,1,0,3:3:0:0:
130,131,323790,1,2,3:3:0:0:
184,158,323878,1,0,3:3:0:0:
218,206,323966,1,10,3:3:0:0:
223,266,324055,1,0,3:3:0:0:
198,319,324143,1,2,3:3:0:0:
150,354,324231,1,0,3:3:0:0:
89,358,324320,2,0,P|58:352|38:335,3,46.7500014266968,10|0|2|0,3:3|3:3|3:3|3:3,0:0:0:0:
199,200,324673,2,0,P|208:227|204:252,3,46.7500014266968,10|0|2|0,3:3|3:3|3:3|3:3,0:0:0:0:
92,237,325026,5,14,3:3:0:0:
115,240,325114,1,0,3:3:0:0:
138,243,325202,1,2,3:3:0:0:
161,246,325290,1,0,3:3:0:0:
185,249,325378,1,10,3:3:0:0:
208,252,325467,1,0,3:3:0:0:
230,254,325555,1,2,3:3:0:0:
253,257,325643,1,0,3:3:0:0:
277,260,325731,1,10,3:3:0:0:
300,263,325820,1,0,3:3:0:0:
323,266,325908,1,2,3:3:0:0:
347,268,325996,1,0,3:3:0:0:
370,272,326084,1,10,3:3:0:0:
393,275,326173,1,0,3:3:0:0:
416,278,326261,1,2,3:3:0:0:
440,281,326349,1,0,3:3:0:0:
463,283,326438,6,0,L|514:272,3,42.5,8|0|0|0,3:3|1:1|1:1|1:1,0:0:0:0:
471,357,326791,2,0,L|522:346,3,42.5,8|0|0|0,1:1|1:1|1:1|1:1,0:0:0:0:
378,192,327144,5,8,3:3:0:0:
378,192,327232,1,0,3:3:0:0:
378,192,327321,2,0,P|400:181|435:177,1,42.5,0|0,3:3|3:3,0:0:0:0:
347,330,327497,5,8,3:3:0:0:
347,330,327585,1,0,3:3:0:0:
347,330,327674,2,0,P|345:354|331:386,1,42.5,0|0,3:3|3:3,0:0:0:0:
247,227,327850,5,4,3:3:0:0:
205,216,327938,1,0,3:3:0:0:
164,206,328026,1,10,3:3:0:0:
123,196,328114,1,0,3:3:0:0:
81,186,328202,5,0,3:3:0:0:
84,207,328291,1,0,3:3:0:0:
88,227,328379,1,10,3:3:0:0:
92,248,328467,1,0,3:3:0:0:
96,270,328556,6,0,L|47:261,3,42.5,0|0|10|0,3:3|3:3|3:3|3:3,0:0:0:0:
86,345,328908,2,0,L|37:336,3,42.5,0|0|10|0,3:3|3:3|3:3|3:3,0:0:0:0:
189,314,329261,5,4,3:3:0:0:
232,309,329349,1,0,3:3:0:0:
274,304,329437,1,10,3:3:0:0:
316,301,329525,1,0,3:3:0:0:
358,296,329614,5,0,3:3:0:0:
349,278,329702,1,0,3:3:0:0:
340,259,329790,1,10,3:3:0:0:
331,239,329878,1,0,3:3:0:0:
322,220,329967,5,0,3:3:0:0:
280,224,330055,1,0,3:3:0:0:
238,229,330143,1,10,3:3:0:0:
196,233,330231,1,0,3:3:0:0:
153,237,330320,6,0,L|164:179,3,42.5,0|0|10|0,3:3|3:3|3:3|3:3,0:0:0:0:
76,167,330674,5,4,3:3:0:0:
68,125,330762,1,0,3:3:0:0:
61,83,330850,1,10,3:3:0:0:
54,41,330938,1,0,3:3:0:0:
48,0,331027,5,0,3:3:0:0:
68,4,331115,1,0,3:3:0:0:
89,8,331203,1,10,3:3:0:0:
110,11,331291,1,0,3:3:0:0:
131,15,331379,6,0,L|138:62,3,42.5,0|0|10|0,3:3|3:3|3:3|3:3,0:0:0:0:
204,3,331732,2,0,L|211:50,3,42.5,0|0|10|0,3:3|3:3|3:3|3:3,0:0:0:0:
205,147,332085,5,4,3:3:0:0:
244,132,332174,1,0,3:3:0:0:
284,117,332262,1,10,3:3:0:0:
324,102,332350,1,0,3:3:0:0:
364,88,332438,5,0,3:3:0:0:
358,130,332526,1,0,3:3:0:0:
351,172,332614,1,10,3:3:0:0:
344,214,332702,1,0,3:3:0:0:
336,256,332790,5,0,3:3:0:0:
313,242,332879,1,0,3:3:0:0:
307,214,332968,2,0,P|324:187|347:180,1,42.5,10|0,3:3|3:3,0:0:0:0:
478,159,333144,2,0,P|446:157|428:141,1,42.5,0|0,3:3|3:3,0:0:0:0:
344,38,333320,2,0,P|358:66|353:89,1,42.5,10|0,3:3|3:3,0:0:0:0:
414,237,333497,5,4,3:3:0:0:
414,279,333585,1,0,3:3:0:0:
392,316,333673,1,10,3:3:0:0:
356,337,333761,1,0,3:3:0:0:
313,337,333850,5,0,3:3:0:0:
321,297,333938,1,0,3:3:0:0:
348,270,334026,1,10,3:3:0:0:
387,265,334114,1,0,3:3:0:0:
420,281,334202,2,0,P|433:294|445:327,3,42.5,0|0|10|0,3:3|3:3|3:3|3:3,0:0:0:0:
334,249,334555,2,0,P|316:253|281:247,3,42.5,0|0|10|0,3:3|3:3|3:3|3:3,0:0:0:0:
425,168,334908,5,4,3:3:0:0:
448,127,334997,1,0,3:3:0:0:
440,81,335085,1,10,3:3:0:0:
404,51,335173,1,0,3:3:0:0:
357,51,335261,5,0,3:3:0:0:
352,82,335350,1,0,3:3:0:0:
361,114,335438,1,10,3:3:0:0:
386,134,335526,1,0,3:3:0:0:
418,139,335614,2,0,P|444:134|466:115,3,42.5,0|0|10|0,3:3|3:3|3:3|3:3,0:0:0:0:
352,216,335967,2,0,P|343:241|348:269,3,42.5,0|0|10|0,3:3|3:3|3:3|3:3,0:0:0:0:
284,102,336320,5,4,3:3:0:0:
253,71,336408,1,0,3:3:0:0:
212,60,336497,1,10,3:3:0:0:
171,71,336585,1,0,3:3:0:0:
141,102,336673,1,0,3:3:0:0:
130,143,336761,1,0,3:3:0:0:
141,184,336850,1,10,3:3:0:0:
171,214,336938,1,0,3:3:0:0:
212,225,337026,1,0,3:3:0:0:
246,249,337114,1,0,3:3:0:0:
264,287,337202,1,10,3:3:0:0:
261,330,337291,1,0,3:3:0:0:
236,364,337379,1,0,3:3:0:0:
197,383,337467,1,0,3:3:0:0:
155,380,337555,1,10,3:3:0:0:
120,355,337644,1,0,3:3:0:0:
102,315,337732,5,4,3:3:0:0:
140,284,337820,1,0,3:3:0:0:
184,279,337908,1,10,3:3:0:0:
218,292,337997,1,0,3:3:0:0:
235,317,338085,2,0,P|240:338|234:367,3,42.5,0|0|10|0,3:3|3:3|3:3|3:3,0:0:0:0:
291,264,338438,2,0,P|312:270|333:289,3,42.5,0|0|10|0,3:3|3:3|3:3|3:3,0:0:0:0:
173,196,338791,6,0,L|123:202,1,42.5,0|0,3:3|3:3,0:0:0:0:
298,131,338967,2,0,L|348:137,1,42.5,10|0,3:3|3:3,0:0:0:0:
177,44,339144,5,4,3:3:0:0:
146,74,339232,1,0,3:3:0:0:
136,116,339320,1,10,3:3:0:0:
146,157,339408,1,0,3:3:0:0:
177,187,339497,5,0,3:3:0:0:
202,162,339585,1,0,3:3:0:0:
210,126,339673,1,10,3:3:0:0:
199,91,339761,1,0,3:3:0:0:
164,70,339850,2,0,P|144:66|116:70,3,42.5,0|0|10|0,3:3|3:3|3:3|3:3,0:0:0:0:
289,126,340202,2,0,P|302:110|313:84,3,42.5,0|0|10|0,3:3|3:3|3:3|3:3,0:0:0:0:
196,229,340555,5,4,3:3:0:0:
226,259,340644,1,0,3:3:0:0:
267,270,340732,1,10,3:3:0:0:
308,259,340820,1,0,3:3:0:0:
338,229,340908,5,0,3:3:0:0:
308,201,340997,1,0,3:3:0:0:
269,197,341085,1,10,3:3:0:0:
233,212,341173,1,0,3:3:0:0:
211,243,341261,2,0,P|207:267|209:293,3,42.5,0|0|10|0,3:3|3:3|3:3|3:3,0:0:0:0:
314,355,341614,5,0,3:3:0:0:
352,361,341702,1,0,3:3:0:0:
390,367,341791,1,10,3:3:0:0:
428,373,341879,1,0,3:3:0:0:
466,379,341967,5,4,3:3:0:0:
460,341,342055,1,0,3:3:0:0:
454,302,342144,2,0,L|408:294,1,42.5,10|0,3:3|3:3,0:0:0:0:
356,227,342321,2,0,L|310:219,1,42.5,0|0,3:3|3:3,0:0:0:0:
243,304,342497,5,10,3:3:0:0:
238,334,342585,1,0,3:3:0:0:
233,366,342672,2,0,L|188:373,1,42.5,0|0,3:3|3:3,0:0:0:0:
130,316,342850,2,0,L|84:324,1,42.5,10|0,3:3|3:3,0:0:0:0:
41,256,343026,1,0,3:3:0:0:
41,256,343114,1,0,3:3:0:0:
41,256,343202,2,0,L|-5:264,1,42.5,10|0,3:3|3:3,0:0:0:0:
167,249,343379,5,4,3:3:0:0:
180,234,343467,1,0,3:3:0:0:
189,210,343555,1,10,3:3:0:0:
182,181,343644,1,0,3:3:0:0:
161,156,343732,1,0,3:3:0:0:
120,146,343820,1,0,3:3:0:0:
80,150,343908,1,10,3:3:0:0:
35,139,343997,1,0,3:3:0:0:
6,97,344085,1,0,3:3:0:0:
6,51,344173,1,0,3:3:0:0:
32,14,344261,1,10,3:3:0:0:
77,1,344350,1,0,3:3:0:0:
123,19,344438,6,0,P|143:28|174:29,1,42.5,0|0,3:3|3:3,0:0:0:0:
222,81,344614,2,0,P|239:68|256:41,1,42.5,10|0,3:3|3:3,0:0:0:0:
335,0,344791,5,4,3:3:0:0:
372,26,344879,1,0,3:3:0:0:
384,71,344967,1,10,3:3:0:0:
365,113,345055,1,0,3:3:0:0:
321,133,345144,5,0,3:3:0:0:
314,91,345232,1,0,3:3:0:0:
329,53,345320,1,10,3:3:0:0:
366,33,345408,1,0,3:3:0:0:
402,35,345497,2,0,P|423:48|434:66,3,42.5,0|0|10|0,3:3|3:3|3:3|3:3,0:0:0:0:
512,0,345850,2,0,P|511:24|501:43,3,42.5,0|0|10|0,3:3|3:3|3:3|3:3,0:0:0:0:
501,163,346202,5,4,3:3:0:0:
501,163,346291,1,0,3:3:0:0:
501,163,346379,2,0,L|509:219,1,42.5,10|0,3:3|3:3,0:0:0:0:
420,306,346555,5,0,3:3:0:0:
420,306,346644,1,0,3:3:0:0:
420,306,346732,2,0,L|412:362,1,42.5,10|0,3:3|3:3,0:0:0:0:
492,216,346908,6,0,L|484:160,3,42.5,0|0|10|0,3:3|3:3|3:3|3:3,0:0:0:0:
433,295,347261,2,0,L|425:351,3,42.5,0|0|10|0,3:3|3:3|3:3|3:3,0:0:0:0:
383,194,347614,5,4,3:3:0:0:
351,163,347702,1,0,3:3:0:0:
311,148,347791,1,10,3:3:0:0:
268,151,347879,1,0,3:3:0:0:
231,172,347967,1,0,3:3:0:0:
205,204,348055,1,0,3:3:0:0:
194,247,348144,1,10,3:3:0:0:
176,286,348232,1,0,3:3:0:0:
145,314,348320,1,0,3:3:0:0:
101,328,348408,1,0,3:3:0:0:
55,321,348496,1,10,3:3:0:0:
20,284,348585,1,0,3:3:0:0:
12,235,348673,1,0,3:3:0:0:
36,186,348761,1,0,3:3:0:0:
90,164,348850,1,10,3:3:0:0:
148,175,348938,1,0,3:3:0:0:
182,218,349026,6,0,P|186:243|180:271,1,42.5,12|0,3:3|0:0,0:0:0:0:
62,161,349202,6,0,L|48:125,2,25.4999992218018,2|0|0,0:0|0:0|0:0,0:0:0:0:
98,244,349555,1,2,0:0:0:0:
173,113,349732,1,2,0:0:0:0:
2,236,349908,1,2,0:0:0:0:
184,333,350085,1,2,0:0:0:0:
191,346,350438,6,0,P|162:335|139:335,1,42.5,0|0,1:1|0:0,0:0:0:0:
317,302,350614,2,0,P|346:291|369:291,1,42.5,0|0,1:1|0:0,0:0:0:0:
179,357,350791,2,0,P|150:346|127:346,1,42.5,0|0,1:1|0:0,0:0:0:0:
325,313,350967,2,0,P|354:302|377:302,1,42.5,8|0,1:1|0:0,0:0:0:0:
173,251,351144,5,8,3:3:0:0:
139,233,351232,1,0,3:3:0:0:
131,198,351320,1,0,3:3:0:0:
139,171,351408,1,0,3:3:0:0:
156,157,351497,2,0,P|177:145|201:142,1,42.5,0|0,3:3|3:3,0:0:0:0:
340,121,351673,5,8,3:3:0:0:
382,102,351761,1,0,3:3:0:0:
393,65,351849,1,0,3:3:0:0:
384,35,351937,1,0,3:3:0:0:
363,18,352026,2,0,P|331:9|317:10,1,42.5,0|0,3:3|3:3,0:0:0:0:
263,93,352202,5,8,3:3:0:0:
267,145,352290,1,0,3:3:0:0:
271,198,352378,1,0,3:3:0:0:
276,251,352466,1,0,3:3:0:0:
280,305,352555,6,0,B|318:303|366:274|356:186|308:149|204:161|195:227|207:282|238:304|274:305|274:305|310:362|262:386|221:354|274:305|259:328,1,441.999979766847,12|0,1:1|1:1,1:1:0:0:
